#TITLE:双璧のVANESSA;
#SUBTITLE:;
#ARTIST:Remixed by REINHARD;
#TITLETRANSLIT:Souheki no VANESSA;
#SUBTITLETRANSLIT:;
#ARTISTTRANSLIT:;
#GENRE:;
#CREDIT:;
#MUSIC:Souheki no VANESSA.ogg;
#BANNER:;
#BACKGROUND:;
#CDTITLE:;
#SAMPLESTART:33.907;
#SAMPLELENGTH:10.778;
#SELECTABLE:YES;
#OFFSET:0.746;
#BPMS:0.000=90.000
,19.958=180.000
,52.000=360.000
,76.000=90.000
,78.000=360.000
,205.000=180.000
,221.000=360.000
,251.000=90.000
,259.000=180.000
,279.000=90.000
,281.000=360.000
,406.500=720.000
,411.000=90.000
;
#STOPS:52.000=2.500
,58.500=0.333
,67.000=1.167
,78.000=1.167
,95.000=0.167
,158.000=0.167
,233.000=0.167
,233.500=0.167
,297.000=0.167
,360.000=0.167
,406.500=1.042
;
#DISPLAYBPM:90.000:360.000;
#BGCHANGES:;
#FGCHANGES:;

//--------------- dance-single - Pandemonium X ----------------
#NOTES:
     dance-single:
     Pandemonium X:
     Beginner:
     7:
     0,0,0,0,0:
0000
0000
0000
0000
,
0000
0000
0000
0000
,
0000
0000
0000
0000
,
0000
0000
0000
0000
,
0000
0000
0000
0000
,
0001
0000
0000
0000
,
1000
0000
0000
0000
,
0100
0000
0000
0000
,
1000
0000
0000
0000
,
0001
0000
0000
0000
,
1000
0000
0000
0000
,
0100
0000
0000
0000
,
1000
0000
0000
0000
,
0110
0001
0000
0001
,
0000
0001
0000
1000
,
0000
0001
0000
0200
,
0000
0320
0000
0030
,
0100
0000
0010
0000
,
1000
0000
0001
0000
,
0110
0000
0000
0001
,
0000
0000
0000
0001
,
0000
0000
0000
1000
,
0000
0000
0000
1000
,
0000
0001
0000
0100
,
0000
0000
0010
0000
,
0000
0000
0100
0000
,
0000
0000
0001
0000
,
1000
0000
0100
0000
,
0100
0000
0100
0000
,
0000
0000
0010
0000
,
0010
0000
0010
0000
,
0000
0000
0001
0000
,
0000
0000
1000
0000
,
0000
0000
0001
0000
,
1000
0000
0010
0000
,
0100
0000
0001
0000
,
0000
0000
0100
0000
,
0000
0000
0010
0000
,
0000
0000
1000
0000
,
0100
0000
0010
0000
,
0000
0100
0000
0000
,
0000
1000
0000
0000
,
0000
0010
0000
0100
,
0000
0001
0000
1000
,
0000
0010
0000
0000
,
0000
1000
0000
0001
,
0000
0100
0000
0000
,
0000
0001
0000
0000
,
0000
1000
0000
0000
,
0000
0010
0000
1000
,
0000
0100
0000
0010
,
0000
0001
0000
0000
,
0000
1000
0001
0100
,
0010
1000
0000
0000
,
0000
0010
1000
0100
,
0010
0001
0000
0010
,
0000
0100
0000
1000
,
0000
0100
0000
0010
,
0000
0001
0000
1000
,
0000
0001
0000
0100
,
0000
0001
0000
1000
,
0000
0100
0000
0010
,
0000
0001
0000
1001
,
0000
0000
0000
0000
,
0000
0000
0000
0001
,
0000
1000
0000
0010
,
0000
0100
0000
0001
,
0000
1000
0000
0100
,
0100
0010
0010
0002
,
0000
0000
0000
1003
,
0000
0001
0000
0000
,
0000
1000
0000
0000
,
0000
0010
0000
0000
,
0000
1000
0000
0100
,
0000
0010
0100
0000
,
1000
0000
0100
0000
,
1000
0000
0010
0000
,
0100
0000
0000
0000
,
0001
0000
0000
0000
,
1001
0000
0000
0000
,
1000
0000
0000
0000
,
0101
0000
0000
0000
,
0001
0000
0000
0000
,
1000
0000
0000
0000
,
0100
0000
0100
0000
,
0010
0000
0010
0000
,
0001
0000
0000
0000
,
0010
0000
0000
0000
,
0100
0000
0000
0000
,
1000
0000
0100
0000
,
0010
0100
0000
1000
,
0000
0001
0000
0100
,
0000
0001
0000
1000
,
0000
0000
0000
0001
,
0000
0000
0000
1000
,
0000
0000
0000
0010
,
0000
0000
0000
0100
,
0000
0000
0000
0001
,
0000
0000
0000
1000
,
0000
0000
0000
0010
,
0000
0100
0000
0001
,
0000
1000
0000
0000
,
0000
0000
0000
0010
;

//--------------- dance-single - Pandemonium X ----------------
#NOTES:
     dance-single:
     Pandemonium X:
     Easy:
     12:
     0,0,0,0,0:
0000
0000
0000
0000
,
0000
0000
0000
0000
,
0000
0000
0000
0000
,
0000
0000
0000
0000
,
0000
0000
0000
0000
,
1000
0001
1000
0001
,
0100
0001
0100
0001
,
0100
0010
0100
0010
,
1000
0010
1000
0010
,
1000
0100
0001
0100
,
1000
0010
0001
0010
,
0100
0100
0010
0010
,
1000
1000
1000
1000
,
0101
0001
0010
0100
,
1000
0001
0000
1100
,
0000
0011
0000
2100
,
0000
3001
0100
0010
,
0100
0000
0010
0000
,
1000
0000
0001
0000
,
0220
0000
0330
1000
,
0000
0100
0000
1000
,
0000
0010
0000
0100
,
0000
0001
0000
0010
,
0000
0100
0010
0001
,
0010
0000
0001
0000
,
0100
0000
0010
0000
,
1000
0000
0001
1000
,
0100
0000
0010
0100
,
1000
0000
1000
0001
,
0100
0000
0010
1000
,
0100
0000
0010
0100
,
1000
0000
0100
0000
,
0100
0000
0010
0000
,
0010
0000
0001
0010
,
0100
0000
0010
0001
,
0100
0010
1000
0000
,
1000
0000
0001
0000
,
0001
0000
0100
0000
,
0100
0000
0010
0100
,
0001
0010
0100
0010
,
0000
0010
0000
0001
,
0000
0001
0000
1000
,
0000
0001
0100
0001
,
0000
1000
0100
0010
,
0000
0100
1000
0001
,
0000
0100
0010
1000
,
0000
0001
0010
0100
,
0000
0010
0010
0001
,
0000
0100
0100
0010
,
0000
0110
0000
0101
,
0000
1010
0000
1100
,
0000
1001
0000
0000
,
0101
0101
0011
0110
,
1100
1001
0000
0000
,
1100
1100
0011
1100
,
1001
0101
0000
0101
,
0000
1010
0000
1010
,
0000
1001
0000
1001
,
0000
0000
0000
0110
,
0000
0110
0000
1010
,
0000
1010
0000
0101
,
0000
1010
0000
1100
,
0000
0011
0000
1001
,
0000
0000
0000
0000
,
0000
0000
0000
1000
,
1000
0001
0001
0100
,
0100
0010
0010
1000
,
0010
0100
0001
1001
,
0110
1001
0110
0001
,
0100
0010
1000
0200
,
0000
0310
0000
0001
,
0000
0100
0000
0010
,
0000
1000
0000
0001
,
0000
1000
0100
0010
,
0001
0010
0001
0000
,
0100
0000
0010
0000
,
1000
0000
0001
0000
,
0100
0010
1000
0001
,
0010
0010
0000
0001
,
0100
0010
1000
0000
,
0001
0001
0000
1000
,
0100
0010
0001
0000
,
0011
0000
0011
0000
,
1100
0000
1100
0000
,
0101
0000
1010
0000
,
1100
0000
0011
0000
,
0001
0100
0010
0000
,
0100
0001
1000
0000
,
0100
0010
0001
0000
,
0010
0100
1000
0001
,
0100
0010
1000
0001
,
0000
0010
0100
0010
,
0000
0001
0010
0100
,
1000
0100
0000
0100
,
1000
0010
0000
1010
,
0000
0101
0000
0001
,
1000
0010
0000
0110
,
0000
0101
0000
1000
,
0100
0010
0000
0001
,
0010
0100
0000
0100
,
0010
0100
1000
0100
,
0010
0001
0100
0000
,
0000
0000
0000
2002
,
0000
0000
0000
3003
;

//--------------- dance-single - Pandemonium X ----------------
#NOTES:
     dance-single:
     Pandemonium X:
     Medium:
     14:
     0,0,0,0,0:
0000
0000
0000
0000
,
0000
0000
0000
0000
,
0000
0000
0000
0000
,
0000
0000
0000
0000
,
0000
0000
0000
0000
,
0001
0001
1000
1000
,
0010
0010
1000
1000
,
0100
0100
0010
0010
,
0001
0001
0010
0010
,
0001
0001
0100
0100
,
0010
0010
1000
1000
,
0001
0100
0010
1000
,
1001
1001
0101
1010
,
1100
0001
0010
0100
,
1000
0000
0010
0100
0010
0100
1001
0000
,
0001
1000
0001
0000
1000
0001
0020
0000
,
0000
0130
0001
1001
,
1000
0000
0100
0000
1000
0000
0010
0000
0100
0000
0001
0000
,
0010
0000
0001
0000
0010
0000
0100
0000
1000
0000
0001
0000
,
0200
0000
0300
0010
,
1000
0010
1000
0001
,
0100
0001
1000
0100
,
0010
0100
0010
0001
,
0010
0100
1000
0001
,
0100
0001
0100
0001
,
0010
0001
0010
0100
,
1000
0100
1000
0010
,
0100
0001
1000
1000
,
0010
1000
0001
0010
,
0100
0010
0001
0001
,
0010
0100
0010
0001
,
1000
0010
0100
0100
,
0010
1000
0010
0010
,
1000
0000
0000
0001
0000
0000
0010
0000
0000
0000
0010
0000
,
0100
0000
0000
0000
0100
0000
1000
0000
0100
0000
0010
0000
,
0001
0000
0010
0000
0100
0000
0010
0000
0000
0001
0000
0000
,
0010
0001
1000
0010
,
1000
0010
0100
0001
,
0100
0001
0010
0100
,
1000
0001
0100
0010
,
1000
0010
1000
0001
,
0010
0001
0010
0100
,
0010
0001
1000
0010
,
0100
0001
0001
0010
,
0001
1000
0100
1000
,
0001
1000
1000
0001
,
0100
0001
0010
0100
,
1000
0010
0010
0100
,
0001
0100
0100
0001
,
0010
0100
0001
0100
,
1000
0010
0001
0010
,
1000
2002
3003
0000
,
1100
0000
0001
0010
0000
0010
0100
0000
0100
1000
0000
1000
,
0010
0100
0001
2002
0000
0000
3003
0000
0000
0000
0000
0000
,
0000
0000
0000
1001
0000
1000
0100
0000
0100
0010
0000
0010
,
0100
1000
0001
0100
0000
0000
0000
0001
0000
1000
0000
0000
,
0000
1000
0000
0010
0000
0000
0000
0010
0000
0100
0000
0000
,
0000
0100
0000
0001
0000
0000
0000
0001
0000
0010
0000
0000
,
0000
0000
0010
0000
0000
0000
0100
0000
0000
0010
0000
0000
0001
0000
0000
0000
0000
0000
1000
0000
0000
0000
0000
0000
,
0000
0001
0000
0100
0000
0000
0000
0010
0000
1000
0000
0000
,
0000
0100
0000
0010
0000
0000
0000
0100
0000
1000
0000
0000
,
0000
0001
0000
0100
0000
0000
0000
0010
0000
1000
0000
0000
,
0000
0100
0000
0010
0000
0000
0000
0010
0000
1001
0000
0000
,
0000
0000
0000
0000
,
0000
0000
0000
0001
,
0001
1000
1000
0010
,
0010
0100
0100
0101
,
0101
1010
1010
1001
,
0110
0000
0000
1010
0000
0000
0101
0000
0000
1000
0100
0010
,
0001
0010
0100
0010
0001
1000
0100
0010
0001
2000
0000
0000
,
0000
0000
0000
3001
0000
0000
0000
0001
0000
1000
0000
0000
,
0000
1000
0000
0100
0000
0000
0000
0100
0000
0010
0000
0000
,
0000
0010
0000
0001
0000
0000
0000
0001
0000
0100
0000
0000
,
0000
0100
0000
0010
0000
1000
0000
0010
0000
1000
0000
0001
,
0000
0010
0000
0100
0000
0000
0011
0000
0000
0000
0001
0000
,
1000
0000
0000
0000
1000
0000
0010
0000
0000
0000
0010
0000
,
0100
0000
0000
0000
0010
0000
1000
0000
0000
0000
1000
0000
,
0001
0000
0010
0000
0001
0000
0010
0000
0100
0000
0010
0000
,
0001
0000
0010
0000
0001
0000
0200
0000
0000
0000
0000
0000
,
0310
0000
0000
0000
1000
0000
0001
0000
0000
0000
0001
0000
,
0010
0000
0100
0000
0010
0000
0200
0000
0000
0000
1300
0000
,
0001
0000
0000
0000
0100
0000
0010
0000
0000
0000
1000
0000
,
0100
0000
0010
0000
0001
0000
1000
0000
0000
0000
0100
0000
,
1000
0000
0010
0000
0100
0000
0001
0000
0000
0000
0010
0000
,
0001
0000
0000
0000
1000
0000
0100
0000
0000
0000
0010
0000
,
0100
0000
0000
0000
1000
0000
0010
0000
0100
0000
0001
0000
,
1000
0000
0010
0000
0100
0000
0001
0000
1000
0000
0010
0000
,
0100
0000
0001
0000
1000
0000
0010
0000
0000
0000
0010
0000
,
1000
0000
0010
0000
0100
0000
0001
0000
1000
0000
0010
0000
,
0100
0000
0010
0000
1000
0000
0001
0000
0010
0000
0100
0000
,
1000
0000
0000
0001
0000
0010
0000
0100
0000
1000
0000
0001
,
0000
0010
0000
0100
0000
1000
0000
0001
0000
0010
0000
0100
,
0000
1000
0000
0001
0000
0010
0000
0100
0000
1000
0000
0100
,
0000
0010
0000
0100
0000
1000
0000
0001
0000
0100
0000
0000
,
0000
0010
0000
0100
0000
0001
0000
1000
0000
0100
0000
0000
,
0000
0010
0000
0100
0000
0010
0000
0001
0000
1000
0000
0000
,
0000
0001
0000
1000
0000
0100
0000
0010
0000
0100
0000
0000
,
0000
0010
0000
0001
0000
1000
0000
0100
0000
1000
0000
0000
,
0000
0001
0000
0100
0000
0000
0000
0100
0000
1000
0000
0000
,
0000
1000
0000
0100
0000
0000
0000
0100
0000
0001
0000
0010
,
0000
1000
0000
0010
0000
0001
0000
0100
0000
1000
0000
0100
,
0000
0010
0000
1000
0000
0001
0000
0000
0000
0000
0000
0000
,
0000
0000
0000
0220
,
0000
0000
0000
0330
;

//--------------- dance-single - Pandemonium X ----------------
#NOTES:
     dance-single:
     Pandemonium X:
     Hard:
     16:
     0,0,0,0,0:
0000
0000
0000
0000
,
0000
0000
0000
0000
,
0000
0000
0000
0000
,
0000
0000
0000
0000
,
0000
0000
0000
0000
,
0001
0001
1000
1000
,
0010
0000
0000
0010
0000
0000
0100
0000
0000
0100
0000
0100
,
0001
0001
1000
1000
,
0100
0000
0000
0100
0000
0000
0010
0000
0000
0010
0000
0010
,
0100
0100
0010
0010
,
0001
0000
0000
0001
0000
0000
1000
0000
0000
1000
0000
1000
,
0001
0100
0010
1000
,
0001
0010
0001
1000
0100
1000
0010
0100
0001
0010
0100
1000
,
0001
1000
1000
0001
,
0001
0000
0100
0001
0010
0100
0110
0000
,
0010
0001
0100
0000
0010
1000
0200
0000
,
0000
0320
0230
1300
,
0001
0000
0100
0000
0010
0000
1000
0000
0001
0000
0010
0000
,
0100
0000
0010
0000
0001
0000
1000
0000
0100
0000
0010
0000
,
0002
0000
0003
1000
,
0010
0100
0010
1000
,
0001
0000
0010
0000
0100
1000
0010
0000
,
0100
0001
0010
0001
,
1000
0100
1000
0000
0001
0100
0010
0000
,
0100
0001
0010
0001
,
1000
0100
0010
0001
,
0100
0000
0000
0001
0000
0000
1000
0000
0100
0000
0010
0000
,
0100
0000
1000
0000
0001
0000
0100
0000
0010
0000
1000
0000
,
0020
0000
0000
0000
0130
0000
0001
0000
0000
0010
0000
0000
,
0100
0000
0000
1000
0000
0000
0100
0000
0010
0000
0001
0000
,
0000
0000
0000
0000
1000
0000
0010
0000
0000
0001
0000
0000
,
0010
0100
0001
0001
,
1000
0000
1000
0000
0010
0100
0010
0100
,
0010
0000
1000
0000
0001
0000
0010
0100
,
0010
0000
0100
1000
0100
0000
1000
0010
,
0001
0010
0100
0001
1000
0000
0100
0000
,
1000
0010
0100
0001
,
0010
0100
0010
0001
,
1000
0000
0010
0000
0100
0000
0010
1000
,
0001
0000
0010
0100
1000
0000
0100
0000
,
0010
0001
1000
0010
,
1000
0001
0010
0100
,
1000
0000
0000
0010
0000
0000
0100
0000
0000
0000
0010
0000
0000
0000
1000
0000
0000
0000
0001
0000
0000
0000
0010
0000
,
0000
0100
0000
0010
0000
0000
0100
0000
0000
1000
0000
0000
,
0010
0000
0000
0100
0000
0000
0001
0000
0000
0000
1000
0000
0000
0000
0100
0000
0000
0000
0020
0000
0000
0000
0000
0000
,
0000
0031
0010
0001
,
1000
0000
0000
0010
0000
0000
0100
0000
0000
0000
0010
0000
0000
0000
1000
0000
0000
0000
0002
0000
0000
0000
0000
0000
,
0000
1003
0010
1000
,
0001
0010
0100
0000
0010
0000
0001
0000
,
1000
0100
0010
0000
0100
1000
0010
0000
,
0100
0001
0010
0000
0100
0010
0001
0100
,
0010
0000
0000
1000
0000
0000
0001
0000
0010
0000
0100
0000
0010
0000
0000
0000
0000
0000
0000
0000
0000
0000
0000
0000
,
0110
0000
1000
0001
0000
0100
0010
0000
1000
0100
0000
0100
,
0010
0100
1000
0001
0100
0001
0100
0000
0000
0000
0000
0000
,
0110
0000
0010
1000
0000
1000
0100
0000
0010
0001
0000
0010
,
0100
1000
0001
0100
0000
0001
0000
0010
0000
0100
0000
0010
,
0000
0001
0000
1000
0000
0010
0000
0100
0000
0001
0000
1000
,
0000
0100
0000
0010
0000
0100
0000
1000
0000
0010
0000
0100
,
0000
0000
0001
0000
0000
0000
1000
0000
0000
0100
0000
0000
0010
0000
0000
0000
0000
0000
0100
0000
0000
0000
1000
0000
,
0000
0100
0000
0010
0000
0100
0000
1000
0000
0001
0000
0100
,
0000
0010
0000
0100
0000
0001
0000
1000
0000
0100
0000
0010
,
0000
0100
0000
1000
0000
0001
0000
0100
0000
0010
0000
1000
,
0000
0001
0000
0010
0000
0100
0000
1000
0000
1001
0000
0000
,
0000
0000
0000
0000
,
0000
0000
0000
0001
,
0001
0100
0100
0010
,
0010
1000
1000
1010
,
0101
0000
0000
0011
0000
0000
1100
0000
0000
1000
0100
0001
,
0100
1000
0010
0001
0100
0010
1000
0001
0010
0001
0010
0100
,
1000
0100
0010
0001
0010
0100
1000
0100
0010
0002
0000
0000
,
0000
0000
0000
1003
0000
0010
0000
0100
0000
0010
0000
1000
,
0000
0010
0000
0100
0000
0001
0000
0010
0000
0100
0000
0000
,
0000
0000
0000
0100
0000
0000
1000
0000
0000
0000
0001
0000
0000
0000
0100
0000
0000
0000
0010
0000
0000
0000
1000
0000
,
0000
0100
0000
0010
0000
0001
0000
0010
0000
1000
0000
0010
,
0000
0001
0000
0000
0000
0000
1001
0000
1000
0000
0001
0000
,
0100
0000
0001
0000
1000
0000
0100
0000
0010
0000
0100
0000
,
1000
0000
0010
0000
0100
0000
0001
0000
0010
0000
0001
0000
,
1000
0000
0100
0000
0001
0000
0100
0000
0010
0000
0100
0000
,
1000
0000
0010
0000
0001
0000
0010
0000
1000
0000
0001
0000
,
0100
0000
0001
0000
1000
0000
0001
0000
0010
0000
0100
0000
,
1000
0000
0100
0000
0001
0000
0100
0000
0010
0000
0001
0000
,
0100
0000
0010
0000
1000
0000
0100
0000
0010
0000
0001
0000
,
1000
0000
0010
0000
0100
0000
0010
0000
1000
0000
0001
0000
,
0010
0000
0100
0000
0010
0000
0001
0000
1000
0000
0010
0000
,
0100
0000
0001
0000
1000
0000
0100
0000
0010
0000
0001
0000
,
0100
0000
1000
0000
0100
0000
0001
0000
0010
0000
0001
0000
,
1000
0000
0100
0000
0010
0000
0001
0000
0010
0000
0100
0000
,
1000
0000
0000
0000
0100
0000
0000
0000
1000
0000
0000
0000
0010
0000
0000
0000
0000
0000
0000
0000
0000
0100
0000
0000
,
0010
0000
0100
0000
0010
0000
1000
0000
0001
0000
0100
0000
,
0001
0000
0010
0000
0100
0000
1000
0000
0010
0000
0100
0000
,
0001
0000
0000
1001
0000
1000
0000
0010
0000
0100
0000
0001
,
0000
1000
0000
0010
0000
1000
0000
0001
0000
0010
0000
0100
,
0000
0010
0000
0001
0000
1000
0000
0100
0000
1000
0000
0010
,
0000
0100
0000
0001
0000
0010
0000
0100
0000
1000
0000
0100
,
0000
1000
0000
0010
0000
0100
0000
0001
0000
0010
0000
0100
,
0000
0010
0000
0001
0000
0100
0000
0010
0000
1000
0000
0001
,
0000
0010
0000
0001
0000
1000
0000
0100
0000
0010
0000
0100
,
0000
1000
0000
0010
0000
0100
0000
0001
0000
0010
0000
0100
,
0000
1000
0000
0100
0000
0010
0000
0100
0000
1000
0000
0100
,
0000
0000
0010
0000
0000
0000
0001
0000
0000
0000
1000
0000
0000
0000
0001
0000
0000
0000
1000
0000
0000
0100
0000
0000
,
1000
0100
0010
0001
0010
0001
0100
0010
,
1000
0100
0010
0001
1000
0001
0000
0000
,
0000
0000
0000
0220
,
0000
0000
0000
0300
,
0000
0000
0000
0030
;

//--------------- dance-single - Pandemonium X ----------------
#NOTES:
     dance-single:
     Pandemonium X:
     Challenge:
     18:
     0,0,0,0,0:
0000
0000
0000
0000
,
0000
0000
0000
0000
,
0000
0000
0000
0000
,
0000
0000
0000
0000
,
0000
0000
0000
0000
,
0001
0100
0010
1000
,
0100
0001
0100
0010
,
0001
0010
0100
1000
,
0010
0001
0010
0100
,
0001
0010
1000
0010
,
0001
0100
1000
0100
,
0010
0000
0010
0100
0000
0100
0001
0000
0001
0010
0000
0100
,
1000
0100
0001
0100
1000
0010
0001
0010
0100
0001
0010
0100
,
1001
0101
0101
1010
,
1010
0000
1000
0100
0010
0001
0011
0000
,
0001
1000
0001
1000
0000
0000
0001
1000
0001
0200
0000
0000
,
0000
0000
0000
0000
0320
0000
0000
0000
2030
0000
0000
3000
1100
0000
0000
0000
,
0010
0000
0001
0000
0010
0000
1000
0000
0010
0000
0001
0000
,
0100
0000
1000
0000
0100
0000
0010
0000
1000
0000
0001
0000
,
0020
0000
0000
0000
0000
0000
0000
0000
0130
1000
0100
1000
0100
1000
0100
1000
0001
0000
0000
0000
0000
0000
0000
0000
1010
0000
0000
0000
0000
0000
0000
0000
,
0100
0001
1000
0000
0100
0010
0001
0000
,
0010
0001
0100
0000
0010
1000
0001
0000
,
0010
0000
0000
0100
0000
0000
1000
0000
0000
0000
0000
0000
0100
0000
0000
1000
0000
0000
0010
0000
0000
0000
0100
0000
,
0000
1000
0000
0100
0000
0001
0000
1000
0000
0100
0000
0000
,
0011
0010
0100
0000
0010
0001
1000
0000
,
0010
0100
0001
0000
1000
0010
0100
0000
,
0001
0000
0000
1000
0000
0000
0100
0000
0000
0000
0000
0000
0010
0000
0000
0000
0100
0000
0000
0000
1000
0000
0000
0000
,
0001
0000
0100
0000
0001
0000
1000
0000
0100
0000
0010
0000
,
0001
0100
0010
1000
0100
0000
0011
0000
,
1001
0000
0000
1100
0000
0000
0001
0000
0100
0000
0001
0000
,
0000
0000
1000
0000
0100
0000
0010
0000
0001
0000
0010
0000
,
0001
0000
1000
0000
0010
0000
1000
0000
0000
1010
0000
0000
,
1010
0000
1001
0000
1000
0100
1000
0001
,
0100
0000
0000
0000
0010
0000
0000
0000
1000
0000
0000
0000
0100
0000
0000
0000
0000
0000
0010
0000
0000
0100
0000
0000
,
1000
0000
0100
0010
0001
0000
1000
0001
,
0010
0000
0100
0000
0010
0000
0100
0000
0010
0000
0100
0000
0010
0000
0000
0000
0000
0000
0100
0000
0000
1000
0000
0000
,
0001
0000
0001
1000
0100
0000
1000
0001
,
0010
0000
0100
1000
0100
0000
0010
0001
,
0100
0000
0000
0000
0000
0000
0010
0000
0000
0100
0000
0000
0001
0000
0000
0000
0010
0000
0000
0000
0100
0000
0000
0000
,
0010
0000
0000
0000
0001
0000
0000
0000
1000
0000
0000
0000
0001
0000
0000
0000
0000
0000
1010
0000
0000
0010
0000
0000
,
0100
0000
0010
1000
0001
0000
0010
0001
,
1000
0000
0100
1000
0010
0000
0100
0001
,
0010
0000
0000
0100
0000
0100
0000
0010
0000
0001
0000
1000
,
0000
0010
0000
0100
0000
0000
0101
0000
0000
0011
0000
0000
,
1000
0000
0000
0001
0000
0000
0100
0000
0000
0000
0010
0000
0000
0000
1000
0000
0000
0000
0001
0000
0000
0000
0010
0000
,
0000
0100
0000
1000
0000
0000
0110
0000
0000
0011
0000
0000
,
0001
0000
0000
0000
0010
0000
0000
0000
0001
0000
0000
0000
1000
0000
0000
0100
0000
0000
0010
0000
0000
0001
0000
0000
,
0100
0010
1000
0100
0010
0000
0100
0010
,
0001
0000
0010
0100
1000
0000
0100
0010
,
0001
0000
0000
1000
0000
1000
0000
0001
0000
0100
0000
0100
,
0000
0010
0000
1000
0000
1000
0000
0100
0000
0010
0000
1000
,
0000
0010
0000
0001
0001
1000
0010
0000
0000
0000
0000
0000
,
0110
0000
0000
0000
0000
0000
0000
0000
0000
0000
0000
0000
0000
0000
0000
0000
0000
0000
0000
0000
0000
0000
0000
0000
0000
0000
0000
0000
0000
0000
0000
0000
0001
0000
0000
0000
0000
0000
0000
0000
0000
0000
0000
0000
0000
0000
0000
0000
1001
0000
0000
0000
0000
0000
0000
0000
0000
0000
0000
0000
0000
0000
0000
0000
0000
0000
0000
0000
0000
0000
0000
0000
0000
0000
0000
0000
0000
1000
0000
0000
0000
0000
0000
0000
0000
0000
0001
0000
0000
0000
0000
0000
0000
0000
0000
0000
1000
0000
0000
0000
0000
0000
0000
0000
0000
0000
0000
0000
0000
0000
0000
0000
0000
0000
0000
0000
0000
0000
0000
0000
0000
0000
0000
0000
0000
0001
0000
0000
0000
0000
0000
0000
0000
0000
1000
0000
0000
0000
0000
0000
0000
0000
0000
0000
0001
0000
0000
0000
0000
0000
0000
0000
0000
0000
0000
0000
0000
0000
0000
0000
0010
0000
0000
0000
0000
0000
0000
0000
0000
0000
0000
0000
0000
0000
0000
0000
0100
0000
0000
0000
0000
0000
0000
0000
0000
0000
0000
0000
0000
0000
0000
0000
,
2000
0000
0000
3100
0100
1000
0010
0000
0000
0000
0000
0000
,
0100
0000
0000
0000
0000
0000
0000
0000
0000
0000
0000
0000
0000
0000
0000
0000
1000
0000
0000
0000
0000
0000
0000
0000
0000
0000
0000
0000
0000
0000
0000
0000
0100
0000
0000
0000
0000
0000
0000
0000
0000
0000
0000
0000
0000
0000
0000
0000
0001
0000
0000
0000
0000
0000
0000
0000
0000
0000
0100
0000
0000
0000
0000
0000
0000
0000
0000
0001
0000
0000
0000
0000
0000
0000
0000
0000
0000
0100
0000
0000
0000
0000
0000
0000
0000
0000
0001
0000
0000
0000
0000
0000
0000
0000
0000
0000
0010
0000
0000
0000
0000
0000
0000
0000
0000
0000
0000
0000
0100
0000
0000
0000
0000
0000
0000
0000
0000
0000
0000
0000
1000
0000
0000
0000
0000
0000
0000
0000
0000
0000
0000
0000
0001
0000
0000
0000
0000
0000
0000
0000
0000
0000
0000
0000
1000
0000
0000
0000
0000
0000
0000
0000
0000
0000
0000
0000
0000
0000
0000
0000
0100
0000
0000
0000
0000
0000
0000
0000
0000
0000
0000
0000
0000
0000
0000
0000
0010
0000
0000
0000
0000
0000
0000
0000
0000
0000
0000
0000
0000
0000
0000
0000
,
0001
1000
0010
0100
0000
0100
0000
0001
0000
0010
0000
0010
,
0000
0100
0000
1000
0000
1000
0000
0100
0000
0010
0000
0010
,
0000
0100
0000
1000
0000
1000
0000
0001
0000
0100
0000
0100
,
0000
0000
0000
0000
0001
0000
0000
0000
0000
0000
0000
0000
0022
0000
0000
0000
0033
0000
2020
0000
0000
3030
0000
0000
2002
0000
0000
3003
0000
0000
0000
0000
0000
0000
0000
0000
1000
0000
0000
0000
0000
0000
0000
0000
1000
0000
0000
0000
,
0000
0010
0000
0100
0000
0100
0000
0001
0000
1000
0001
1000
,
0001
0000
1000
0000
0001
0000
0100
0000
0000
0010
0000
0000
1000
0000
0000
0001
0000
0000
1000
0000
0000
0000
1000
0000
,
0000
0100
0000
0010
0000
0010
0000
0001
0000
0010
0001
0010
,
0001
0010
0100
1000
0010
0100
1001
0000
,
0000
0000
0000
0000
,
0000
0000
0000
0000
0000
0000
0000
0000
0000
0001
0100
0010
,
0001
1000
0100
0010
0100
1000
0001
0010
0100
0010
0100
1000
,
0001
0100
1000
0100
0010
1000
0001
0010
0100
1100
0000
1000
,
1001
0000
0001
0101
0000
1000
1010
0000
0001
0100
0100
0100
,
0100
0100
0100
0010
0010
0010
1000
1000
1000
0001
0100
1000
,
0010
0001
1000
1000
0100
0001
0010
1000
0001
2000
0000
0000
,
0000
0000
0000
3001
0000
0010
0000
0001
0000
0100
0000
0010
,
0000
1000
0000
0100
0000
0010
0000
0100
0000
1000
0000
0000
,
0001
0000
0000
1000
0000
0000
0100
0000
0000
0000
0010
0000
0000
0000
0001
0000
0000
0000
1000
0000
0000
0000
0010
0000
,
0000
0100
0000
1000
0000
0100
0000
0001
0000
0010
0000
0100
,
0000
1000
0000
0001
0000
0000
1100
0000
0100
0000
1000
0000
,
0001
0000
0100
0000
0010
0000
1000
0000
0001
0000
0010
0000
,
0100
0000
0010
0000
0001
0000
1000
0000
0010
0000
0001
0000
,
0010
0000
0100
0000
0001
0000
1000
0000
0100
0000
0010
0000
,
0001
0000
0000
0000
0001
0000
0000
0000
1000
0000
0000
0000
0010
0000
0000
0100
0000
0000
0001
0000
0000
1000
0000
0000
,
0100
0110
0010
0011
,
0001
0000
0000
0000
0001
0000
0000
0000
0001
0000
0000
0000
0000
0000
0000
0000
0000
0000
1000
0000
0000
0001
0000
0000
,
0100
0000
1000
0000
0100
0000
0010
0000
1000
0000
0001
0000
,
1000
0000
1000
0000
0001
0000
0010
0000
0010
0000
0100
0000
,
1000
0000
1000
0000
0001
0000
1000
0000
0100
0000
0010
0000
,
0100
0000
0100
0000
1000
0000
0100
0000
1000
0000
0100
0000
,
0010
0000
0000
0000
0010
0000
0000
0000
0001
0000
0000
0000
0010
0000
0000
0100
0000
0000
1000
0000
0000
0001
0000
0000
,
0100
0000
0100
0000
0001
0000
1000
0000
1000
0000
0100
0000
,
0010
0000
0010
0000
0001
0000
0010
0000
0000
0000
0010
0000
,
0001
0000
0001
0000
1000
0000
0010
0000
0010
0000
0100
0000
,
0001
0000
1000
0000
0100
0000
0010
0000
0001
0000
0010
0000
,
0100
0000
0000
1001
0000
1000
0000
0001
0000
0010
0000
0010
,
0000
0100
0000
1000
0000
1000
0000
0100
0000
1000
0000
1000
,
0000
0010
0000
0100
0000
0100
0000
0010
0000
0001
0000
0010
,
0000
1000
0000
0001
0000
0100
0000
0001
0000
1000
0000
0010
,
0000
0001
0000
0010
0000
0100
0000
1000
0000
0001
0000
0001
,
0000
0001
0000
1000
0000
1000
0000
1000
0000
0001
0000
0010
,
0000
1000
0000
0010
0000
0001
0000
1000
0000
0001
0000
0001
,
0000
0000
0001
0000
0000
0000
1000
0000
0000
0000
1000
0000
0000
0000
1000
0000
0000
0000
0001
0000
0000
0010
0000
0000
,
0100
1000
0010
0100
0001
1000
0100
0010
,
0100
1000
0010
0100
0001
1000
0100
0010
,
0100
0000
0000
0000
0000
0000
0000
0000
0000
0000
0000
0000
0000
0000
0000
0000
0000
0000
0000
0000
0000
0000
0000
0000
1000
0000
0000
0000
0000
0000
0000
0000
0000
0000
0000
0000
0000
0000
0000
0000
0000
0000
0000
0000
0000
0000
0000
0000
0001
0000
0000
0000
0000
0000
0000
0000
0000
0000
0000
0000
0000
0000
0000
0000
0000
0000
0000
0000
0000
0000
0000
0000
0010
0000
0000
0000
0000
0000
0000
0000
0000
0000
0000
0000
0000
0000
0000
0000
0000
0000
0000
0000
0000
0000
0000
0000
0100
0000
0000
0000
0000
0000
0000
0000
0000
0000
0000
0000
0000
0000
0000
0000
0000
0000
0000
0000
0000
0000
0000
0000
1000
0000
0000
0000
0000
0000
0000
0000
0000
0000
0000
0000
0000
0000
0000
0000
0000
0000
0000
0000
0000
0000
0000
0000
0001
0000
0000
0000
0000
0000
0000
0000
0000
0000
0000
0000
0000
0000
0000
0000
0000
0000
0000
0010
0000
0000
0000
0000
0000
0000
0000
0000
0000
0000
0000
0000
0000
0000
0000
0000
0000
0000
0100
0000
0000
0000
0000
0000
0000
0000
0000
0000
,
0000
0000
0000
0000
0000
0000
0000
0000
0000
0000
1000
0000
0000
0000
0000
0000
0000
0000
0000
0000
0000
0000
0000
0000
0000
0000
0000
0000
0000
0100
0000
0000
0000
0000
0000
0000
0000
0000
0000
0000
0000
0000
0000
0000
0000
0000
0000
0000
0010
0000
0000
0000
0000
0000
0000
0000
0000
0000
0000
0000
0000
0000
0000
0000
0000
0000
0000
0001
0000
0000
0000
0000
0000
0000
0000
0000
0000
0000
0000
0000
0000
0000
0000
0000
0000
0000
0100
0000
0000
0000
0000
0000
0000
0000
0000
0000
0000
0000
0000
0000
0000
0000
0000
0000
0000
0000
0010
0000
0000
0000
0000
0000
0000
0000
0000
0000
0000
0000
0000
0000
1000
0000
0000
0000
0000
0000
0000
0000
0000
0000
0000
0000
0000
0000
0000
0000
0000
0000
0000
0000
0000
0000
0000
0000
0000
0000
0000
0000
0000
0000
0000
0000
0000
0000
0000
0000
0000
0000
0000
0000
0000
0000
0000
0000
0000
0000
0000
0000
0000
0000
0000
0000
0000
0000
0000
0000
0000
0000
0000
0000
0000
0000
0000
0000
0000
0000
0000
0000
0000
0000
0000
0000
,
0000
0000
0000
2002
,
0000
0000
0000
0000
,
0000
0000
0000
3003
;

//--------------- dance-double - Pandemonium X ----------------
#NOTES:
     dance-double:
     Pandemonium X:
     Easy:
     11:
     0,0,0,0,0:
00000000
00000000
00000000
00000000
,
00000000
00000000
00000000
00000000
,
00000000
00000000
00000000
00000000
,
00000000
00000000
00000000
00000000
,
00000000
00000000
00000000
00000000
,
00010000
00010000
00001000
00001000
,
00100000
00100000
00010000
00010000
,
10000000
10000000
01000000
01000000
,
00100000
00100000
00001000
00001000
,
00010000
00000100
00010000
00000100
,
00001000
00000010
00001000
00000010
,
00000100
00000001
00000100
00000001
,
00001000
00001000
00001000
00001000
,
00011000
00001000
01000000
00001000
,
01000000
00000000
00200000
00000000
00000000
00300000
01100000
00000000
,
00000000
01010000
00000000
00210000
,
00000000
00301000
00010000
00011000
,
00010000
00000000
00000100
00000000
,
00001000
00000000
00000010
00000000
,
00000202
00000000
00000303
00000001
,
00000000
00001000
00000000
00000100
,
00000000
00010000
00000000
00001000
,
00000000
01000000
00000000
00100000
,
00000000
10000000
00000000
00000000
,
00110000
00000000
00100000
00000000
,
00001000
00000000
00010000
00000000
,
00000010
00000000
00000100
00000000
,
00000001
00000000
00000010
00000100
,
00001000
00000000
00000100
00000000
,
00010000
00000000
00001000
01000000
,
00100000
00000000
01000000
00000000
,
00010000
00000000
10000000
00000000
,
10000000
00000000
00010000
00000000
,
00010000
00000000
00110000
00000000
,
00110000
00000000
00011000
00000000
,
00011000
00000000
00010000
00000000
,
00000100
00000000
00001000
00000000
,
00000010
00000000
00000100
00000000
,
00000001
00000000
00000010
00000000
,
00000100
00000000
00000000
00000011
,
00000000
00000001
00000000
00001000
,
00000000
00000100
00000000
00010000
,
00000000
00001000
00000000
01000000
,
00000000
00100000
10000000
00010000
,
00000000
00100000
00000000
01000000
,
00000000
10000000
01000000
00100000
,
00000000
01000000
00000000
10000000
,
00000000
10010000
00000000
00010000
,
00000000
00110000
00000000
00100000
,
00000000
00110000
00000000
00011000
,
00000000
00001010
00000000
00000110
,
00000000
00000101
00000000
00000000
,
00001001
00001100
00010100
00011000
,
01001000
01100000
00000000
00000000
,
01000000
10010000
11000000
01100000
,
00110000
00100000
00000000
00001000
,
00000000
00010000
00000000
00000010
,
00000000
00000100
00000000
00000001
,
00000000
00000020
00000000
00000130
,
00000000
00000010
00000000
00000002
,
00000000
00000103
00000000
00001010
,
00000000
00001010
00000000
00010100
,
00000000
00010100
00000000
00011000
,
00000000
00000000
00000000
00000000
,
00000000
00000000
00000000
00001000
,
00001000
01000000
01000000
00100000
,
00100000
10000000
10000000
00010000
,
00100000
00001000
00010000
00000010
,
00000010
00000100
00000100
00000001
,
00000010
00000100
00001000
00011000
,
00000000
00010000
00000000
00001000
,
00000000
01000000
00000000
00100000
,
00000000
10000000
00000000
00010000
,
00000000
00100000
00000000
01000000
,
00000000
00000000
00110000
00000000
,
00100000
00000000
00001000
00000000
,
00010000
00000000
00000010
00000000
,
00000100
00000000
00000001
00000000
,
00000010
00000001
00000010
00000000
,
00000001
00000000
00000100
00000000
,
00000010
00001000
00000010
00000000
,
00001000
00000000
00000100
00000000
,
00010000
00000000
00010000
00000000
,
00001000
00000000
00001000
00000000
,
00011000
00000000
01001000
00000000
,
01100000
00000000
10100000
00000000
,
10000000
00000000
01000000
00000000
,
00010000
00000000
01000000
00000000
,
00100000
00000000
00001000
00000000
,
00010000
00000000
00000100
00000000
,
00000000
00000011
00000000
00000010
,
00000000
00001000
00000000
00000010
,
00000000
00000001
00000000
00000010
,
00000000
00000100
00000000
00010000
,
00000000
00010000
00000000
00001000
,
00000000
00001000
00000000
01000000
,
00000000
01000000
00000000
00100000
,
00000000
00100000
00000000
10100000
,
00000000
10100000
00000000
01010000
,
00000000
01010000
00000000
00110000
,
00000000
00011000
00000000
00001010
,
00000000
00000101
00000000
00000000
,
00000000
00000000
00000000
00001001
;

//--------------- dance-double - Pandemonium X ----------------
#NOTES:
     dance-double:
     Pandemonium X:
     Medium:
     14:
     0,0,0,0,0:
00000000
00000000
00000000
00000000
,
00000000
00000000
00000000
00000000
,
00000000
00000000
00000000
00000000
,
00000000
00000000
00000000
00000000
,
00000000
00000000
00000000
00000000
,
00001000
00001000
00010000
00010000
,
00000100
00000100
00010000
00010000
,
00001000
00001000
00010000
00010000
,
00001000
00001000
01000000
01000000
,
00100000
00100000
10000000
10000000
,
01000000
00100000
00001000
00010000
,
00000100
00000100
00001000
00001000
,
00000010
00000010
00000010
00000010
,
00001001
00000001
00000100
00000010
,
00001000
00000000
00000100
00001000
00000100
00000000
00011000
00000000
,
00000000
00001000
01000000
00000000
00000000
01000000
00020000
00000000
,
00000000
00130000
01000000
11000000
,
10200000
00000000
01300000
00000000
,
00210000
00000000
00301000
00000000
,
00022000
00033000
00000000
00010000
,
00000100
00010000
00000100
00001000
,
00000010
00001000
00000010
00000100
,
00000001
00000100
00000001
00000100
,
00000010
00001000
00000100
00010000
,
00001000
01000000
00001000
01000000
,
00001000
01000000
00100000
01000000
,
00100000
10000000
01000000
00100000
,
00010000
00000000
00000000
00100000
00000000
00000000
00001000
00000000
00010000
00000000
00001000
00000000
,
00020000
00000000
00030100
00000000
,
00001100
00000000
00000000
00000000
00000000
00000000
00000010
00000000
00001000
00000000
00000010
00000000
,
00000000
00000000
00000000
00000000
00000100
00000000
00000001
00000000
00000000
00000000
00000000
00000000
,
00000010
00000000
00000100
00000010
,
00000001
00000010
00000100
00001000
,
00000100
00010000
00001000
01000000
,
00100000
00010000
00100000
10000000
,
00010000
00100000
01000000
00100000
,
01000000
00100000
00010000
00100000
,
00010000
00100000
00001000
00100000
,
00001000
00100000
00001000
00010000
,
00000010
00000100
00000001
00000010
,
00000100
00000010
00000100
00000010
,
00000001
00000010
00000001
00000010
,
00000001
00000010
00000100
00001000
,
00000100
00010000
00001000
00100000
,
00010000
00100000
00010000
00000000
10000000
00000000
00200000
00000000
,
00000000
01300000
00010000
00100000
,
00001000
00010000
00001000
00000000
00010000
00000000
00000010
00000000
,
00000100
00000010
00001000
00000100
,
00000010
00000001
00001000
00000100
,
00010000
00001000
01000000
00100000
,
10000000
00010000
00100000
00001000
,
00010000
00000000
00000000
00000100
00000000
00001000
00000010
00000000
00000000
00000000
00000000
00000000
,
00000110
00000000
00000100
00000001
00000000
00000010
00000100
00000000
00000010
00010000
00001000
00100000
,
00001000
00100000
00010000
00100000
01000000
10000000
00100000
00000000
00000000
00000000
00000000
00000000
,
01000000
00000000
00000000
10100000
00000000
10000000
00010000
00000000
00100000
00001000
00000000
00010000
,
00000100
00000000
00000000
00001000
00000000
00000010
00000000
00001000
00000000
00000001
00000000
00000100
,
00000000
00000001
00000000
00000010
00000000
00000100
00000000
00000010
00000000
00000100
00000000
00001000
,
00000000
00000100
00000000
00010000
00000000
00001000
00000000
00010000
00000000
00001000
00000000
01000000
,
00000000
00000000
00001000
00000000
00000000
00000000
01000000
00000000
00000000
00100000
00000000
00000000
10000000
00000000
00000000
00000000
00000000
00000000
01000000
00000000
00000000
00000000
00100000
00000000
,
00000000
00001000
00000000
00010000
00000000
00000000
00000000
00000100
00000000
00001000
00000000
00000010
,
00000000
00000100
00000000
00000001
00000000
00000000
00000000
00000010
00000000
00000100
00000000
00000000
,
00000000
00000100
00000000
00001000
00000000
00000000
00000000
00000001
00000000
00001000
00000000
00000100
,
00000000
00000010
00000000
00000001
00000000
00000010
00000000
00000100
00000000
00001000
00000000
00000000
,
00000000
00000000
00000000
00000000
,
00000000
00000000
00000000
00000100
,
00000100
00010000
00010000
00001000
,
00001000
01000000
01000000
00100000
,
10000000
00010000
00100000
00110000
,
00011000
00001010
00001001
00000002
,
00000203
00000320
00020030
00032000
,
00000000
00000000
00000000
00103000
00000000
00000000
00000000
00010000
00000000
00100000
00000000
00000000
,
00000000
01000000
00000000
10000000
00000000
00000000
00000000
10000000
00000000
00100000
00000000
00000000
,
00000000
00100000
00000000
01000000
00000000
00000000
00000000
01000000
00000000
00010000
00000000
00000000
,
00000000
00100000
00000000
00001000
00000000
00010000
00000000
00000100
00000000
00001000
00000000
00000010
,
00000000
00000100
00000000
00000001
00000000
00000000
00001100
00000000
00000000
00000000
00000100
00000000
,
00010000
00000000
00000000
00000000
00010000
00000000
00001000
00000000
00000000
00000000
00001000
00000000
,
01000000
00000000
00000000
00000000
01000000
00000000
00010000
00000000
00000000
00000000
00010000
00000000
,
00100000
00000000
00000000
00000000
00100000
00000000
00001000
00000000
00010000
00000000
00000100
00000000
,
00001000
00000000
00000010
00000000
00000100
00000000
00000002
00000000
00000000
00000000
00000000
00000000
,
00001003
00000100
00010000
00001000
,
01000000
00000000
00010000
00000000
00100000
00000000
00000000
00000000
00000000
02000000
00000000
00000000
,
13000000
01000000
00100000
00001000
,
00010000
00000000
00000100
00000000
00001000
00000000
00000010
00000000
00000000
00000000
00000100
00000000
,
00000001
00000000
00000010
00000000
00000100
00000000
00001000
00000000
00000000
00000000
00000100
00000000
,
00010000
00000000
00000000
00000000
00010000
00000000
00001000
00000000
00000000
00000000
00001000
00000000
,
01000000
00000000
00000000
00000000
01000000
00000000
00100000
00000000
10000000
00000000
00010000
00000000
,
00100000
00000000
00000000
00000000
01000000
00000000
10000000
00000000
00000000
00000000
00100000
00000000
,
01000000
00000000
00000000
00000000
00010000
00000000
00100000
00000000
00000000
00000000
00001000
00000000
,
00010000
00000000
00000000
00000000
00010000
00000000
00000100
00000000
00000000
00000000
00001000
00000000
,
00000100
00000000
00000010
00000000
00000001
00000000
00000010
00000000
00000100
00000000
00000010
00000000
,
00000001
00000000
00000000
00001010
00000000
00000000
00000000
00000010
00000000
00010000
00000000
00000000
,
00000000
00010000
00000000
00001000
00000000
00000000
00000000
00001000
00000000
00100000
00000000
00000000
,
00000000
00100000
00000000
00010000
00000000
00000000
00000000
00010000
00000000
10000000
00000000
00010000
,
00000000
10000000
00000000
01000000
00000000
00100000
00000000
00010000
00000000
00100000
00000000
01000000
,
00000000
10000000
00000000
00100000
00000000
00000000
01000000
00000000
00000000
00001000
00000000
00010000
,
00000000
00000100
00000000
00001000
00000000
00000000
00000000
00000001
00000000
00000100
00000000
00000010
,
00000000
00001000
00000000
00000100
00000000
00000000
00000000
00000100
00000000
00010000
00000000
00001000
,
00000000
01000000
00000000
00100000
00000000
00000000
00000000
00000000
00000000
01000000
00000000
00010000
,
00000000
00100000
00000000
00001000
00000000
00010000
00000000
00000010
00000000
00000100
00000000
00000001
,
00000000
00000010
00000000
00000100
00000000
00001000
00000000
00000100
00000000
00010000
00000000
00001000
,
00000000
01000000
00000000
00100000
00000000
10000000
00000000
01000000
00000000
00100000
00000000
00001000
,
00000000
00010000
00000000
00000010
00000000
00001000
00000000
00000100
00000000
00000000
00000000
00000000
,
00000000
00000000
00000000
00011000
;

//--------------- dance-double - Pandemonium X ----------------
#NOTES:
     dance-double:
     Pandemonium X:
     Hard:
     16:
     0,0,0,0,0:
00000000
00000000
00000000
00000000
,
00000000
00000000
00000000
00000000
,
00000000
00000000
00000000
00000000
,
00000000
00000000
00000000
00000000
,
00000000
00000000
00000000
00000000
,
00010000
00000100
00001000
00000010
,
00010000
00001000
00100000
00010000
,
10000000
01000000
00100000
01000000
,
10000000
00010000
00100000
00001000
,
00010000
00000010
00010000
00001000
,
00100000
00001000
00010000
00000100
,
00001000
00001000
00000001
00000001
,
00000100
00000010
00010000
00001000
,
00101000
00001000
01000000
00100000
,
10000000
00000000
01000000
00100000
00010000
00000000
00110000
00000000
,
00100000
00001000
00010000
00000000
00000100
00001000
00000020
00000000
,
00000000
00002030
00003010
00000101
,
00000010
00000000
00000100
00000000
00000010
00000000
00001000
00000000
00000100
00000000
00010000
00000000
,
00001000
00000000
01000000
00000000
00100000
00000000
10000000
00000000
01000000
00000000
00100000
00000000
,
00002000
00000000
00003000
00010000
,
00000100
00001000
00000010
00000100
,
00000001
00000010
00000100
00001000
,
00000100
00000000
00000000
00010000
00000000
00000000
00001000
00000000
00000000
00100000
00000000
00010000
,
00000000
10000000
00000000
00100000
00000000
01000000
00000000
00010000
00000000
00100000
00000000
00000000
,
00001000
00010000
00000010
00001000
,
00000100
00010000
00001000
01000000
,
00100000
00000000
00000000
10000000
00000000
00000000
01000000
00000000
00100000
00000000
00001000
00000000
,
00010000
00000000
00000010
00000000
00001000
00000000
00000010
00000000
00000100
00000000
00000001
00000000
,
00002000
00000000
00003100
00000010
,
00000001
00000000
00000000
00001000
00000000
00000000
00000100
00000000
00010000
00000000
00001000
00000000
,
00000000
00010000
00001000
00001000
,
01000000
00100000
10000000
01000000
,
00100000
00001000
00010000
00000100
,
00001000
00000000
00000000
00000010
00000000
00000000
00010000
00000000
00000000
00000000
00001000
00000000
,
01000000
00000000
00000000
00000000
01000000
00000000
00100000
00000000
00000000
00000000
01000000
00000000
,
00100000
00000000
10000000
00000000
00010000
00000000
00100000
00000000
00000000
00001000
00000000
00000000
,
00010000
00000010
00000100
00000001
,
00000010
00001000
00000010
00000001
,
00000010
00000000
00000000
00000100
00000000
00000000
00001000
00000000
00000100
00000000
00010000
00000000
,
00001000
00000000
01000000
00000000
00100000
00000000
10000000
00000000
00000000
00010000
00000000
00000000
,
00100000
01000000
10000000
01000000
,
00010000
01000000
00100000
00001000
,
00010000
00000000
00000000
00000100
00000000
00001000
00000000
00000010
00000000
00000100
00000000
00000001
,
00000000
00000010
00000000
00000100
00000000
00000000
00001000
00000000
00000000
00000100
00000000
00000000
,
00010000
00000000
00000000
00001000
00000000
00000000
00010000
00000000
00000000
00000000
00001000
00000000
00000000
00000000
01000000
00000000
00000000
00000000
00100000
00000000
00000000
00000000
00000000
00000000
,
00000000
01000000
00010000
00100000
,
00001000
00000000
00000000
00010000
00000000
00000000
00001000
00000000
00000000
00000000
00010000
00000000
00000000
00000000
00000010
00000000
00000000
00000000
00000200
00000000
00000000
00000000
00000000
00000000
,
00000000
00000301
00000100
00000010
,
00010000
00001000
00100000
00010000
,
01000000
00000000
00000000
00001000
00000000
00000000
00000000
00010000
00000000
00000100
00000000
00000000
,
00000000
00001000
00000000
00000010
00000000
00000000
00000000
00000100
00000000
00000001
00000000
00000010
,
00000000
00000100
00000000
00001000
00000100
00010000
00001000
00000000
00000000
00000000
00000000
00000000
,
00011000
00000000
00001000
01001000
00000000
01000000
01100000
00000000
00100000
10100000
00000000
10000000
,
10010000
00010000
00100000
00010000
00010000
00100000
00001000
00000000
00000000
00000000
00000000
00000000
,
00001000
00000000
00000000
00010200
00000000
00000000
00002300
00000000
00000000
00003010
00000100
00000001
,
00000010
00000100
00001000
00000100
00000000
00010000
00000000
00000100
00000000
00010000
00000000
00001000
,
00000000
00010000
00000000
00001000
00000000
01000000
00000000
00001000
00000000
01000000
00000000
00100000
,
00000000
01000000
00000000
00100000
00000000
10000000
00000000
00010000
00000000
10000000
00000000
01000000
,
00000000
00000000
00100000
00000000
00000000
00000000
00010000
00000000
00000000
00100000
00000000
00000000
00001000
00000000
00000000
00000000
00000000
00000000
00010000
00000000
00000000
00000000
00000100
00000000
,
00000000
00001000
00000000
00000010
00000000
00000100
00000000
00000010
00000000
00000100
00000000
00000001
,
00000000
00000010
00000000
00000100
00000000
00001000
00000000
00000100
00000000
00001000
00000000
00000100
,
00000000
00010000
00000000
00001000
00000000
01000000
00000000
00100000
00000000
10000000
00000000
00010000
,
00000000
00100000
00000000
00001000
00000000
00010000
00000000
00000010
00000000
00010000
00000000
00000000
,
00000000
00000000
00000000
00000000
,
00000000
00000000
00000000
00010100
,
00010100
00001100
00001100
00000110
,
00000110
00000011
00000011
00000101
,
00001010
00000000
00000000
00010010
00000000
00000000
00010100
00000000
00000000
00010000
00001000
01000000
,
00100000
10000000
00010000
00100000
01000000
10000000
00010000
01000000
00001000
00010000
00001000
00100000
,
00001000
00010000
00000010
00010000
00001000
01000000
00001000
00010000
00000100
00002000
00000000
00000000
,
00000000
00000000
00000000
00003010
00000000
00000100
00000000
00000001
00000000
00001000
00000000
00000100
,
00000000
00010000
00000000
00001000
00000000
01000000
00000000
00100000
00000000
10000000
00000000
00000000
,
00010000
00100000
00000000
01000000
00000000
10000000
00000000
00010000
00000000
01000000
00000000
00010000
,
00000000
00100000
00000000
00001000
00000000
00010000
00000000
00000100
00000000
00010000
00000000
00001000
,
00000000
01000000
00000000
00100000
00000000
00000000
10000000
00000000
00010000
00000000
00100000
00000000
,
00001000
00000000
00010000
00000000
00000010
00000000
00000100
00000000
00000001
00000000
00000010
00000000
,
00000100
00000000
00000010
00000000
00000001
00000000
00001000
00000000
00000100
00000000
00010000
00000000
,
00001000
00000000
00100000
00000000
00001000
00000000
00010000
00000000
00000010
00000000
00010000
00000000
,
00001000
00000000
01000000
00000000
00001000
00000000
00010000
00000000
00000100
00000000
00001000
00000000
,
00000100
00000000
00000010
00000000
00000001
00000000
00001000
00000000
00000010
00000000
00000100
00000000
,
00000001
00000000
00000100
00000000
00000010
00000000
00001000
00000000
00000100
00000000
00010000
00000000
,
00001000
00000000
01000000
00000000
00100000
00000000
10000000
00000000
00010000
00000000
00100000
00000000
,
01000000
00000000
10000000
00000000
01000000
00000000
00100000
00000000
00010000
00000000
00100000
00000000
,
00001000
00000000
00100000
00000000
00001000
00000000
00010000
00000000
00001000
00000000
00010000
00000000
,
00000100
00000000
00000000
00010000
00001000
00000000
00000000
00001000
,
00010000
00000000
00000000
00000000
00001000
00000000
00000000
00000000
01000000
00000000
00000000
00000000
00100000
00000000
00000000
10000000
00000000
00000000
00100000
00000000
00000000
01000000
00000000
00000000
,
00010000
00000000
00100000
00000000
10000000
00000000
00100000
00000000
00010000
00000000
00100000
00000000
,
10000000
00000000
00100000
00000000
00010000
00000000
00100000
00000000
00000000
00000000
00010000
00000000
,
01000000
00000000
10000000
00000000
01000000
00000000
00010000
00000000
01000000
00000000
10000000
00000000
,
01000000
00000000
00001000
00000000
00010000
00000000
00000100
00000000
00001000
00000000
00000010
00000000
,
00000100
00000000
00000000
00000010
00000000
00000001
00000000
00000010
00000000
00001000
00000000
00000010
,
00000000
00000001
00000000
00000010
00000000
00001000
00000000
00000010
00000000
00000001
00000000
00000010
,
00000000
00001000
00000000
00000001
00000000
00000100
00000000
00000010
00000000
00010000
00000000
00001000
,
00000000
00100000
00000000
00010000
00000000
10000000
00000000
01000000
00000000
00100000
00000000
00001000
,
00000000
00010000
00000000
00000010
00000000
00000100
00000000
00000001
00000000
00000010
00000000
00000100
,
00000000
00001000
00000000
00000100
00000000
00010000
00000000
00001000
00000000
01000000
00000000
00100000
,
00000000
10000000
00000000
01000000
00000000
00100000
00000000
01000000
00000000
10000000
00000000
00010000
,
00000000
01000000
00000000
00100000
00000000
10000000
00000000
00010000
00000000
00100000
00000000
00001000
,
00000000
00010000
00000000
00000010
00000000
00000100
00000000
00000001
00000000
00000010
00000000
00000100
,
00000000
00000000
00001000
00000000
00000000
00000000
00000100
00000000
00000000
00000000
00010000
00000000
00000000
00000000
00001000
00000000
00000000
00000000
01000000
00000000
00000000
00100000
00000000
00000000
,
01000000
00010000
01000000
00010000
00100000
00010000
00100000
00001000
,
00100000
00001000
00010000
00000010
00000100
00000001
00000000
00000000
,
00000000
00000000
00000000
00002020
,
00000000
00000000
00000000
00003030
;

//--------------- dance-double - Pandemonium X ----------------
#NOTES:
     dance-double:
     Pandemonium X:
     Challenge:
     18:
     0,0,0,0,0:
00000000
00000000
00000000
00000000
,
00000000
00000000
00000000
00000000
,
00000000
00000000
00000000
00000000
,
00000000
00000000
00000000
00000000
,
00000000
00000000
00000000
00000000
,
00001000
00001000
01000000
01000000
,
10000000
01000000
00010000
00100000
,
00001000
00001000
00010000
00010000
,
00000100
00001000
00000010
00000001
,
00000010
00000100
00001000
00000100
,
00010000
00001000
01000000
00100000
,
10000000
01000000
00100000
00010000
,
00001000
00010000
00001000
00010000
00001000
00010000
00000100
00001000
00000100
00001000
00000010
00001000
,
00000001
00001100
00000011
00000101
,
00001010
00000000
00000010
00010000
00001000
00010000
00011000
00000000
,
00001000
00100000
00001000
00100000
00000000
00000000
00010000
01000000
00010000
02000000
00000000
00000000
,
00000000
03200000
20300000
31000000
,
00100000
00000000
00001000
00000000
00010000
00000000
00000100
00000000
00001000
00000000
00000010
00000000
,
00000100
00000000
00000001
00000000
00000010
00000000
00000100
00000000
00000010
00000000
00000001
00000000
,
00002000
00000000
00000000
00000000
00000000
00000000
00000000
00000000
00003001
00000100
00000001
00000100
00000001
00000100
00000001
00000100
00000001
00000000
00000000
00000000
00000000
00000000
00000000
00000000
00001001
00000000
00000000
00000000
00000000
00000000
00000000
00000000
,
00000001
00001000
00000100
00000000
00001000
00000010
00010000
00000000
,
00001000
00100000
00010000
00000000
00001000
01000000
00100000
00000000
,
01000000
00000000
00000000
00010000
00000000
00000000
10000000
00000000
00000000
00000000
00000000
00000000
01000000
00000000
00000000
00100000
00000000
00000000
00010000
00000000
00000000
00000000
00100000
00000000
,
00000000
00010000
00000000
01000000
00000000
00100000
00000000
10000000
00000000
01000000
00000000
00000000
,
00101000
00000000
00010000
00000100
00001000
00000000
00010000
00000100
,
00001000
00000000
00000010
00000100
00000001
00000000
00000010
00000001
,
00001000
00000000
00000000
00000000
00000000
00000000
00000100
00000000
00000000
00000010
00000000
00000000
00000001
00000000
00000000
00000000
00000010
00000000
00000000
00000000
00000001
00000000
00000000
00000000
,
00001000
00000000
00000100
00000000
00010000
00000000
00001000
00000000
00010000
00000000
00000100
00000000
,
00001000
00000010
00000100
00000001
00001000
00000000
00001100
00000000
,
00010100
00000000
00000000
00001100
00000000
00000000
00010000
00000000
00001000
00000000
01000000
00000000
,
00000000
00000000
00000000
00100000
10000000
00000000
11000000
00000000
,
00010000
01100000
10000000
10100000
,
01010000
00000000
00110000
00000000
00100000
00001000
00010000
00001000
,
00100000
00000000
00001000
00000000
00010000
00000000
00001000
00000000
00000000
00010000
00000100
00010000
,
00000100
00000000
00000000
00001000
00000010
00001000
00000010
00000000
00000000
00000100
00000010
00000100
,
00000010
00000100
00000001
00001000
00000100
00000000
00000010
00000001
,
00000100
00000000
00000001
00001000
00000100
00000000
00000010
00000001
,
00001000
00000000
00000100
00010000
00001000
00000000
00010000
00001000
,
01000000
00000000
00000000
00000000
00000000
00000000
00100000
00000000
00000000
10000000
00000000
00000000
01000000
00000000
00000000
00000000
00100000
00000000
00000000
00000000
00010000
00000000
00000000
00000000
,
00100000
00000000
00000000
00000000
00001000
00000000
00000000
00000000
00010000
00000000
00000000
00000000
00000100
00000000
00000000
00000000
00000000
00000000
00001000
00000000
00000000
00000010
00000000
00000000
,
00010000
00000000
00001000
00100000
00010000
00000000
01000000
10000000
,
00100000
00000000
01000000
00001000
00010000
00000000
00000100
00001000
,
00000010
00000000
00000000
00000100
00000000
00001000
00000000
00000100
00000000
00000001
00000000
00001000
,
00000000
00000000
00000100
00000000
00000000
00000000
00010000
00000000
00000000
00000000
00000000
00000000
00001000
00000000
00000000
01000000
00000000
00000000
00010000
00000000
00000000
00000000
00000000
00000000
,
00100000
00000000
00000000
00000000
00000000
00000000
00010000
00000000
00000000
00000000
00100000
00000000
00000000
00000000
01000000
00000000
00000000
00000000
10000000
00000000
00000000
00100000
00000000
00000000
,
10000000
00010000
00100000
00000000
10000000
00000000
00100000
00000000
,
00010000
00000000
00000000
10000000
00000000
00000000
00100000
00000000
00000000
00000000
01000000
00000000
00000000
00000000
00010000
00000000
00000000
00000000
00100000
00000000
00000000
00000000
00001000
00000000
,
00000000
00010000
00000000
00000010
00000000
00000000
00000100
00000000
00000000
00001001
00000000
00000000
,
00001000
00000100
00010000
00000000
00001000
00000000
01001000
00000000
,
01000000
00000000
00000000
00010000
00000000
00000000
00100000
00000000
00000000
00000000
01000000
00000000
00000000
00000000
10000000
00000000
00000000
00000000
01000000
00000000
00000000
00000000
00010000
00000000
,
00000000
01000000
00000000
00100000
00000000
00010000
00000000
00001000
00000000
00000100
00000000
00000010
,
00000000
00000001
00000000
00001000
00000010
00010000
00001000
00000000
00000000
00000000
00000000
00000000
,
00011000
00000000
00001000
01001000
00000000
01000000
10010000
00000000
00100000
10000000
01000000
10000000
,
01000000
00010000
01000000
00100000
00001000
00010000
00001000
00000000
00000000
00000000
00000000
00000000
,
00010000
00000000
00000000
00000000
00000100
00000000
00000000
00000000
00001000
00000000
00000000
00000000
00000010
00000000
00000000
00000100
00000000
00000000
00000010
00000000
00000000
00001000
00000000
00000000
00000001
00000000
00000000
00000010
00000000
00000000
00000100
00000000
00000000
00001000
00000000
00000000
00000100
00000000
00000000
00000000
00010000
00000000
00000000
00000000
00001000
00000000
00000000
00000000
,
01000000
00001000
00100000
00010000
00000000
00010000
00000000
10000000
00000000
00100000
00000000
00100000
,
00000000
01000000
00000000
00010000
00000000
00010000
00000000
00100000
00000000
00001000
00000000
00001000
,
00000000
00010000
00000000
00000100
00000000
00000100
00000000
00001000
00000000
00000010
00000000
00000010
,
00000000
00000000
00000000
00000000
00000100
00000000
00000000
00000000
00000000
00000000
00000000
00000000
00000101
00000000
00000000
00001010
00000000
00000000
00000000
00000000
00000000
00000101
00000000
00000000
00000000
00000000
00000000
00000000
00000000
00000000
00000000
00000000
00000000
00000000
00000000
00000000
00000001
00000000
00000000
00000000
00000000
00000000
00000000
00000000
00000010
00000000
00000000
00000000
,
00000000
00001000
00000000
00000010
00000000
00000001
00000000
00000100
00000000
00001000
00000000
00010000
,
00000000
00001000
00000000
00100000
00000000
00001000
00000000
00010000
00000000
00001000
00000000
01000000
,
00000000
00100000
00000000
10000000
00000000
00010000
00000000
00100000
00000000
01000000
00000000
10000000
,
00000000
01000000
00000000
00100000
00000000
00010000
00000000
00001000
00000000
00011000
00000000
00000000
,
00000000
00000000
00000000
00000000
,
00000000
00000000
00000000
00021000
,
00030010
00012000
00103000
00021000
,
00030100
00012000
01003000
10010000
,
00011000
00000000
00000000
00001001
00000000
00000000
00011000
00000000
00000000
00001000
01000000
00100000
,
10000000
00010000
00100000
00001000
00010000
00000010
00010000
00001000
01000000
00001000
00010000
00000100
,
00010000
00001000
01000000
00001000
00010000
00000100
00010000
00000010
00000100
00000002
00000000
00000000
,
00000000
00000000
00000000
00001003
00000000
00000100
00000000
00010000
00000000
00001000
00000000
01000000
,
00000000
00100000
00000000
10000000
00000000
00010000
00000000
00100000
00000000
01000000
00000000
00000000
,
00100000
00000000
00000000
00010000
00000000
00000000
01000000
00000000
00000000
00000000
00100000
00000000
00000000
00000000
10000000
00000000
00000000
00000000
00010000
00000000
00000000
00000000
00100000
00000000
,
00000000
01000000
00000000
10000000
00000000
01000000
00000000
00100000
00000000
00001000
00000000
00010000
,
00000000
00000100
00000000
00010000
00001000
00000000
01000000
00000000
00100000
00000000
10000000
00000000
,
00010000
00000000
00100000
00000000
00001000
00000000
00010000
00000000
00000010
00000000
00000100
00000000
,
00000001
00000000
00000010
00000000
00000100
00000000
00001000
00000000
00000100
00000000
00010000
00000000
,
00001000
00000000
00100000
00000000
00010000
00000000
10000000
00000000
01000000
00000000
00100000
00000000
,
00010000
00000000
00000000
00000000
00100000
00000000
00000000
00000000
01000000
00000000
00000000
00000000
10000000
00000000
00000000
01000000
00000000
00000000
00100000
00000000
00000000
00000000
00000000
00000000
,
00110000
00101000
00011000
00010100
,
00001100
00000000
00000000
00000000
00001000
00000000
00000000
00000000
00000010
00000000
00000000
00000000
00000000
00000000
00000000
00000000
00000000
00000000
00000100
00000000
00000000
00000010
00000000
00000000
,
00001000
00001001
00000110
00000101
,
00000001
00000000
00001000
00000000
00000100
00000000
00010000
00000000
00001000
00000000
01000000
00000000
,
00100000
00000000
10000000
00000000
00010000
00000000
00100000
00000000
01000000
00000000
10000000
00000000
,
01000000
00000000
00100000
00000000
00001000
00000000
00010000
00000000
00000100
00000000
00001000
00000000
,
00000010
00000000
00010000
00000000
00001000
00000000
00100000
00000000
00010000
00000000
10000000
00000000
,
01000000
00000000
00010000
00000000
01000000
00000000
10000000
00000000
00100000
00000000
00010000
00000000
,
00100000
00000000
10000000
00000000
01000000
00000000
00010000
00000000
00000000
00000000
01000000
00000000
,
10000000
00000000
00100000
00000000
00010000
00000000
00100000
00000000
01000000
00000000
00010000
00000000
,
00100000
00000000
00001000
00000000
00010000
00000000
00000010
00000000
00000100
00000000
00001000
00000000
,
00000100
00000000
00000000
00001001
00000000
00000001
00000000
00001000
00000000
00000100
00000000
00000001
,
00000000
00000100
00000000
00001000
00000000
00000010
00000000
00000001
00000000
00000010
00000000
00001000
,
00000000
00000000
00000010
00000000
00000000
00000000
00001010
00000000
00000000
00000000
00000000
00000000
00001000
00000000
00000000
00000100
00000000
00000000
00010000
00000000
00000000
00000000
00001000
00000000
,
00000000
01000000
00000000
00010000
00000000
00100000
00000000
01000000
00000000
10000000
00000000
01000000
,
00000000
00100000
00000000
00010000
00000000
00100000
00000000
00001000
00000000
00010000
00000000
00000100
,
00000000
00001000
00000000
00000010
00000000
00000100
00000000
00000001
00000000
00000010
00000000
00000100
,
00000000
00001000
00000000
00000001
00000000
00000010
00000000
00000001
00000000
00001000
00000000
00000010
,
00000000
00000000
00010000
00000000
00000000
00000000
00001000
00000000
00000000
00000000
00100000
00000000
00000000
00000000
01000000
00000000
00000000
00000000
10000000
00000000
00000000
01000000
00000000
00000000
,
10000000
01000000
00100000
01000000
00100000
00010000
00100000
00001000
,
00100000
00001000
00010000
00001000
00010000
00000100
00010000
00000010
,
00001000
00000100
00010000
00001000
01000000
00100000
10000000
00010000
,
00100000
00001000
00010000
00000100
00010000
00001000
00000000
00000000
,
00000000
00000000
00000000
00022000
,
00000000
00000000
00000000
00033000
;
