#TITLE:Session 1 -Genesis-;
#SUBTITLE:;
#ARTIST:PRASTIK DANCEFLOOR;
#TITLETRANSLIT:;
#SUBTITLETRANSLIT:;
#ARTISTTRANSLIT:;
#GENRE:;
#CREDIT:;
#MUSIC:Session 1 -Genesis-.ogg;
#BANNER:Session 1 -Genesis--banner.png;
#BACKGROUND:Session 1 -Genesis--bg.png;
#CDTITLE:cdtitle.png;
#SAMPLESTART:27.735;
#SAMPLELENGTH:10.787;
#SELECTABLE:YES;
#OFFSET:0.259;
#BPMS:0.000=79.000
,35.000=178.000
;
#STOPS:35.000=0.737;
#ORIGIN:;
#TAGS:;
#PREVIEWVID:;
#JACKET:Session 1 -Genesis--jacket.png;
#CDIMAGE:;
#DISCIMAGE:;
#BGCHANGES:;
#FGCHANGES:;

//--------------- dance-single - Pandemonium X ----------------
#NOTES:
     dance-single:
     Pandemonium X:
     Beginner:
     4:
     0.193668,0.258099,0.156424,0.095592,0,156,138,18,11,0,0,0,0,0,0.193668,0.258099,0.156424,0.095592,0,156,138,18,11,0,0,0,0,0:
0000
0000
0000
0000
,
0000
0000
0000
0000
,
0000
0000
0000
0000
,
0000
0000
0000
0000
,
0000
0000
0000
0001
,
2000
0000
3010
1000
,
0100
0010
0001
0200
,
0000
0301
0100
0002
,
0000
2000
0000
3003
,
0000
0000
1000
0000
,
0001
0000
0100
0000
,
0001
0000
0010
0000
,
0100
0000
1000
0002
,
0000
0103
0001
0000
,
0010
0000
0001
0000
,
1000
0000
0100
0000
,
1000
0000
0010
0000
,
0100
0001
1000
0000
,
0001
0000
0000
0000
1000
0000
0000
1010
,
0000
1010
0000
0000
1000
0000
0000
0000
,
0010
0000
0100
0000
,
0001
1000
0100
0000
,
0010
0000
0000
0000
0001
0000
0000
0011
,
0000
1100
0000
0000
0100
0000
0000
0000
,
1000
0001
0100
0020
,
0000
0130
0010
0000
,
1000
0000
0001
0000
,
0010
0000
0001
0000
,
1000
0000
0100
0000
,
1000
0001
0100
0010
,
0000
0100
0010
1000
,
0000
0001
0000
1000
,
0000
0100
0110
0010
,
0001
1000
0100
1000
,
0000
0001
0000
0100
,
0000
0010
0000
0100
,
0000
0001
0000
1000
,
0000
0100
0010
0001
,
0000
0010
0100
1000
,
0000
0001
1000
0010
,
0000
0100
0001
0010
,
0100
1001
0000
0000
,
0000
0020
0000
0000
0000
0000
0000
0000
,
0030
1001
0000
0000
,
0000
0200
0000
0000
0000
0000
0000
0000
,
0300
1001
0000
0000
,
0000
0020
0000
0000
0000
0000
0000
0000
,
0030
1001
0000
0000
,
0000
0200
0000
0000
0000
0000
0000
0000
,
0300
0000
1001
0000
0000
0001
0000
0000
,
0000
0000
1001
0000
0000
1000
0000
0000
,
0000
0000
1001
0000
0000
0001
0000
0000
,
0000
0000
1001
0000
0000
1000
0000
0000
,
0000
0000
0110
0000
0000
0010
0000
0000
,
0000
0000
0110
0000
0000
0100
0000
0000
,
0000
0000
0110
0000
0000
0010
0000
0000
,
0000
0000
0110
0000
0000
0100
0000
0000
,
0000
0010
1000
0000
,
0001
0000
0010
0000
,
0001
0000
1000
0000
,
0010
0000
0100
0002
,
0000
1003
0100
0000
,
1000
0000
0001
0000
,
0100
0000
0010
0000
,
0100
0000
0001
0000
,
1000
0000
0001
0000
0000
1000
0000
0000
,
0110
0000
0000
0000
;

//--------------- dance-single - Pandemonium X ----------------
#NOTES:
     dance-single:
     Pandemonium X:
     Easy:
     8:
     0.286777,0.325014,0.060831,0.078212,0,231,224,7,9,0,0,0,0,0,0.286777,0.325014,0.060831,0.078212,0,231,224,7,9,0,0,0,0,0:
0000
0000
0000
0000
,
0000
0000
0000
0000
,
0000
0000
0000
0000
,
0000
0000
0000
0000
,
0000
0000
0000
0001
,
0020
0000
0031
1000
,
0100
0010
0001
0200
,
0000
0000
0310
0100
0001
1000
0002
0000
,
0000
2000
0000
3003
,
0000
0001
1000
0010
,
1000
0001
0010
0001
,
1000
0001
0001
1000
,
1000
0010
0010
0020
,
0000
0130
0001
0100
,
0010
0100
0001
0100
,
0010
1000
0010
0100
,
0010
1000
0001
0010
,
0100
1100
0100
0010
,
0001
0100
0010
1000
,
0001
0100
0001
0010
,
0100
0010
0001
1000
,
0100
0110
0100
1000
,
0001
0100
0001
0010
,
0001
1000
0001
0100
,
0010
0000
1000
0000
0001
0000
1000
0100
,
0010
0001
0010
0000
0001
0000
0000
0000
,
0100
0010
1000
0000
,
0001
1000
0100
0000
,
0010
0100
1000
0000
,
0100
0010
0001
0100
,
0000
0001
1000
0010
,
0000
1000
0001
0010
,
0001
1000
1000
0001
,
0001
0100
0010
1000
,
0000
0010
0000
0100
,
0000
0001
0000
0010
,
0000
0100
0000
0010
,
0000
0001
0010
0100
,
0000
0010
0100
1000
,
0000
0100
1000
0010
,
0000
0100
0001
0010
,
0100
1001
0000
0000
,
0000
1000
0000
0001
1000
0001
1000
0001
,
1000
0001
1000
0000
0000
0000
0000
0000
,
0000
0001
0000
1000
0001
1000
0001
1000
,
0001
1000
0001
0000
0000
0000
0000
0000
,
0000
1000
0000
0001
1000
0001
1000
0001
,
1000
0001
1000
0000
0000
0000
0000
0000
,
0000
0001
0000
1000
0001
1000
0001
1000
,
0020
0000
0130
0000
0000
0001
0000
0001
,
0000
0000
0010
0000
0000
0100
0000
0100
,
0000
0000
1000
0000
0000
0010
0000
0010
,
0000
0000
1000
0000
0000
0001
0000
0001
,
0000
1000
1000
0001
,
0001
0100
0100
0010
,
0010
1000
1000
0010
,
0010
0000
0100
0000
0001
0100
0000
1010
,
0000
0001
1000
0010
,
1000
0001
0010
0100
,
0010
0001
0001
1000
,
1000
0010
0100
0002
,
0000
0013
0100
0010
,
0001
1000
0010
1000
,
0010
0100
0001
1000
,
0100
1000
0100
0010
,
0001
0000
1001
0000
0000
0110
0000
0000
,
2002
0000
0000
0000
,
0000
0000
0000
0000
,
3003
0000
0000
0000
;

//--------------- dance-single - Pandemonium X ----------------
#NOTES:
     dance-single:
     Pandemonium X:
     Medium:
     11:
     0.444442,0.531841,0.234636,0.252016,0,358,331,27,29,0,0,0,0,0,0.444442,0.531841,0.234636,0.252016,0,358,331,27,29,0,0,0,0,0:
0000
0000
0000
0000
,
0000
0000
0000
0000
,
0000
0000
0000
0000
,
0000
0000
0000
0000
,
0000
0000
0000
0002
,
0023
0000
0032
2003
,
3002
0203
0302
2003
,
0000
0000
3020
0230
2300
3002
2003
0000
,
0000
0002
0000
3003
,
0000
0001
0100
0001
,
0010
0001
0100
0010
,
1000
0010
0100
0010
,
1000
0001
0010
0200
,
0000
0300
1000
0000
1100
0000
0100
0000
,
0110
0010
0011
0001
,
0101
0100
0110
0010
,
1010
0000
1000
0000
1001
0000
0001
0010
,
0100
1000
0100
0010
0001
0010
0100
0010
,
0001
0000
1000
0010
0100
0010
1000
0010
,
0100
0000
0001
0010
0100
0010
0001
0010
,
0100
0000
0010
0100
1000
0100
0010
0100
,
1000
0000
0001
0100
0010
0100
0001
1000
,
0100
0000
1000
0100
0010
0100
0010
0001
,
1000
0000
0001
0100
0001
0010
0100
1000
,
0001
1000
0001
0100
0010
1000
0200
0000
,
0000
0000
0310
0001
0100
0010
0000
0100
,
0001
0000
1000
0001
0000
0010
0100
1000
,
0000
0100
0010
0001
0000
0010
0100
1000
,
0000
0100
0010
0100
0000
0010
0001
1000
,
0000
0010
1000
0001
0020
0000
0100
0130
,
0000
1001
0000
1000
0200
0000
0010
0310
,
0000
1001
1000
0001
0100
0000
0001
1000
,
0010
1000
1100
0010
,
0002
0000
0103
0000
0010
0000
1000
0001
,
0000
0010
0001
0010
0000
0010
0100
0010
,
0000
0100
1000
0100
0000
0100
0010
0100
,
0000
0010
0001
0010
0000
0001
0100
0010
,
0000
0100
0010
1000
0001
0010
0100
1000
,
0001
1000
0010
1000
0001
0010
0100
0010
,
0001
1000
0100
0010
0100
0010
0001
0010
,
0001
0100
0001
1000
0100
0001
0100
1000
,
0010
0100
0002
0000
0000
0000
0003
0000
,
0000
0100
0000
1000
0100
0001
0100
1000
,
0100
0001
2002
0000
0000
0000
3003
0000
,
0000
0010
0000
0001
0010
1000
0010
0001
,
0010
1000
2002
0000
0000
0000
3003
0000
,
0000
1000
0000
0010
0010
0100
0100
0001
,
0001
1000
2002
0000
0000
0000
3003
0000
,
0000
0001
0000
0010
0010
0001
0100
0100
,
0100
0100
0010
0000
1000
0001
0000
0101
,
0000
0001
0010
0000
0010
0001
0000
1100
,
0000
0100
1000
0000
1000
0100
0000
1001
,
0000
1000
0010
0000
0010
1000
0000
1010
,
0000
1000
0010
0000
0010
0000
0100
0000
,
0100
0001
0001
1000
,
1000
0101
1001
1100
,
0110
0000
0011
0000
0100
1100
0000
1001
,
0000
0001
0100
0000
0100
0010
1000
0000
,
0001
0010
0100
0000
0010
0001
0100
0100
,
0001
0000
1000
0100
0010
0001
1000
0100
,
0010
0001
1000
0100
0010
0100
2000
0000
,
0000
0000
3001
0000
0100
0001
0010
0000
,
0010
0100
1000
0000
0100
0010
0100
0100
,
1000
0000
0010
0100
0001
1000
0010
0100
,
0001
1000
0010
0100
0001
1000
0001
0010
,
0100
1000
1001
0000
0000
0110
0000
0000
,
2002
0000
0000
0000
,
0000
0000
0000
0000
,
3003
0000
0000
0000
;

//--------------- dance-single - Pandemonium X ----------------
#NOTES:
     dance-single:
     Pandemonium X:
     Hard:
     13:
     0.526379,0.692067,0.217255,0.278087,0.121663,424,399,25,32,0,0,0,0,0,0.526379,0.692067,0.217255,0.278087,0.121663,424,399,25,32,0,0,0,0,0:
0000
0000
0000
0000
,
0000
0000
0000
0000
,
0000
0000
0000
0000
,
0000
0000
0000
0000
,
0000
0000
0000
0002
,
2003
0000
3020
2030
,
3200
0302
0203
2300
,
0000
0000
3200
0320
0032
0203
0320
0000
,
0000
0200
0000
0330
,
0000
0001
1000
0010
,
1000
0001
0010
0001
,
1000
0000
0100
1000
0100
0010
0001
0010
,
0100
1000
0001
0100
0010
0100
0002
0000
,
0000
0000
1003
0000
1010
0000
0010
0100
,
0101
0000
0001
0000
0011
0000
0010
0100
,
1100
0000
0100
1000
0100
0010
0001
0010
,
0001
0010
0100
1000
0001
0100
0010
1000
,
0100
0010
0001
0010
0001
0100
0010
1000
,
0010
0100
0001
0010
0100
1000
0100
0001
,
0100
1000
0010
1000
0001
0010
0100
1000
,
0100
0010
0100
1000
0001
1000
0100
0001
,
0100
1000
0001
1000
0010
1000
0001
0010
,
0100
0010
0001
0100
0001
0010
1000
0010
,
0001
0100
0010
1000
0001
0010
0100
1000
,
0100
0000
0010
0000
0100
0000
1000
0000
0010
0000
0100
0000
0001
0100
0010
1000
,
0001
0100
0010
1000
0001
0000
1000
0000
0001
0000
0010
0000
0000
0000
0100
0000
,
1000
0000
0100
0010
0001
0010
0001
0100
,
0001
0010
0001
1000
0100
0010
0100
1000
,
0000
0000
0000
0100
0010
0000
0001
0000
0000
0000
0010
0000
0001
0000
1000
0000
,
0100
0000
0010
0100
1000
0000
0001
0000
0100
0000
0000
0000
0001
0000
0010
0000
,
0000
0000
0100
0010
0000
0000
0100
0000
1000
0000
0000
0000
0001
0000
0100
0000
,
0000
0000
0010
0100
0010
0000
1000
0000
0100
0000
0010
0000
0100
0000
1000
0000
,
0100
0010
0001
0010
0100
0010
0001
1000
,
0001
1000
0001
1000
0001
0000
1000
0000
0100
0000
0001
0000
0100
0000
1000
0000
,
0000
0001
0010
1000
0000
1000
0100
0001
,
0000
0001
0100
1000
0000
1000
0010
0001
,
0000
0000
0010
0100
0001
0000
1000
0000
0000
0000
1000
0100
0010
0000
0001
0000
,
0000
0000
0000
1000
0001
0000
0100
0000
1000
0000
0010
0000
0100
0000
0010
0000
,
1000
0001
1000
0100
0001
0010
0100
0010
,
0001
1000
0001
0100
1000
0100
0010
1000
,
0001
0000
0010
0000
1000
0000
0010
0000
0100
0010
0100
0010
0001
0010
0100
1000
,
0001
1000
0010
0100
0002
0000
0000
0000
0000
0000
0000
0000
0003
0000
0000
0000
,
0000
2000
0000
3010
0010
0100
0100
0001
,
0001
1000
2002
0000
0000
0000
3003
0000
,
0000
0002
0000
0013
0010
0100
0010
0010
,
0001
0001
2002
0000
0000
0000
3003
0000
,
0000
1000
0000
0010
0010
1000
0100
0100
,
0010
0010
2002
0000
0000
0000
3003
0000
,
0000
0000
0001
0000
0000
0000
0100
0000
0100
0000
0010
0000
1000
0010
0100
0001
,
0020
0000
0130
0000
0100
2000
0000
3001
,
0000
0100
0001
0000
0001
0020
0000
0130
,
0000
0010
0001
0000
0100
0020
0000
1030
,
0000
0001
0100
0000
0010
2000
0000
3001
,
0000
1000
1001
0000
0101
0000
1001
0000
,
1100
1001
1010
1001
,
0011
1001
1001
0110
,
0110
0000
1001
0000
0010
0100
0000
1001
,
0000
0001
0101
0100
0010
1000
0001
0010
,
0100
0010
0001
0100
0010
1000
0100
0010
,
0100
0000
1000
0000
0001
0100
0001
0000
0100
0000
0010
0000
1000
0010
1000
0000
,
0010
0000
0100
0000
0001
1000
0100
0000
0010
0000
0100
0000
2000
0000
0000
0000
,
0000
0000
3010
0100
1000
0100
0010
1000
,
0001
0010
0100
0010
0001
1000
0100
0010
,
0100
0000
1000
0000
0001
0010
0001
0000
1000
0000
0001
0000
0100
0010
0100
0000
,
0010
0000
1000
0000
0001
0100
0001
0000
0010
0000
0100
0000
1000
0100
1000
0000
,
0100
0010
0011
0000
0000
1100
0000
0000
,
2002
0000
0000
0000
,
0000
0000
0000
0000
,
0000
0000
0000
0000
,
0000
3003
0000
0000
;

//--------------- dance-single - Pandemonium X ----------------
#NOTES:
     dance-single:
     Pandemonium X:
     Challenge:
     16:
     0.729978,1.019362,0.252016,0.634385,0.829915,588,559,29,73,0,0,0,0,0,0.729978,1.019362,0.252016,0.634385,0.829915,588,559,29,73,0,0,0,0,0:
0000
0000
0000
0000
,
0000
0000
0000
0000
,
0000
0000
0000
0000
,
0000
0000
0000
0000
,
0000
0000
0000
2000
,
0020
0000
0000
3000
0230
0000
0002
0300
,
0020
0003
0200
0030
2000
0300
0020
0000
,
0000
0000
0000
0000
0000
0000
0000
0000
0000
0000
0000
0000
0000
0000
0000
0000
0000
0000
0000
0000
0000
0000
0000
0000
3000
0000
0000
0000
0000
0000
0000
0000
0000
0000
0000
0000
0000
0000
0000
0000
0000
0000
0000
0000
0000
0000
0000
0000
0230
0000
0000
0000
0000
0000
0000
0000
0000
0000
0000
0000
0000
0000
0000
0000
0000
0000
0000
0000
0000
0000
0000
0000
0020
0000
0000
0000
0000
0000
0000
0000
0000
0000
0000
0300
0000
0000
0000
0000
0000
0000
0000
0000
0000
0000
0000
0000
2030
0000
0000
0000
0000
0000
0000
0000
0000
0000
0000
0000
0000
0000
0000
0000
0000
0000
0000
0000
0000
0000
0000
0000
0020
0000
0000
0000
0000
0000
0000
0000
0000
0000
0000
0000
3000
0000
0000
0000
0000
0000
0000
0000
0000
0000
0000
0000
2000
0000
0000
0000
0000
0000
0000
0000
0000
0000
0000
0000
0000
0000
0000
0000
0000
0000
0000
0000
0000
0000
0000
0000
0000
0000
0000
0000
0000
0000
0000
0000
0000
0000
0000
0000
0000
0000
0000
0000
0000
0000
0000
0000
0000
0000
0000
0000
,
0000
0030
0002
0000
0000
0000
0000
0000
,
3003
0000
0000
0000
1000
0000
0010
0000
1000
0000
0100
0010
0001
0000
0010
0000
,
0001
0000
0100
0000
0001
0000
1000
0001
0010
0001
1000
0001
1000
0000
0100
0000
,
1000
0000
0010
1000
0100
1000
0100
1000
0100
0010
0001
0100
0001
0010
0001
0010
,
0001
0010
0100
1000
0001
0100
0001
1000
0010
0100
0001
0010
0200
0000
0000
0000
,
0000
0000
0000
0000
0310
0000
0001
0000
0100
0000
0010
1000
0100
0000
0010
0000
,
0100
0000
1000
0001
0100
0000
0000
0010
1000
0001
1000
0010
1000
0000
0001
0000
,
1000
0000
0001
0010
0001
0100
0001
0100
0010
1000
0001
0000
1000
0010
1000
0010
,
0100
0001
1000
0100
0010
0001
0100
0001
0010
0100
1000
0100
1000
0100
0010
0001
,
0100
0010
1000
0000
0001
0100
0001
0100
0010
1000
0010
1000
0100
1000
0100
1000
,
0001
0010
0001
0010
0001
1000
0001
1000
0010
1000
0010
1000
0010
0100
0010
0100
,
0001
0100
0001
0100
0010
1000
0010
1000
0010
0100
0010
0100
0001
0100
0001
0100
,
0001
1000
0001
1000
0001
1000
0100
0010
0100
0010
0100
1000
0100
0010
0001
0010
,
0100
0010
0001
1000
0001
0100
0001
0100
0010
1000
0010
1000
0100
1000
0100
1000
,
0001
0010
0001
0010
0001
1000
0001
1000
0010
1000
0010
1000
0010
0100
0010
0100
,
0001
0100
0001
0100
0010
1000
0010
1000
0010
0100
0010
0100
0001
0100
0001
0100
,
0001
1000
0001
1000
0001
0010
0100
1000
0100
0010
0100
1000
0002
0000
0000
0000
,
0000
0000
1003
1000
0001
0010
1000
0010
,
0001
0000
0000
0010
0100
0000
1000
0000
0100
0000
0001
0000
0100
0000
0010
0000
,
0001
0100
0010
0100
0001
0010
0100
1000
,
0000
0000
0000
0100
0010
0000
0001
0000
0000
0000
1000
0000
0001
0000
0100
0000
,
0001
0000
1000
0100
0010
0000
0001
0000
0100
0000
0000
0000
1000
0000
0100
0000
,
0010
0000
1000
0001
0010
0000
1000
0000
0010
0000
0000
0000
0100
0000
1000
0000
,
0001
0000
0100
0001
0010
0000
0001
0000
1000
0000
0010
0000
1000
0000
0100
0000
,
0000
0000
0010
0001
1000
0000
0001
0000
0110
0000
1000
0000
0001
0000
0010
0000
,
0100
1000
0100
1000
0001
0000
0100
0000
0010
0000
0010
0000
1000
0000
0001
0000
,
0010
0100
1000
0100
0000
0001
0100
1000
,
0000
0010
0100
1000
0000
0100
0010
1000
,
0000
0000
0001
0010
0100
0000
0010
0000
0000
0000
0100
0000
1000
0000
0010
0000
,
0000
0000
0100
0010
1000
0000
0100
0000
0010
0000
0100
0000
1000
0000
0100
0000
,
0000
0000
1000
0100
0010
0000
0100
0000
1000
0000
0010
0000
0100
0000
0001
0000
,
0010
0001
1000
0100
0010
0001
0010
0001
,
1000
0000
0010
0100
0001
0000
1000
0000
0010
0000
0100
0010
1000
0001
0010
0100
,
0010
0001
1000
0100
0020
0000
0000
0000
0000
0000
0000
0000
0030
0000
0000
0000
,
0000
0000
2002
0000
0000
0003
0002
0003
0002
0003
0002
0003
0002
0003
0002
0003
,
0002
0003
0002
3003
2002
0000
0000
0000
0000
0000
0000
0000
3003
0000
0000
0000
,
0000
0000
0202
0000
0000
0300
0200
0300
0200
0300
0200
0300
0200
0300
0200
0300
,
0200
0300
0200
0303
0202
0000
0000
0000
0000
0000
0000
0000
0303
0000
0000
0000
,
0000
0000
2020
0000
0000
0030
0020
0030
0020
0030
0020
0030
0020
0030
0020
0030
,
0020
0030
0020
0030
0020
0000
0000
0000
0000
0000
0000
0000
3030
0000
0000
0000
,
0000
0000
2002
0000
0000
3000
2000
3000
2000
3000
2003
3000
2000
3020
0230
0302
,
2003
3002
2003
3002
2003
3002
0013
0000
0000
0000
0000
0000
0001
0000
0000
0100
0000
0000
0000
0000
0000
1001
0000
0000
,
0000
1000
0100
0000
0010
0100
0000
1001
,
0000
0001
0100
0000
0010
0100
0000
0101
,
0000
0001
1000
0000
0100
1000
0000
1001
,
0000
1000
1100
1000
1001
0001
0101
0001
,
1001
1000
1010
1000
1100
0100
0110
0010
,
0011
0001
0101
0100
0110
0100
0101
0001
,
0011
0000
0000
0000
0000
0000
2002
0000
0000
0000
0000
3003
0020
0000
0000
0200
0000
0000
0000
0000
0330
1001
0000
0000
,
0000
0000
0010
0000
1001
0000
1000
0000
0001
0000
0010
0100
1000
0000
0100
0000
,
1000
0000
0010
0000
1000
0000
0001
1000
0100
1000
0001
1000
0001
0000
0010
0000
,
0001
0000
0100
0001
0010
0001
0010
0001
0010
0100
1000
0010
1000
0100
1000
0100
,
1000
0100
0010
0001
1000
0010
1000
0001
0100
0010
1000
0100
0020
0000
0000
0000
,
0000
0000
0000
0000
0130
0000
1000
0000
0010
0000
0100
0001
0010
0000
0100
0000
,
0010
0000
0001
1000
0010
0000
0000
0100
0001
1000
0001
0100
0001
0000
1000
0000
,
0001
0000
1000
0100
1000
0010
1000
0010
0100
0001
1000
0001
1000
0010
1000
0010
,
0100
0001
1000
0100
0010
0001
0100
0001
0010
0100
1000
0100
1000
0010
0100
0010
,
1000
0001
0010
0100
2100
0000
0010
0000
3010
0000
0102
0000
0010
0000
0013
0000
,
2002
0000
0000
0000
,
0000
0000
0000
0000
,
0000
0000
0000
0000
,
3003
0000
0000
0000
;

//--------------- dance-double - Pandemonium X ----------------
#NOTES:
     dance-double:
     Pandemonium X:
     Easy:
     7:
     0.278087,0.325014,0.069522,0.060831,0,224,216,8,7,0,0,0,0,0,0.278087,0.325014,0.069522,0.060831,0,224,216,8,7,0,0,0,0,0:
00000000
00000000
00000000
00000000
,
00000000
00000000
00000000
00000000
,
00000000
00000000
00000000
00000000
,
00000000
00000000
00000000
00000000
,
00000000
00000000
00000000
10000000
,
00100000
00000000
01000000
00100000
,
10000000
00010000
00100000
00001000
,
00000000
00000000
00010000
00000100
00010000
00001000
00010000
00000000
,
00000000
00001000
00000000
00000000
,
00000000
01000000
00010000
00100000
,
00010000
01000000
00100000
10000000
,
01000000
00100000
00100000
00001000
,
00001000
00010000
00010000
00000200
,
00000000
00001300
00000010
00000100
,
00000001
00001000
00000100
00000100
,
00001000
00000010
00000010
00000100
,
00000100
00000001
00000001
00001000
,
00001000
00001100
00000100
00010000
,
00001000
01000000
00100000
10000000
,
00010000
10010000
10000000
00010000
,
00100000
00001000
00010000
00000100
,
00001000
00001010
00000010
00000100
,
00000001
00000010
00000100
00001000
,
00000100
00010100
00000100
00010000
,
00001000
01000000
00100000
20000000
,
00000000
31000000
10000000
00000000
,
00010000
00000000
00100000
00000000
,
00001000
00000000
00010000
00000000
,
00000100
00000000
00001000
00000000
,
00000010
00000100
00000001
00000010
,
00000000
00000100
00001000
00000010
,
00000000
00000100
00000000
00000001
,
00000000
00001000
00001100
00000100
,
00010000
00001000
00000000
01000000
,
00000000
00100000
00000000
10000000
,
00000000
00010000
00000000
00100000
,
00000000
00001000
00000000
00010000
,
00000000
00000100
00001000
00000010
,
00000000
00000100
00000001
00000010
,
00000100
00001000
00000100
00010000
,
00001000
01000000
00100000
10000000
,
00010000
10010000
00000000
00000000
,
00000000
01000000
00000000
00010000
01000000
00010000
01000000
00010000
,
01000000
00010000
01000000
00000000
00000000
00000000
00000000
00000000
,
00000000
00001000
00000000
00010000
00001000
00010000
00001000
00010000
,
00001000
00010000
00001000
00000000
00000000
00000000
00000000
00000000
,
00000000
01000000
00000000
00100000
01000000
00100000
01000000
00100000
,
01000000
00100000
10000000
00000000
00000000
00000000
00000000
00000000
,
00000000
00010000
00000000
00100000
00001000
00100000
00002000
00000000
,
00023000
00000000
00030100
00000000
00000000
00001000
00000000
00001000
,
00000000
00000000
00000010
00000000
00000000
00000100
00000000
00000100
,
00000000
00000000
00000001
00000000
00000000
00000010
00000000
00000010
,
00000000
00000000
00000100
00000000
00000000
00001000
00000000
00001000
,
00000000
00000100
00000100
00010000
,
00010000
00001000
00001000
01000000
,
01000000
00100000
00100000
10000000
,
10000000
00000000
00010000
00000000
10000000
00010000
00000000
01100000
,
00000000
10000000
00010000
00100000
,
00001000
00010000
00000100
00001000
,
00000010
00000100
00000100
00000001
,
00000001
00000010
00000010
00000200
,
00000000
00000310
00000001
00000100
,
00000010
00001000
00000100
00000100
,
00010000
00001000
01000000
00100000
,
10000000
01000000
00010000
01000000
,
10000000
00000000
00010000
00000000
00000000
00100000
00000000
00000000
,
00022000
00000000
00000000
00000000
,
00000000
00000000
00000000
00000000
,
00033000
00000000
00000000
00000000
;

//--------------- dance-double - Pandemonium X ----------------
#NOTES:
     dance-double:
     Pandemonium X:
     Medium:
     9:
     0.358782,0.472748,0.104283,0.086902,0,289,277,12,10,0,0,0,0,0,0.358782,0.472748,0.104283,0.086902,0,289,277,12,10,0,0,0,0,0:
00000000
00000000
00000000
00000000
,
00000000
00000000
00000000
00000000
,
00000000
00000000
00000000
00000000
,
00000000
00000000
00000000
00000000
,
00000000
00000000
00000000
10000000
,
00100000
00000000
01000000
00010000
,
00100000
00001000
00010000
00000010
,
00000000
00000000
00000100
00001000
00000010
00010000
00001000
00000000
,
00000000
00010000
00000000
00000000
,
00000000
00000100
00001000
00000010
,
00000100
00000001
00000010
00000100
,
00000100
00000010
00000001
00000100
,
00000010
00001000
00000100
00020100
,
00000000
00031000
00010000
00001000
,
01000000
00100000
10000000
10000000
,
00010000
00100000
01000000
10000000
,
01000000
00100000
01000000
10000000
,
00010000
00110000
00100000
00001000
,
00010000
00000000
00000100
00000000
00001000
00000000
00000010
00000100
,
00000001
00000010
00000100
00000000
00000010
00000000
00000001
00000000
,
00000100
00000010
00001000
00000100
,
00010000
00011000
00001000
01000000
,
00100000
00000000
10000000
00000000
01000000
00000000
00100000
01000000
,
10000000
00010000
01000000
00000000
00100000
00000000
10000000
00000000
,
00010000
00000000
00100000
00001000
00010000
00000100
00002000
00000000
,
00000000
00000000
00003010
00000000
00000100
00000000
00000000
00000010
,
00001000
00000000
00000100
00000000
00000010
00000000
00000000
00000001
,
00000100
00000000
00000010
00000000
00001000
00000000
00000000
00000100
,
00010000
00000000
00001000
00000000
01000000
00000000
00000000
00100000
,
10000000
00000000
01000000
00100000
00010000
00000000
00100000
00000000
,
00001000
00000000
00010000
00000100
00001000
00000000
00000010
00000000
,
00000100
00000000
00000001
00000010
00000001
00000000
00001000
00000100
,
00001000
00000000
00000010
00000000
00000110
00000000
00000100
00000010
,
00001000
00000100
00010000
00000000
00000100
00000000
00010000
00001000
,
00000000
00001000
01000000
00001000
00000000
01000000
00100000
01000000
,
00000000
00100000
10000000
00100000
00000000
10000000
01000000
10000000
,
00000000
01000000
00100000
00010000
00000000
00010000
00100000
01000000
,
00100000
00001000
00010000
00000100
00001000
00000010
00000100
00000000
,
00000101
00000000
00000001
00001000
00000010
00010000
00001000
00000000
,
00011000
00010000
00000100
00001000
,
00000010
00000000
00000100
00000000
00000001
00000100
00001000
00000100
,
00000001
00001000
00000200
00000000
00000000
00000000
00000300
00000000
,
00000000
00010000
00000000
00000100
00001000
00000010
00000100
00000010
,
00001000
00000010
00000200
00000000
00000000
00000000
00000300
00000000
,
00000000
00000010
00000000
00010000
00001000
00100000
00001000
00010000
,
00001000
00100000
00002000
00000000
00000000
00000000
00003000
00000000
,
00000000
00100000
00000000
00010000
01000000
00100000
01000000
00010000
,
00100000
00010000
02000000
00000000
00000000
00000000
03000000
00000000
,
00000000
00100000
00000000
10000000
00010000
00100000
00010000
01000000
,
00200000
00000000
10300000
00000000
01000000
00100000
00000000
00100000
,
00000000
00001000
00010000
00000000
00000100
00001000
00000000
00001000
,
00000000
00000010
00000100
00000000
00000001
00000010
00000000
00000010
,
00000000
00000100
00001000
00000000
00001000
00000010
00000000
00000010
,
00000000
00000100
00000001
00000000
00000001
00000000
00000100
00000000
,
00000100
00001000
00001000
00010000
,
00010000
01000000
01000000
10000000
,
10000000
00000000
10010000
00000000
00100000
01000000
00000000
10010000
,
00000000
10000000
01000000
00000000
10000000
00000000
00100000
00000000
,
01000000
00000000
00010000
00000000
00100000
00001000
00100000
00010000
,
00100000
00001000
00010000
00000100
,
00001000
00000010
00000100
00000102
,
00000000
00000013
00000001
00001000
,
00000100
00000000
00010000
00000000
00001000
00100000
00001000
00010000
,
00001000
00100000
01000000
10000000
,
00100000
01000000
00010000
00100000
,
00001000
00000000
00011000
00000000
00000000
00011000
00000000
00000000
,
00022000
00000000
00000000
00000000
,
00000000
00000000
00000000
00000000
,
00033000
00000000
00000000
00000000
;

//--------------- dance-double - Pandemonium X ----------------
#NOTES:
     dance-double:
     Pandemonium X:
     Hard:
     12:
     0.502791,0.650028,0.208565,0.104283,0.099937,405,381,24,12,0,0,0,0,0,0.502791,0.650028,0.208565,0.104283,0.099937,405,381,24,12,0,0,0,0,0:
00000000
00000000
00000000
00000000
,
00000000
00000000
00000000
00000000
,
00000000
00000000
00000000
00000000
,
00000000
00000000
00000000
00000000
,
00000000
00000000
00000000
10000000
,
01000000
00000000
00010000
00001000
,
00000100
00000001
00000100
00000010
,
00000000
00000000
00000100
00000010
00010000
00001000
00100000
00000000
,
00000000
01000000
00000000
00000000
,
00000000
10000000
00100000
01000000
,
00010000
00000000
00100000
00000000
00001000
00010000
00000100
00010000
,
00001000
00010000
00000100
00010000
,
00001000
00010000
00000010
00002100
,
00000000
00003010
00000100
00000001
,
00000010
00000000
00000100
00000000
00001000
00000100
00010000
00000100
,
00001000
00000100
00010000
00000100
,
00001000
00000100
00010000
00001000
,
01000000
00000000
00100000
10000000
00100000
10000000
01000000
00100000
,
01000000
00010000
00100000
00010000
00100000
00001000
00010000
00000100
,
00001000
00000010
00000100
00000010
00000100
00000001
00000010
00000100
,
00000010
00000001
00001000
00000001
00001000
00000010
00010000
00001000
,
00100000
00001000
00010000
00001000
00100000
01000000
00100000
00010000
,
01000000
00100000
01000000
00010000
10000000
00100000
10000000
00100000
,
01000000
00010000
00100000
00001000
00010000
00000100
00001000
00000010
,
00000100
00000000
00000001
00000000
00001000
00000000
00000100
00000000
00010000
00000000
00000100
00000000
00010000
00001000
00010000
00001000
,
00010000
00001000
00010000
00001000
00010000
00000000
00000100
00000000
00001000
00000000
00000010
00000000
00000100
00000000
00000001
00000000
,
00000010
00000000
00000000
00000100
00001000
00000000
00000100
00000000
00010000
00000000
00001000
00000000
01000000
00000000
00100000
00000000
,
10000000
01000000
00100000
00010000
10000000
00010000
00100000
01000000
,
10000000
00000000
00000000
00010000
01000000
00000000
00100000
00000000
00000000
00000000
01000000
00000000
00001000
00000000
00010000
00000000
,
00000100
00000000
00001000
00000010
00000100
00000000
00001000
00000000
00000100
00000000
00000000
00000000
00000001
00000000
00000100
00000000
,
00000000
00000000
00000010
00001000
00000000
00000000
00000100
00000000
00010000
00000000
00000000
00000000
00001000
00000000
01000000
00000000
,
00000000
00000000
00010000
10000000
00000000
00000000
01000000
00000000
00100000
00000000
00001000
00000000
00010000
00000000
00001000
00000000
,
01000000
00100000
10000000
01000000
00100000
00001000
00010000
00000010
,
00000010
00000100
00000010
00000100
00000010
00000000
00000100
00000000
00000001
00000000
00001000
00000000
00000100
00000000
00000001
00000000
,
00000000
00000001
00000010
00001000
00000000
00001000
00000100
00000001
,
00000000
00000001
00000010
00001000
00000000
00000100
00010000
00001000
,
00000000
00000000
00010000
00001000
00010000
00000000
00001000
00000000
00000000
00000000
00000000
00000000
00010000
00000000
00001000
00000000
,
01000000
00000000
00100000
10000000
00100000
00000000
01000000
00000000
00010000
00000000
00100000
00000000
10000000
00000000
00100000
00000000
,
00000000
00000000
00010000
00100000
00001000
00000000
00001000
00000000
00010000
00000000
00000100
00000000
00001000
00000000
00001000
00000000
,
00000010
00000100
00000001
00000100
00000010
00001000
00000001
00000100
,
00000010
00000000
00001000
00000010
00000100
00000000
00000010
00001000
00000100
00000000
00010000
00000100
00001000
00000000
00000100
00000000
,
00000010
00000001
00000010
00000001
00002000
00000000
00000000
00000000
00000000
00000000
00000000
00000000
00003000
00000000
00000000
00000000
,
00000000
00000002
00000000
00000103
00000010
00001000
00000100
00010000
,
00001000
01000000
02200000
00000000
00000000
00000000
03300000
00000000
,
00000000
00100000
00000000
01000000
00010000
00100000
00001000
00010000
,
00000100
00001000
00002020
00000000
00000000
00000000
00003030
00000000
,
00000000
00001000
00000000
00000010
00010000
00001000
01000000
00010000
,
00100000
01000000
22000000
00000000
00000000
00000000
33000000
00000000
,
00000000
00000000
01000000
00000000
00000000
00000000
00100000
00000000
00001000
00000000
00010000
00000000
00000100
00010000
00000100
00010000
,
00001000
00100000
00010000
01000000
00100000
00000000
00000000
00000000
01000000
00000000
00010000
00000000
00000000
00000000
00110000
00000000
,
00000000
00100000
00001000
00000000
00010000
00000100
00000000
00010100
,
00000000
00000100
00001000
00000000
00000100
00000010
00000000
00001001
,
00000000
00000001
00000100
00000000
00000001
00000010
00000000
00001100
,
00000000
00010100
00010100
00011000
,
00011000
01001000
01001000
01100000
,
01100000
10100000
10100000
01010000
,
01010000
00000000
01000000
00000000
00001000
00010000
00000000
00011000
,
00000000
00010000
00000100
00010000
00001000
00100000
00001000
00010000
,
00000010
00000100
00000001
00000010
00001000
00000010
00000001
00000001
,
00001000
00000000
00000100
00010000
00001000
00010000
00001000
01000000
,
00001000
01000000
00100000
10000000
01000000
00100000
00020000
00000000
,
00000000
00000000
00130000
00001000
00010000
00001000
00100000
00001000
,
00010000
00000010
00000100
00000001
00000010
00001000
00000010
00000001
,
00001000
00000000
00000010
00001000
00000010
00000100
00000001
00000100
,
00000001
00000010
00000100
00001000
00000100
00010000
00001000
01000000
,
00100000
10000000
01100000
00000000
00000000
00101000
00000000
00000000
,
00022000
00000000
00000000
00000000
,
00000000
00000000
00000000
00000000
,
00033000
00000000
00000000
00000000
;

//--------------- dance-double - Pandemonium X ----------------
#NOTES:
     dance-double:
     Pandemonium X:
     Challenge:
     15:
     0.621971,0.959399,0.234636,0.347608,0.42582,501,474,27,40,0,0,2,0,0,0.621971,0.959399,0.234636,0.347608,0.42582,501,474,27,40,0,0,2,0,0:
00000000
00000000
00000000
00000000
,
00000000
00000000
00000000
00000000
,
00000000
00000000
00000000
00000000
,
00000000
00000000
00000000
00000000
,
00000000
00000000
00000000
20000000
,
32000000
00000000
03020000
00032000
,
00003020
00000032
00000203
00002300
,
00000000
00000000
00003200
00020300
00032000
02003000
03200000
00000000
,
00000000
20000000
00000000
30300000
,
00000000
00000000
00000000
00000000
01000000
00000000
00010000
00000000
00100000
00000000
00001000
00010000
00000100
00000000
00010000
00000000
,
00001000
00000000
01000000
00001000
00010000
00000000
00000000
00000100
00001000
00000100
00000010
00000100
00001000
00000000
00000001
00000000
,
00001000
00000000
00000010
00000100
00000001
00000100
00000001
00000100
00000010
00001000
00000100
00000000
00001000
00000100
00001000
00000100
,
00010000
00001000
00010000
00001000
00010000
00001000
01000000
00001000
01000000
00100000
10000000
00100000
02000000
00000000
00000000
00000000
,
00000000
00000000
03000000
00000000
10010000
00000000
10000000
00000000
00010000
00000000
00100000
00001000
00010000
00000000
00000100
00000000
,
00001000
00000000
00000001
00001000
00000010
00000000
00000000
00000100
00000010
00001000
00000010
00000100
00000001
00000000
00000010
00000000
,
00000100
00000000
00001000
00000000
00000100
00001000
00000100
00001000
00000100
00010000
00000100
00000000
00001000
00010000
00001000
00010000
,
00001000
00100000
00001000
00010000
00001000
00010000
00000100
00010000
00000100
00001000
00000010
00001000
00000010
00000100
00000001
00000100
,
00000001
00001000
00000010
00001000
00000100
00000000
00001000
00000000
00000010
00000000
00000001
00000000
00000010
00000000
00001000
00000000
,
00000100
00000100
00010000
00001000
01000000
00100000
10000000
02000000
,
03010000
02000000
03100000
00001000
00010000
00000100
00001000
00000010
,
00000001
00000010
00001000
00000100
00010000
00001000
01000000
00100000
,
10000000
01000000
00200000
00310000
01000000
00001000
00010000
00001000
,
00000100
00000010
00000001
00000100
00000010
00001000
00000100
00000020
,
00000031
00000200
00000310
00010000
00000100
00001000
00010000
00100000
,
10000000
00000000
00010000
00000000
00010000
00100000
01000000
10000000
00010000
00100000
00001000
00010000
00000400
00000040
00000000
00000000
,
00000000
00000000
00000000
00000330
00000001
00000000
00001000
00000000
00000010
00000000
00001000
00000000
00000100
00000000
00010000
00000000
,
00000100
00000000
00000000
00010000
00001000
00000000
01000000
00000000
00100000
00000000
10000000
00000000
00010000
00000000
00100000
00000000
,
10000000
00100000
00010000
01000000
00100000
00010000
00100000
10000000
,
00000000
00000000
00000000
10000000
00010000
00000000
00100000
00000000
00000000
00000000
00001000
00000000
00010000
00000000
00000010
00000000
,
00000100
00000000
00000010
00001000
00000001
00000000
00000010
00000000
00000100
00000000
00000000
00000000
00000010
00000000
00000001
00000000
,
00000000
00000000
00001000
00000010
00000000
00000000
00000100
00000000
00000001
00000000
00000000
00000000
00001000
00000000
00000100
00000000
,
00000000
00000000
00010000
00001000
00000000
00000000
00010000
00000000
00001000
00000000
00100000
00000000
00001000
00000000
00010000
00000000
,
00000000
00000000
00000010
00000100
00000010
00000000
00001000
00000000
00000100
00000000
00000100
00000000
00010000
00000000
00001000
00000000
,
01000000
00100000
01000000
00100000
01000000
00000000
10000000
00000000
01000000
00000000
00010000
00000000
00100000
00000000
00001000
00000000
,
00000000
00010000
00000100
00001000
00000000
00000010
00000100
00001000
,
00000000
00000100
00000010
00001000
00000000
00000100
00001000
00000100
,
00000000
00000000
00010000
00001000
00010000
00000000
00000100
00000000
00000000
00000000
00000000
00000000
00000010
00000000
00000100
00000000
,
00000001
00000000
00001000
00000100
00010000
00000000
00001000
00000000
01000000
00000000
00100000
00000000
10000000
00000000
01000000
00000000
,
00010000
01000000
00100000
00100000
00001000
00001000
00010000
00010000
,
00000010
00000010
00000100
00001000
00000100
00000001
00001000
00000100
,
00000001
00000000
00000100
00010000
00001000
00000000
01000000
00000000
00100000
00000000
10000000
01000000
00100000
01000000
10000000
00010000
,
00100000
00001000
00010000
00000200
00002000
00000000
00000000
00000000
00000000
00000000
00000000
00000000
00003300
00000000
00000000
00000000
,
00000000
00000012
00000000
00000103
00000100
00000010
00000010
00010000
,
00010000
00001000
00022000
00000000
00000000
00000000
00033000
00000000
,
00000000
00201000
00000000
00310000
00010000
00100000
00100000
01000000
,
01000000
10000000
20020000
00000000
00000000
00000000
30030000
00000000
,
00000000
10200000
00000000
01300000
01000000
00010000
00010000
00100000
,
00100000
00001000
00022000
00000000
00000000
00000000
00033000
00000000
,
00000000
00000000
00010000
00000100
00001000
00000000
00000000
00001000
00000000
00000000
00001000
00000000
00000010
00000100
00000010
00000100
,
00000010
00001000
00000001
00000010
00000200
00000000
00000000
00000000
00010000
00000000
00010300
00000000
00000000
00000000
00011000
00000000
,
00000000
00001000
02000000
00000000
00100000
03100000
00000000
10010000
,
00000000
10000000
02000000
00000000
00100000
03100000
00000000
00110000
,
00000000
00010000
00200000
00000000
00001000
00301000
00000000
00011000
,
00000000
00010100
00001100
00000110
,
00000011
00000101
00001010
00010010
,
00010100
00011000
01001000
01100000
,
10100000
00000000
02010000
00000000
00001000
03020000
00000000
00031000
,
00000000
00000000
00001000
00000000
00010000
00000000
00000100
00000000
00001000
00000000
00000010
00001000
00000100
00000000
00010000
00000000
,
00001000
00000000
00100000
00000000
00010000
00000000
00000000
01000000
10000000
00100000
01000000
00100000
10000000
00000000
00010000
00000000
,
10000000
00000000
00010000
00100000
00001000
00010000
00001000
00010000
00000100
00001000
00000100
00000000
00001000
00000010
00001000
00000010
,
00000100
00000001
00000100
00000000
00000001
00001000
00000100
00001000
00000100
00010000
00001000
00100000
00002000
00000000
00000000
00000000
,
00000000
00000000
00000000
00000000
00013000
00000000
00100000
00000000
10000000
00000000
00100000
00010000
01000000
00000000
00100000
00000000
,
10000000
00000000
01000000
00000000
10000000
00000000
00000000
00010000
00100000
00001000
00010000
00001000
00010000
00000000
00000100
00000000
,
00001000
00000000
00000010
00000100
00000001
00000100
00000001
00000100
00000010
00001000
00000010
00000000
00001000
00000100
00001000
00000100
,
00000010
00010000
00000010
00000000
00000100
00000010
00001000
00000100
00010000
00001000
01000000
00100000
10000000
01000000
00100000
01000000
,
10000000
00010000
01000000
00000000
01100000
00000000
00000000
00000000
00000000
00000000
00011000
00000000
00000000
00000000
00000000
00000000
,
00000220
00000000
00000000
00000000
,
00000000
00000000
00000000
00000000
,
00000000
00000000
00000000
00000000
,
00000330
00000000
00000000
00000000
;
