#TITLE:左脳スパーク;
#SUBTITLE:;
#ARTIST:742;
#TITLETRANSLIT:Sanou spark;
#SUBTITLETRANSLIT:;
#ARTISTTRANSLIT:;
#GENRE:;
#CREDIT:;
#MUSIC:Sanou spark.ogg;
#BANNER:Sanou_spark.png;
#BACKGROUND:Sanou_spark-bg.png;
#CDTITLE:cdtitle.png;
#SAMPLESTART:13.068;
#SAMPLELENGTH:9.993;
#SELECTABLE:YES;
#OFFSET:1.932;
#BPMS:0.000=96.000
,17.500=192.000
,83.000=96.000
,84.000=192.000
,96.000=96.000
,97.000=192.000
,115.000=96.000
,117.000=192.000
,121.000=96.000
,123.000=192.000
,127.000=96.000
,129.000=192.000
,133.000=96.000
,135.000=192.000
,197.000=384.000
,201.000=192.000
,229.000=96.000
,231.000=192.000
;
#STOPS:17.500=1.563
,21.000=0.156
,21.500=0.313
,22.500=0.313
,35.000=0.156
,35.500=0.156
,36.000=0.156
,36.500=0.156
,92.000=0.469
,92.500=0.156
,105.000=0.313
,106.000=0.156
,106.500=0.156
,243.000=0.156
,243.500=0.156
,244.000=0.156
,244.500=0.156
,292.000=0.313
;
#ORIGIN:;
#TAGS:;
#PREVIEWVID:;
#JACKET:Sanou_spark-jacket.png;
#CDIMAGE:;
#DISCIMAGE:;
#BGCHANGES:;
#FGCHANGES:;

//--------------- dance-single - ----------------
#NOTES:
     dance-single:
     :
     Beginner:
     4:
     0.18056,0.338877,0.054953,0.064112,0,138,132,6,7,0,0,0,0,0,0.18056,0.338877,0.054953,0.064112,0,138,132,6,7,0,0,0,0,0:
0000
0000
0000
0000
,
0000
0000
0000
0000
,
0000
0000
0000
0000
,
0000
0000
0000
0000
,
0000
0000
0001
0000
,
1000
0000
0000
0010
0000
0000
0100
0000
,
0000
0000
0000
0010
,
0000
0000
0000
1000
,
0000
0000
0000
0000
0000
0000
0100
0100
,
0010
0010
0001
0000
0000
0000
0000
0000
,
0000
1000
0000
0000
,
0000
0010
0000
0100
,
0000
2002
0000
0000
,
3003
1000
0000
0001
,
0000
1000
0000
0001
,
0000
0100
0000
0010
,
0000
1000
0000
0100
,
0100
0010
0000
0001
,
0000
0100
0000
0010
,
0000
1000
0001
0000
,
0000
1000
0000
0000
1000
0000
1000
0000
,
0001
0000
0010
0000
,
0001
0000
1000
0000
,
1100
0000
0100
0000
,
0010
0001
0000
0000
,
0000
1000
0000
0010
,
0000
0000
0100
0000
0010
0010
0020
0000
,
0000
0000
0030
0100
,
0000
0010
0000
1000
,
0000
0001
0000
0010
,
0000
0100
0000
0010
,
0000
0001
0000
1000
,
0000
0001
0000
1000
,
0000
0110
0000
0001
,
0000
0000
0000
1000
,
0000
0000
0000
0200
,
0000
0000
0000
0310
,
0000
0000
0000
0100
,
0100
0000
0100
0000
0000
0010
0000
0010
,
0000
0010
0000
0000
0000
0000
0001
0000
,
0001
0000
0001
0000
0000
1000
0000
1000
,
0000
1000
0000
0000
0000
0000
0001
0000
,
0000
1000
0000
0100
,
0000
0000
0000
0020
,
0000
0001
0000
0001
,
0000
0000
0030
0100
,
0100
0000
0100
0000
0000
0010
0000
0010
,
0000
0010
0000
0000
0000
0000
0100
0000
,
0100
0000
0100
0000
0000
0010
0000
0010
,
0000
0010
0000
0000
0000
0000
0000
0000
,
0000
0001
0000
0000
,
0000
1000
0000
0000
,
0000
0010
0000
0000
,
0000
0100
0000
0000
,
0000
0001
0000
0000
,
0000
1000
0000
0000
,
0000
0100
0000
1000
,
0000
0110
0000
0001
,
0000
0000
0000
1000
,
0000
0000
0000
0010
,
0000
0000
0000
0000
0000
0000
0100
0100
,
0010
0010
1000
0000
1000
0000
1000
0000
,
0000
0001
0001
0001
,
0000
0010
0010
0100
,
0100
2002
0000
0000
,
3003
0001
0000
0000
,
0000
1000
0000
0000
,
0000
0010
0000
0000
,
0000
0100
0000
0010
,
0000
1000
0000
0000
,
0000
0100
0000
0000
,
0000
0010
0000
0000
,
0000
0001
0000
1000
,
0000
0010
0000
0000
0000
0000
0000
0000
,
1001
0000
0000
0000
;

//--------------- dance-single - ----------------
#NOTES:
     dance-single:
     :
     Easy:
     8:
     0.332335,0.377803,0.064112,0.100747,0,254,247,7,11,0,0,0,0,0,0.332335,0.377803,0.064112,0.100747,0,254,247,7,11,0,0,0,0,0:
0000
0000
0000
0000
,
0000
0000
0000
0000
,
0000
0000
0000
0000
,
0000
0000
0000
0000
,
0000
0000
0001
1000
,
0010
0000
0100
0001
0000
0010
0100
0000
,
0010
0001
0100
0010
,
0010
0100
0100
0010
,
1000
0000
0001
0000
0010
0000
0001
1000
,
0010
0100
0001
0000
1000
0000
0010
0000
,
1000
0001
0010
0001
,
1000
0100
1000
0001
,
0100
0020
0000
0000
,
0030
0100
0010
0100
,
0010
0100
0010
0100
,
0010
1000
0001
0010
,
0001
1000
0100
0110
,
1100
0100
1000
0100
,
1000
0100
1000
0100
,
1000
1001
2002
3003
,
0001
0100
0100
0100
,
0010
0100
0001
1000
,
0100
1000
0001
0100
,
0010
0100
0001
0000
1000
0000
0001
0000
,
0010
0100
0010
0100
,
1000
0001
0100
0001
,
1000
0000
0100
0000
0010
0100
1000
0000
,
1000
1000
0001
0100
,
0010
1000
0001
0020
,
0000
0130
0010
0001
,
1000
0002
0000
0103
,
0001
0010
0001
2000
,
0000
3001
1000
0010
,
1000
0000
0220
0000
0000
0330
0001
0000
,
1000
0000
0001
0000
,
1000
0100
0010
0000
,
0100
0000
0010
0000
,
0001
0100
0010
1000
,
1000
0000
1000
0000
0000
0001
0000
0001
,
0000
0001
1000
0000
0001
0000
1000
0000
,
1000
0000
1000
0000
0000
0001
0000
0001
,
0000
1000
0001
0000
1000
0000
0001
0000
,
0100
0001
0010
0100
,
0010
0001
1000
0100
,
0010
0100
1000
0001
,
0100
0010
1000
0010
,
0010
0000
0010
0000
0000
0100
0000
0100
,
0000
0010
0100
0000
0010
0000
0100
0000
,
0100
0000
0100
0000
0000
0010
0000
0010
,
0000
0100
0010
0000
0000
0000
0000
0000
,
0000
1000
0000
0001
,
0000
1000
0100
0010
,
0000
0100
0000
1000
,
0000
0001
0001
1000
,
1000
0001
0000
0100
,
0000
1000
0100
0001
,
0000
1000
0000
0001
,
0000
0110
0000
1000
,
0001
0010
0001
1000
,
0001
0100
0001
1000
,
0100
0000
0010
0000
0001
0000
1000
0001
,
0100
0010
1000
0000
1000
0000
0001
0000
,
0001
0100
0100
0010
,
0010
0100
0010
1000
,
0001
0220
0000
0000
,
0330
0000
1000
0000
0001
0000
0000
0010
,
0000
0000
0100
0000
0000
1000
0000
0000
,
0100
0000
1000
0000
0010
0000
0000
0100
,
0000
0000
0001
0000
0000
1000
0000
0000
,
0000
0000
0001
0000
1000
0000
0000
0001
,
0000
0000
0010
0000
0000
0100
0000
0000
,
1000
0000
0100
0000
1000
0000
0000
0010
,
0000
0000
0100
0000
0000
0001
0000
0000
,
0000
1000
0000
0100
0000
0010
0000
0001
,
2000
0000
0000
0000
,
3000
0000
0000
0000
;

//--------------- dance-single - ----------------
#NOTES:
     dance-single:
     :
     Medium:
     11:
     0.456634,0.74553,0.494578,0.128224,0.022897,349,295,54,14,0,0,0,0,0,0.456634,0.74553,0.494578,0.128224,0.022897,349,295,54,14,0,0,0,0,0:
0000
0000
0000
0000
,
0000
0000
0000
0000
,
0000
0000
0000
0000
,
0000
0000
0000
0000
,
0000
0000
0001
0100
,
0010
0000
1000
0001
1000
0100
1002
0000
,
0103
0010
1000
0001
,
0010
0001
0000
0010
0001
0000
1100
0000
,
0001
0000
1000
0000
0100
0000
0010
0010
,
0100
0100
1000
0000
0001
0000
0100
0000
,
0010
0000
1010
0000
0010
0100
0000
0100
,
0001
1001
1000
0001
,
0010
1200
0000
0000
,
0300
0010
0001
0100
,
1000
0100
0010
1000
,
0001
0010
1000
0010
,
0001
0100
1000
0110
,
0101
0001
1000
0100
,
0001
0100
0010
0001
,
0100
0110
0220
0330
,
0100
0000
0010
0000
1000
0000
0000
1000
0000
0000
1000
0000
0001
0000
0000
0000
,
0010
0001
0100
0001
,
1000
0100
0001
0100
,
1100
0000
0011
0000
0101
0000
0000
0000
1010
0000
0000
0010
0000
0000
0010
0000
,
0100
0001
0010
0000
0100
0000
0010
0000
,
0001
1000
0010
0001
,
0010
0000
0000
0000
0100
0000
0000
0000
0010
0000
1000
0000
0001
0000
0000
0001
,
0000
0001
1001
0000
0110
0000
0001
0000
,
0100
0010
1000
0200
,
0000
0310
0001
1000
,
0010
0000
0000
0000
0200
0000
0000
0000
0000
0000
0000
0300
0010
0000
0000
0000
,
0001
0100
0010
2000
,
0000
3001
1000
0010
,
0100
0000
0000
0000
0001
1000
0020
0000
0000
0000
0000
0000
0130
0000
0000
0000
,
0001
0010
0001
1000
,
0010
0100
0001
0010
,
1000
0010
0100
0001
,
0100
1000
0010
0110
,
0110
0000
0110
0000
0000
1001
0000
1001
,
0000
0001
1000
0000
0001
0000
1010
0000
,
1010
0000
1010
0000
0000
1000
0000
0010
,
0000
0100
0001
0000
0101
0000
0001
0000
,
0010
0000
0001
0000
1000
0100
0000
1000
,
0000
0010
0100
0000
0001
0000
1000
0000
,
0001
0000
0010
0000
0100
0010
0000
0001
,
0000
0100
0010
1000
0001
0000
1001
0000
,
1001
0000
0101
0000
0000
1001
0000
1001
,
0000
1000
0100
0000
0110
0000
0011
0000
,
0011
0000
0011
0000
0000
1100
0000
1100
,
0000
1000
0002
0000
0000
0000
0000
0000
,
0000
1003
0010
0001
,
0010
0000
0100
0001
0010
0100
0000
0010
,
0001
0010
0100
1000
,
0100
0000
1000
0000
1000
0000
1000
0100
,
0010
0001
0010
0000
0001
0000
0100
0000
,
0010
0000
0100
0010
1000
0001
0000
0010
,
0100
0010
0001
0100
,
0010
0000
2002
0000
0000
3003
1001
0000
,
1000
0001
0010
0001
,
0100
0001
0000
0001
0010
0000
0001
0000
,
0100
0000
0010
0000
1000
0000
1001
1001
,
0110
0110
0101
0000
0101
0000
1010
0000
,
1010
1100
1100
0011
,
0011
1001
1010
1001
,
0011
0220
0000
0000
,
0330
1000
0001
0100
,
1000
0100
0001
0010
,
1000
0010
0001
0010
,
0100
0000
1000
0000
0001
0000
1000
0100
,
0020
0130
0010
0001
,
0100
1000
0100
0010
,
0001
0010
1000
0010
,
0100
1000
0100
0001
,
0000
1000
0100
0010
0001
0010
0100
1000
,
0010
0000
0000
0000
;

//--------------- dance-single - ----------------
#NOTES:
     dance-single:
     :
     Hard:
     13:
     0.638503,0.755605,0.613643,0.338877,0.073271,488,421,67,37,0,0,0,0,0,0.638503,0.755605,0.613643,0.338877,0.073271,488,421,67,37,0,0,0,0,0:
0000
0000
0000
0000
,
0000
0000
0000
0000
,
0000
0000
0000
0000
,
0000
0000
0000
0000
,
0000
0000
0000
0000
0001
0100
0010
1000
,
0001
0010
0100
1100
0011
0011
1002
0000
,
0103
0001
0010
0001
0100
0001
1000
0000
,
0001
1000
0000
1000
0010
0000
0110
0000
,
0100
1000
0100
0001
0010
0100
1100
1100
,
0011
0011
1001
0000
0001
1000
0010
1000
,
0001
0010
0100
0000
0010
0001
0000
0100
,
0010
0000
1010
0000
1000
0010
0001
0010
,
1000
0001
0020
0000
0000
0000
0000
0000
,
0030
0000
0100
0100
0010
0001
1000
1000
,
0010
0100
0010
0010
1000
0001
1000
1000
,
0100
0000
0010
0000
0001
0010
0001
0010
0001
0000
1000
0000
0020
0000
0000
0000
,
0230
0000
0000
0000
0301
0000
0000
0001
0000
0000
0001
0000
2000
0000
0000
0000
,
3200
0000
0310
0010
0100
1000
1000
0001
,
0100
0100
0001
0010
0010
0100
1000
1000
,
0001
1000
1010
0000
1010
0000
0000
0000
,
1000
0000
0010
0000
0100
0000
0000
0100
0000
0000
0200
0000
0002
0300
0003
0000
,
1000
1000
0001
0010
0010
0001
0100
0100
,
0010
1000
1000
0100
0010
0010
0001
1000
,
0100
0000
0110
0000
1001
0000
0000
0000
1000
0000
0000
1000
0000
0000
1000
0000
,
0101
1010
1001
0001
0010
0100
0100
1000
,
0010
0010
0100
0001
0001
0100
0010
0010
,
1000
0000
0001
0000
0010
0000
0100
0000
0010
0000
0001
0000
2000
0000
0000
0100
,
0000
0010
3020
0000
0230
0000
0301
0000
,
1000
0000
0100
0000
1000
0000
0001
0000
0100
0000
0001
0000
1000
0100
0010
0002
,
0000
0010
0010
0000
1003
0000
0000
0000
0001
0000
0100
0000
0010
0000
1000
0000
,
0001
0000
1000
0000
0001
0000
1000
1000
0100
0010
0001
1000
0010
0000
0000
0000
,
0100
0000
0010
0000
1000
0000
0001
0000
0010
0000
0100
0000
1000
0100
0010
0002
,
0000
1000
2003
0000
3010
0000
0000
0000
0100
0000
0010
0000
1000
0000
0001
0000
,
0010
0100
0022
0000
0033
0000
1100
0100
,
1000
0001
0100
0100
0001
0010
0000
0110
,
0000
0100
1000
0001
0100
0000
0001
0001
,
0100
1000
0100
0100
0010
1000
0000
0101
,
0000
0001
0100
0010
1000
0000
1001
0000
,
1001
0000
1001
0000
0000
0110
0000
0110
,
0000
0110
0110
0000
0110
0000
1001
0000
,
1001
0000
1001
0000
0000
0110
0000
0110
,
0000
0110
0110
0000
0110
0000
0001
0000
,
0100
0000
0010
0000
1000
0001
0000
0010
,
0000
1000
0010
0001
1000
0000
0001
0000
,
0100
0000
1000
0000
0100
0010
0000
1000
,
0000
0001
0100
1000
0100
0000
0101
0000
,
0101
0000
0101
0000
0000
1010
0000
1010
,
0000
1010
1010
0000
1010
0000
1001
0000
,
1001
0000
1001
0000
0000
0110
0000
0110
,
0000
0110
0002
0000
0000
0000
0000
0000
,
0000
0000
1003
0000
0100
0100
1000
0010
,
0100
0001
0010
1000
0010
0002
0000
0100
,
0203
0000
0310
0000
1000
1000
1001
0000
,
0100
0010
0011
0000
0011
0000
0001
0010
,
1000
0010
0100
0000
0010
0010
0100
1000
,
0001
0100
0001
0010
1000
0020
0000
0100
,
0230
0000
1300
0000
0100
0010
0001
0100
,
0010
1000
0220
0000
0000
0330
0201
0000
,
0310
0010
1000
0001
0010
0100
0020
0000
,
0031
0200
0000
0301
0020
0000
0130
0000
,
0010
0001
0010
0100
1000
0001
1001
0110
,
1001
0110
0021
0000
0031
0100
0010
1000
,
0010
0100
0102
0000
0013
0210
0000
1300
,
2001
0000
3010
0000
0100
0010
1000
0001
,
0010
0100
2200
0000
0000
0000
0000
0000
,
3300
0000
0010
0001
0100
0010
0000
0100
,
0001
0000
0100
0010
0000
0100
0001
0000
,
0100
0010
1000
0001
0010
0100
0000
0100
,
1000
0000
0100
0010
0000
0100
2000
0000
,
0000
0000
3001
0100
0001
0010
0000
0100
,
0010
0000
0100
1000
0000
0100
0010
0000
,
0100
1000
0010
0100
0001
0010
0000
0001
,
1000
0000
0001
0100
0000
0001
2000
0000
,
3000
0001
0010
0100
1000
0100
0010
0001
,
2002
0000
0000
0000
,
3003
0000
0000
0000
;

//--------------- dance-single - ----------------
#NOTES:
     dance-single:
     :
     Challenge:
     15:
     0.689531,0.858642,0.686914,0.412148,0.215233,527,452,75,45,52,0,0,0,0,0.689531,0.858642,0.686914,0.412148,0.215233,527,452,75,45,52,0,0,0,0:
0000
0000
0000
0000
,
0000
0000
0000
0000
,
0000
0000
0000
0000
,
0000
0000
0000
0000
,
0000
0000
0000
1001
1000
0100
0010
0001
,
0010
0100
0010
0011
0101
0101
1020
0000
,
0130
0100
0001
1000
0100
1000
0001
0000
,
1000
0010
0000
0010
0001
0000
1001
0000
,
0001
0100
0100
0001
1000
0100
1100
0011
,
0101
0011
1001
0000
1000
0001
0001
0010
,
0100
1000
0001
0000
1000
0010
0000
0010
,
0001
0000
1001
0000
1000
0001
0001
0010
,
0001
1000
0020
0100
0100
0000
1030
0000
,
1001
0000
0001
0001
0010
0100
0010
0010
,
0100
1000
0001
0001
0100
0010
1000
1000
,
0001
0000
0010
0000
0100
0000
1000
0001
0100
0000
0001
0000
2000
0000
3001
0000
,
2000
0000
3100
0000
0010
0000
0001
0100
0000
0100
0001
0000
1001
0000
0000
0000
,
0110
0000
1001
1000
0001
0001
0010
0100
,
0100
1000
0001
0001
0100
0010
0010
1000
,
0001
0010
1100
0000
0022
0000
0003
0000
,
0031
0000
0000
0000
0000
0000
0100
0000
0000
0000
0000
0000
0110
0000
0000
0000
0000
0000
0000
0000
0000
0101
0000
0000
0000
0000
0000
0000
0000
0000
1001
0000
0000
0000
0000
0000
2100
0000
0000
0200
0300
0000
3200
0000
0300
0000
0000
0000
,
0011
0001
0010
1000
0010
0001
0100
1000
,
0100
0010
1000
0001
1000
0100
0001
0100
,
1002
0000
0203
0000
0010
0000
0000
0000
0301
0000
0000
0001
0000
0000
1000
0000
,
0002
0000
0003
0000
0000
0000
0200
0000
0300
0010
0000
0000
1000
0000
0000
0000
0000
0000
0100
0000
0000
0000
0000
0000
0001
0000
0000
0000
0000
0000
1000
0000
0000
0000
0000
0000
0001
0000
0000
0000
0000
0000
0100
0000
0000
0000
0000
0000
,
1000
0000
0001
0000
1000
0000
0100
1000
0100
1000
0100
1000
0001
0000
0100
0000
,
1000
0100
0110
0101
0011
0101
2002
0000
,
0000
0000
0000
0000
3003
0000
0001
0001
,
0100
0000
1000
0000
0100
0000
0100
0000
0010
0000
1000
0000
0001
0010
1000
0020
,
0000
0100
0230
0000
1300
0000
0000
0000
0100
0000
0001
0000
0100
0000
1000
0000
,
0010
0000
0100
0000
0001
0000
0001
0010
0100
0100
0010
0010
0001
0000
0000
0000
,
0001
0000
0010
0000
1000
0000
0010
0000
0100
0000
0010
0000
0001
0001
1000
0020
,
0000
0230
0302
0000
0013
0000
0000
0000
0100
0000
0100
0000
0010
0000
0001
0000
,
1000
0000
0000
0000
0010
0000
0000
0000
0100
0001
0010
0001
2000
0000
0000
0000
0000
0000
0000
0000
0000
0000
0000
0000
3001
0000
0000
0000
1000
0000
0000
0000
,
0001
0100
0010
0010
0100
0001
1000
0100
,
1000
0001
0100
0010
100M
000M
100M
001M
,
010M
010M
001M
100M
010M
010M
001M
0100
,
0000
0100
0010
0001
1000
0000
1001
0000
,
1001
0000
1001
0000
0000
1010
0000
1100
,
0000
1010
0110
0000
1001
0000
0110
0000
,
0110
0000
0110
0000
0000
1001
0000
0101
,
0000
0000
0002
0003
0020
0000
1030
0000
0010
0000
0100
0000
1000
0000
0000
0000
,
0100
0000
1000
0000
0010
0100
0000
0001
,
0000
0010
1000
0010
0001
0000
M001
M000
,
M100
M000
M001
M000
M010
M100
M000
M011
,
M000
M001
M100
M010
M100
0000
0101
0000
,
0011
0000
1100
0000
0000
1001
0000
1010
,
0000
0001
0011
0000
1001
0000
0101
0100
,
0010
0000
0000
1000
0000
0001
0000
1000
0000
0001
0000
1000
0000
0001
0000
1000
0000
0001
0000
0000
0000
1001
0000
0000
,
0000
0001
M020
0M00
000M
0M00
M000
0M00
,
000M
0000
0130
0000
0010
0100
1000
0010
,
0100
0001
0010
0010
0001
0200
0000
0010
,
0320
0000
1030
0000
1000
1000
0001
0010
,
0001
1000
1010
0000
0101
0000
1001
1000
,
0100
0010
0001
0001
0100
0100
0010
1000
,
0001
1000
0100
0100
0001
0020
0030
0010
,
2000
0000
3100
0000
0010
0001
0100
0010
,
1000
0000
0000
0000
0000
0000
0000
0000
0000
0000
0000
0000
0000
0000
0000
0000
0000
0000
0000
0000
0000
0000
0000
0000
0001
0000
0000
0000
0000
0000
0000
0000
0000
0000
0000
0000
0000
0000
0000
0000
0000
0000
0000
0000
0000
0000
0000
0000
0220
0000
0000
0000
0000
0000
0000
0000
0000
0000
0000
0000
0000
0000
0000
0000
0000
0000
0000
0000
0000
0000
0000
0000
0000
0000
0000
0000
0000
0000
0000
0000
0000
0000
0000
0000
0000
0000
0000
0000
0000
0000
0000
0000
0000
0000
0000
0000
0000
0000
0000
0000
0000
0000
0000
0000
0000
0000
0000
0000
0000
0000
0000
0000
0000
0000
0000
0000
0000
0000
0000
0000
0000
0000
0000
0000
0000
0330
0000
0000
0000
0000
0000
0000
0000
0000
0000
0000
0000
0000
0000
0000
0000
0000
0000
0000
2001
0000
0000
0000
0000
0000
0000
0000
0000
0000
0000
0000
0000
0000
0000
0000
0000
0000
0000
0000
0000
0000
0000
0000
0000
0000
0000
0000
0000
0000
0000
0000
0000
0000
0000
0000
0000
0000
0000
0000
0000
0000
0000
0000
0000
0000
0000
0000
,
3010
0001
0010
1000
0010
0001
1000
0000
,
0001
0100
0000
0100
1000
0000
1001
0000
,
1000
0000
0100
0000
0001
0000
0100
0000
1000
0000
0001
0000
1001
0000
1020
0030
,
2100
3000
1020
0030
1001
0000
0000
0000
0101
0000
0001
0000
1001
0000
1000
0000
,
1100
1000
1020
0000
0130
0102
0000
0013
,
2100
0000
3001
0000
1100
0100
0110
0100
,
1100
1000
2002
0000
0000
0000
0000
0000
,
3003
0000
0000
0000
00M1
0000
1000
0000
0100
0000
1000
00M0
0000
0000
0001
0000
,
0100
0000
0000
00M0
0001
0000
1000
0000
0000
0000
01M0
0000
1000
0000
0000
0000
,
00M1
0000
1000
0000
0001
0000
01M0
0000
0001
0000
0100
0000
0000
00M0
0001
0000
,
0100
0000
0000
00M0
0001
0000
1000
0000
0000
00M0
1000
0000
0200
0000
2000
3000
,
23M0
0000
3000
0000
0001
0000
1M00
0000
0010
0000
1000
0000
0000
0M00
0001
0000
,
1000
0000
0000
0M00
0001
0000
0010
0000
0000
0M00
0001
0000
1000
0000
0000
0M00
,
0001
1000
0001
0M10
0001
1000
0M00
1000
,
0001
0000
0M00
0000
0001
0000
1000
0000
0000
0M00
0001
0000
0102
0000
0000
0000
,
0000
1003
1000
0100
0010
0001
0010
0100
,
2002
0000
0000
0000
,
3003
0000
0000
0000
;

//--------------- dance-double - ----------------
#NOTES:
     dance-double:
     :
     Easy:
     8:
     0.340186,0.446494,0.119065,0.164859,0.013738,260,247,13,18,0,0,0,0,0,0.340186,0.446494,0.119065,0.164859,0.013738,260,247,13,18,0,0,0,0,0:
00000000
00000000
00000000
00000000
,
00000000
00000000
00000000
00000000
,
00000000
00000000
00000000
00000000
,
00000000
00000000
00000000
00000000
,
00000000
00000000
00010000
00100000
,
00001000
00000000
00010000
00000100
00000000
00001000
00000020
00000000
,
00000130
00000001
00000010
00000001
,
00000000
00001000
00000000
00000000
00000100
00000000
00011000
00000000
,
00001000
00000000
00010000
00000000
00001000
00000000
01000000
01000000
,
00100000
00100000
10010000
00000000
10000000
00000000
00010000
00000000
,
00100000
00000000
00001000
00000000
00000000
00010000
00000000
00000000
,
00000100
00001100
00001000
00000010
,
00000100
00000001
00000020
00000000
00000000
00000000
00000000
00000000
,
00000030
00000100
00010000
00000100
,
00010000
00001000
01000000
00100000
,
10000000
00010000
00100000
10000000
,
00100000
00010000
01000000
00011000
,
00010100
00001000
00000010
00000100
,
00000001
00000010
00001000
00000010
,
00000001
00000101
00000101
00000000
,
00000001
00000100
00000010
00000000
00001000
00000000
00000100
00000000
,
00010000
00001000
01000000
00100000
,
10000000
00010000
00100000
01000000
,
00110000
00100000
00001000
00000000
00010000
00000000
00010000
00000000
,
00000200
00000000
00000000
00000300
00000000
00000000
00002000
00000000
00003000
00000000
00000000
00000000
00000010
00000000
00000000
00000000
00000000
00000000
00000000
00000000
00000000
00000000
00000000
00000000
00000100
00000000
00000000
00000000
00000000
00000000
00000000
00000000
00000000
00000000
00000000
00000000
00000001
00000000
00000000
00000000
00000000
00000000
00000000
00000000
00000000
00000000
00000000
00000000
,
00001000
00000100
00000100
00000100
,
00010000
00000000
00001000
00000000
01000000
00100000
20000000
00000000
,
00000000
00000000
00000000
30010000
,
00100000
10000000
00100000
00002000
,
00000000
00013000
00000100
00001000
,
00000010
00000200
00000000
00000301
,
00000010
00001000
00000010
00000200
,
00000000
00001300
00000100
00010000
,
00001000
00000000
00000000
00000000
00010000
00001000
00020000
00000000
00000000
00000000
00000000
00000000
00030010
00000000
00000000
00000000
,
00000100
00000010
00001000
00000100
,
00000000
00010000
00010000
00001000
,
01000000
00100000
10000000
00010000
,
00000000
00100000
00100000
00001000
,
00001000
00000000
00001000
00000000
00000000
00010000
00000000
00010000
,
00000000
00001000
00010000
00000000
00001000
00000000
00010000
00000000
,
00010000
00000000
00010000
00000000
00000000
00001000
00000000
00001000
,
00000000
00010000
00001000
00000000
00010000
00000000
00000100
00000000
,
00001000
00000010
00000100
00000001
,
00000010
00000000
00000100
00001000
00000100
00000000
00001000
00000000
,
00000100
00010000
00001000
01000000
,
00100000
00000000
01000000
00100000
10000000
00000000
00010000
00000000
,
00010000
00000000
00010000
00000000
00000000
00100000
00000000
00100000
,
00000000
00100000
00001000
00000000
00001000
00000000
00010000
00000000
,
00010000
00000000
00010000
00000000
00000000
00000100
00000000
00000100
,
00000000
00000100
00002000
00000000
00000000
00000000
00000000
00000000
,
00000000
00003001
00000000
00000100
,
00000000
00000010
00010000
00011000
,
00000000
00001000
00000000
01000000
,
00000000
00100000
00010000
00100000
,
10000000
00010000
00000000
00100000
,
00000000
00001000
00001000
00011000
,
00000000
00010000
00000000
00000100
,
00000000
00000000
00022000
00000000
00000000
00033000
01000000
00000000
,
00000000
00100000
00000000
10000000
,
00010000
00100000
00001000
00010000
,
00000000
00000000
00000100
00000000
00000000
00000000
00001000
00000001
,
00000100
00000010
00001000
00000000
00001000
00000000
00000100
00000000
,
00000100
00010000
00010000
00001000
,
00001000
01000000
01000000
00100000
,
00100000
20020000
00000000
00000000
,
30030000
00000000
10000000
00000000
01000000
00000000
00000000
00100000
,
00000000
00000000
00010000
00000000
00000000
00100000
00000000
00000000
,
00001000
00000000
00010000
00000000
00000100
00000000
00000000
00001000
,
00000000
00000000
00000010
00000000
00000000
00000200
00000000
00000000
,
00000300
00000000
00000001
00000000
00000010
00000000
00000000
00000100
,
00000000
00000000
00001000
00000000
00000000
00000100
00000000
00000000
,
00010000
00000000
00001000
00000000
01000000
00000000
00000000
00100000
,
00000000
10000000
00000000
00020000
,
00030000
00100000
00001000
00010000
,
00022000
00000000
00000000
00000000
,
00033000
00000000
00000000
00000000
;

//--------------- dance-double - ----------------
#NOTES:
     dance-double:
     :
     Medium:
     11:
     0.506354,0.711643,0.448784,0.128224,0.068691,387,338,49,14,0,0,0,0,0,0.506354,0.711643,0.448784,0.128224,0.068691,387,338,49,14,0,0,0,0,0:
00000000
00000000
00000000
00000000
,
00000000
00000000
00000000
00000000
,
00000000
00000000
00000000
00000000
,
00000000
00000000
00000000
00000000
,
00000000
00000000
10000000
01000000
,
00100000
00000000
00010000
00100000
00001000
00010000
00000100
00000000
,
00001000
00000010
00000100
00000001
,
00001000
00000001
00000000
00000001
00000010
00000000
00000100
00000000
,
00001000
00000000
00000100
00000000
00010000
00000000
00011000
00011000
,
00010100
00010100
00001000
00000000
00000010
00000000
00000100
00000000
,
00000001
00000000
00000010
00000000
00000001
00000100
00000000
00000100
,
00000010
00001000
00000100
00010000
,
00001000
01000000
00200000
00000000
00000000
00000000
00000000
00000000
,
00300000
10000000
01000000
00010000
,
01000000
10000000
01000000
00010000
,
01000000
00000000
10000000
00010000
00100000
00001000
00010000
00000000
,
00010000
00000000
00000000
00000000
00000100
00000000
00000000
00000100
00000000
00000000
00000100
00000000
00001000
00000000
00000000
00000000
,
00001001
00000001
00000100
00001000
,
00000100
00000001
00000100
00001000
,
00000100
00000001
00000101
00000000
,
00000100
00000000
00000010
00000000
00001000
00000000
00000000
00001000
00000000
00000000
00001000
00000000
00000100
00000000
00000000
00000000
,
00010000
00001000
01000000
00001000
,
00010000
00001000
01000000
00001000
,
00011000
00000000
00110000
00000000
11000000
00000000
00000000
00000000
10010000
00000000
00000000
00010000
00000000
00000000
00010000
00000000
,
20000000
30000000
00020000
00030000
00100000
00000000
00000000
00000000
10000000
00000000
00000000
00000000
00100000
00000000
00000000
00000000
,
00001000
00000000
00010000
00000010
00001000
00000100
00001000
00000010
,
00000100
00000001
00001000
00000001
00000001
00000110
00000020
00000000
,
00000000
00000000
00000030
00001000
,
00000100
00000000
00000000
00000000
00010000
00000000
00000000
00000000
00001000
00000000
00000000
00000000
01000000
00100000
10000000
00100000
,
00000000
01000000
00010000
00000000
00100000
00000000
00000000
00000000
00001000
00000000
00000000
00000000
00010000
00000000
00000000
00000000
,
00000010
00000000
00000000
00000000
00000100
00000000
00000100
00000010
00001000
00000100
00010000
00001000
01000000
00000000
00000000
00000000
,
01000000
00000000
00000000
00000000
00100000
00000000
00000000
00000000
00100000
00000000
00000000
00000000
01000000
00010000
00100000
00001000
,
00000000
00010000
00001000
00000000
00010000
00000000
00000000
00000000
00000100
00000000
00000000
00000000
00001000
00000000
00000000
00000000
,
00000010
00000000
00000000
00000000
00000100
00000001
00000020
00000000
00000000
00000000
00000000
00000000
00000130
00000000
00000000
00000000
,
00001000
00000000
00000100
00000000
00010000
00000000
00001000
01000000
,
00000000
01000000
00100000
10000000
00010000
00000000
00100000
00000000
,
00001000
00000000
00010000
00000000
00000100
00000000
00001000
00000100
,
00000000
00001000
00000100
00000010
00000001
00000000
00000011
00000000
,
00000011
00000000
00000011
00000000
00000000
00001100
00000000
00001100
,
00000000
00001000
00001000
00000000
00001100
00000000
00010100
00000000
,
00010100
00000000
00010100
00000000
00000000
00010000
00000000
00010000
,
00000000
00010000
00001000
00001000
01000000
00000000
00100000
00000000
,
10000000
00000000
00010000
00000000
00100000
00001000
00000000
00010000
,
00000000
00000100
00001000
00000010
00000100
00000000
00000010
00000000
,
00000100
00000000
00000001
00000000
00001000
00000100
00000000
00010000
,
00000000
00001000
00010000
00000100
00010000
00000000
00011000
00000000
,
00011000
00000000
00011000
00000000
00000000
01001000
00000000
01001000
,
00000000
01000000
00001000
00000000
01001000
00000000
01100000
00000000
,
01100000
00000000
01100000
00000000
00000000
01100000
00000000
01100000
,
00000000
01000000
00020000
00000000
00000000
00000000
00000000
00000000
,
00000000
00130000
01000000
10000000
,
00010000
00000000
00100000
00001000
00010000
00000200
00000000
00001000
,
00001300
00000100
00001000
00000010
,
00000100
00000000
00000101
00000000
00000101
00000000
00000001
00000100
,
00001000
00000100
00000001
00000000
00001000
00000000
00000010
00000000
,
00010000
00000000
00001000
00001000
00010000
00000200
00000000
00001000
,
00001300
00000000
00000100
00000000
00010000
00001000
01000000
00100000
,
10000000
01000000
00200000
00000000
00000000
00000000
01300000
00000000
,
00100000
00001000
00010000
00000100
,
00001000
00000100
00000000
00000100
00001000
00000000
00000010
00000000
,
00000100
00000000
00000001
00000000
00001000
00000000
00000001
00000011
,
00000110
00001100
00010100
00000000
00010100
00000000
00011000
00000000
,
00011000
01001000
01001000
01100000
,
01100000
10010000
10100000
10010000
,
00110000
00202000
00000000
00000000
,
00303000
00000000
00100000
00001000
00010000
00000100
00000000
00001000
,
00000010
00000000
00000100
00000001
00000000
00000010
00000100
00000000
,
00000010
00000000
00000001
00000010
00000100
00001000
00000000
00000100
,
00010000
00000000
00001000
01000000
00000000
01000000
00100000
20000000
,
30020000
00030000
00100000
00010000
00100000
00010000
00000000
01000000
,
00001000
00000000
00010000
00000100
00000000
00001000
00000010
00000000
,
00000100
00000001
00000010
00000100
00001000
00000100
00000000
00010000
,
00000100
00000000
00010000
00001000
00000000
01000000
00200000
00000000
,
00300000
10000000
01000000
00100000
00010000
00001000
00000100
00000010
,
00000001
00000000
00000000
00000000
;

//--------------- dance-double - ----------------
#NOTES:
     dance-double:
     :
     Hard:
     13:
     0.617568,0.711643,0.549531,0.293083,0.07785,472,412,60,32,0,0,0,0,0,0.617568,0.711643,0.549531,0.293083,0.07785,472,412,60,32,0,0,0,0,0:
00000000
00000000
00000000
00000000
,
00000000
00000000
00000000
00000000
,
00000000
00000000
00000000
00000000
,
00000000
00000000
00000000
00000000
,
00000000
00000000
00000000
00000000
10000000
01000000
10000000
00100000
,
01000000
00010000
00100000
00101000
00010000
00010000
00021000
00000000
,
00030100
00001000
00000010
00001000
00000100
00001000
00000001
00000000
,
00001000
00000200
00000000
00010000
00010300
00000000
00011000
00000000
,
00001000
01000000
00100000
10000000
00010000
00100000
01000000
01000000
,
10000000
10000000
00010000
00000000
00100000
00001000
00010000
00000100
,
00001000
00000010
00000100
00000000
00000001
00000020
00000000
00000100
,
00000130
00000000
00000011
00000000
00000001
00001000
00000100
00000100
,
00010000
00002000
02000000
00000000
00000000
00000000
00000000
00000000
,
03003000
00000000
01000000
00100000
10000000
00100000
01000000
00100000
,
10000000
00100000
01000000
00100000
10000000
00100000
01000000
00100000
,
10000000
00000000
00100000
00000000
01000000
00000000
00010000
00100000
00001000
00000000
00010000
00000000
00000200
00000000
00000000
00000000
,
00002300
00000000
00000000
00000000
00003010
00000000
00000000
00000010
00000000
00000000
00000010
00000000
00000110
00000000
00000000
00000000
,
00001001
00000000
00000001
00000100
00000010
00000100
00000001
00000010
,
00000001
00000100
00000010
00000100
00000001
00000010
00000001
00000100
,
00000010
00000100
00000101
00000000
00000202
00000000
00000303
00000000
,
00000001
00000000
00001000
00000000
00000100
00000000
00000000
00000100
00000000
00000000
00020000
00000000
00002000
00030000
00003000
00000000
,
00010000
00001000
01000000
00001000
00010000
00001000
01000000
00001000
,
00010000
00001000
01000000
00001000
00010000
00001000
01000000
00001000
,
00100000
00000000
01100000
00000000
10010000
00000000
00000000
00000000
10000000
00000000
00000000
10000000
00000000
00000000
10000000
00000000
,
10010000
00110000
00001000
00100000
00010000
00100000
00001000
00010000
,
00001000
00100000
00010000
00100000
00001000
00010000
00001000
00100000
,
00010000
00100000
00001000
00010000
00010000
00011000
00020200
00000000
,
00000000
00000000
00030300
00020000
,
00030010
00000000
00000100
00000000
00000001
00000000
00001000
00000000
00000100
00000000
00000010
00000000
00000001
00000010
00000100
00002000
,
00000000
00000001
00003002
00000000
00000103
00000000
00000000
00000000
00000010
00000000
00001000
00000000
00000100
00000000
00010000
00000000
,
00001000
00000000
01000000
00000000
00100000
00000000
00100000
00100000
01000000
00010000
10000000
01000000
00100000
00000000
00000000
00000000
,
00001000
00000000
00010000
00000000
00000100
00000000
00001000
00000000
00000010
00000000
00010000
00000000
00001000
00001000
00010000
00002000
,
00000000
01003000
02000000
00000000
03100000
00000000
00000000
00000000
01000000
00000000
00100000
00000000
10000000
00000000
00010000
00000000
,
00100000
00000000
00000000
00000000
00001000
00000000
00000000
00000000
00010000
00001000
00010000
00001000
00010000
00000000
00000000
00000000
00000000
00000000
00000000
00000000
00000000
00000000
00000000
00000000
00000100
00000000
00000000
00000000
00000100
00000000
00000000
00000000
,
00001000
00000010
00000100
00000100
00000001
00000010
00000100
00000100
,
00000000
00001000
00000100
00000010
00000001
00000000
00000010
00000010
,
00000100
00001000
00000100
00000100
00010000
00001000
01000000
01000000
,
00000000
00100000
01000000
00010000
10000000
00000000
10010000
00000000
,
10010000
00000000
10010000
00000000
00000000
10010000
00000000
10010000
,
00000000
10010000
10010000
00000000
10010000
00000000
00110000
00000000
,
00110000
00000000
00110000
00000000
00000000
00110000
00000000
00110000
,
00000000
00110000
00100000
00001000
00010000
00000100
00001000
00000000
,
00000010
00000000
00000100
00000000
00000001
00000010
00000000
00000100
,
00000000
00000010
00000001
00000100
00001000
00000000
00000100
00000000
,
00000001
00000000
00001000
00000000
00000100
00010000
00000000
00011000
,
00000000
00010000
00000100
00001000
00000010
00000000
00001001
00000000
,
00001001
00000000
00001001
00000000
00000000
00001001
00000000
00001001
,
00000000
00001001
00001001
00000000
00001001
00000000
00000110
00000000
,
00000110
00000000
00000110
00000000
00000000
00000110
00000000
00000110
,
00000000
00000110
00002000
00000000
00000000
00000000
00000000
00000000
,
00000000
00003001
00001000
00000010
,
00010000
00000000
00001000
01000000
00100000
20000000
00000000
01000000
,
32000000
03100000
00001000
00010000
,
00000010
00000000
00000110
00000000
00000110
00000000
00001000
00000010
,
00000001
00000010
00001000
00000100
00010000
00001000
00010000
00000100
,
00010000
00001000
01000000
01000000
00100000
20000000
00000000
00010000
,
30020000
00000000
00130000
00000000
01000000
00100000
00010000
00000000
,
00011000
00000000
00020200
00000000
00000000
00030300
00001100
00000000
,
00001000
00001000
00000100
00000010
00000100
00001000
00000200
00000000
,
00010000
00020300
00000000
00001000
00032000
00000000
01003000
00000000
,
01000000
00100000
10000000
00010000
00100000
01000000
10000000
10000000
,
00010000
00010000
00110000
00000000
00101000
00000000
00011000
00000000
,
00010100
00001100
00000110
00000011
,
00000101
00001010
00001100
00011000
,
00001000
01000000
00200000
00000000
00000000
00000000
00000000
00000000
,
00300000
00000000
01000000
00010000
01000000
00010000
00000000
00100000
,
00001000
00000000
00010000
00000100
00000000
00001000
00000010
00000000
,
00000100
00000001
00000010
00000100
00000010
00000100
00000000
00000010
,
00000001
00000000
00001000
00000100
00000000
00020000
00002000
00030000
,
00003000
00000000
00010000
00000100
00010000
00000100
00000000
00010000
,
00001000
00000000
01000000
00100000
00000000
10000000
01000000
00000000
,
10000000
00010000
00100000
01000000
00100000
01000000
00000000
00100000
,
00010000
00000000
00100000
00001000
00000000
00010000
00000200
00000000
,
00000300
00001000
00000010
00000001
00000010
00001000
00000100
00010000
,
00011000
00000000
00000000
00000000
;

//--------------- dance-double - ----------------
#NOTES:
     dance-double:
     :
     Challenge:
     15:
     0.684297,0.858642,0.631961,0.366354,0.109906,523,454,69,40,0,0,0,0,0,0.684297,0.858642,0.631961,0.366354,0.109906,523,454,69,40,0,0,0,0,0:
00000000
00000000
00000000
00000000
,
00000000
00000000
00000000
00000000
,
00000000
00000000
00000000
00000000
,
00000000
00000000
00000000
00000000
,
00000000
00000000
00000000
00011000
10000000
01000000
00100000
00010000
,
10000000
00010000
00110000
00101000
00011000
00010100
00002100
00000000
,
00003001
00000001
00000100
00000001
00001000
00000100
00020000
00000000
,
00031000
00200000
00000000
01000000
01300000
00000000
11000000
00000000
,
01000000
01000000
10000000
00010000
01000000
00100000
01100000
01010000
,
00101000
00011000
00010100
00000000
00000100
00000100
00001000
00000010
,
00000100
00000010
00001000
00000000
00000001
00000020
00000000
00000100
,
00000230
00000000
00000310
00000000
00000001
00000010
00001000
00000010
,
00000001
00001000
00002020
00000000
00000000
00000000
00000000
00000000
,
00003030
00000000
00001000
00001000
00000100
00010000
00001000
00001000
,
00100000
01000000
10000000
10000000
01000000
10000000
00010000
00010000
,
00100000
00000000
00001000
00000000
00010000
00000100
00010000
00000100
00010000
00000000
00000100
00000000
00001000
00000000
00000000
00000000
,
00000010
00000000
00000100
00000000
00000001
00000000
00000000
00000001
00000000
00000000
00000001
00000000
00002002
00003003
00000000
00000000
,
00002020
00003030
00000000
00000000
00000010
00000000
00000010
00000000
00001000
00000000
00000100
00000000
00000100
00000000
00010000
00000000
,
00001000
00001000
00100000
01000000
01000000
10000000
00010000
01000000
,
00100000
10000000
10010000
00000000
00210000
00000000
00000000
00000000
,
00301000
00000000
00010000
00000000
00000010
00000000
00000000
00000010
00000000
00000000
00000010
00000000
00000100
00000010
00001001
00000000
,
00000001
00000001
00001000
00000100
00010000
00010000
00001000
00100000
,
01000000
01000000
10000000
00010000
01000000
01000000
00010000
00100000
,
00101000
00000000
00001100
00000000
00011000
00000000
00000000
00000000
00001000
00000000
00000000
00001000
00000000
00000000
00001000
00000000
,
00020000
00030000
10200000
00000000
10300000
00000000
10000000
00000000
00100000
00000000
01000000
00000000
00010000
00000000
00010000
00000000
,
00100000
00000000
00001000
00000000
00010000
00000000
00000100
00001000
00000100
00001000
00000100
00001000
00000100
00000000
00000010
00000000
,
00000001
00001000
00000001
00001000
00000001
00000000
00000100
00000000
00000010
00000000
00001000
00000000
00000200
00000000
00000000
00000000
,
00010000
00000000
00001000
00000000
00010300
00000000
00001000
00001000
,
00100000
00000000
00010000
00000000
01000000
00000000
01000000
00000000
00001000
00000000
00010000
00000000
00000100
00001000
00000010
00000200
,
00000000
00000001
00000302
00000000
00000013
00000000
00000000
00000000
00000100
00000000
00000010
00000000
00000001
00000000
00001000
00000000
,
00000100
00000000
00010000
00000000
00001000
00000000
00001000
00001000
00010000
00100000
10000000
00100000
00010000
00000000
00000000
00000000
,
01000000
00000000
01000000
00000000
00010000
00000000
10000000
00000000
01000000
00000000
00100000
00000000
00010000
00100000
00001000
00020000
,
00000000
00000100
00030200
00000000
00001300
00000000
00000000
00000000
00000100
00000000
00001000
00000000
00000010
00000000
00000100
00000000
,
00000001
00000000
00000010
00000000
00000100
00010000
00002000
00000000
00000000
00000000
00000000
00000000
01003000
00000000
01000000
00000000
,
00100000
10000000
00010000
00010000
00100000
00001000
00010000
00010000
,
00000000
00001000
01000000
00100000
10000000
00000000
00100000
00100000
,
01000000
00001000
00010000
00010000
00000100
00001000
00000010
00000010
,
00000000
00001000
00000100
00000001
00001000
00000000
00001100
00000000
,
00001100
00000000
00001100
00000000
00000000
00010100
00000000
00010100
,
00000000
00011000
00101000
00000000
00101000
00000000
00110000
00000000
,
00110000
00000000
00110000
00000000
00000000
11000000
00000000
11000000
,
00000000
10000000
01000000
00010000
01000000
10000000
00100000
00000000
,
01000000
00000000
00010000
00000000
00100000
00001000
00000000
00011000
,
00000000
00010000
00001000
00010000
00000100
00000000
00002000
00000000
,
00000100
00000000
00000010
00000000
00000001
00000001
00000000
00000010
,
00000000
00003001
00001000
00000100
00000010
00000000
00001100
00000000
,
00001100
00000000
00001100
00000000
00000000
00000011
00000000
00000011
,
00000000
00000011
00000101
00000000
00000101
00000000
00000110
00000000
,
00000110
00000000
00000110
00000000
00000000
00001001
00000000
00001001
,
00000000
00000010
00020000
00000000
00000000
00000000
00000000
00000000
,
00000000
00000000
00031000
00000000
01000000
01000000
00100000
10000000
,
00010000
00100000
01000000
01000000
00001000
00020000
00000000
00000100
,
00030200
00000000
00001300
00000000
00000100
00001000
00000010
00000100
,
00000010
00001000
00000001
00000000
00000001
00000000
00000001
00000010
,
00001000
00000010
00000001
00000010
00000010
00000100
00001000
00001000
,
00000100
00010000
00001000
01000000
00100000
20000000
00000000
01000000
,
32000000
00000000
03100000
00000000
01000000
10000000
00010000
00100000
,
00001000
00010000
00020200
00000000
00000000
00030300
00001100
00000000
,
00001000
00001000
00000010
00000100
00000001
00001000
00000200
00000000
,
00010300
00002000
00000000
01000000
02003000
00000000
03100000
00000000
,
01000000
10000000
01000000
00010000
00100000
00001000
00011000
00001100
,
00000110
00000011
00001001
00000000
00000101
00000100
00000110
00000010
,
00001010
00001000
00001200
00000000
00010300
00012000
00000000
01003000
,
01200000
00000000
10300000
00000000
11000000
01000000
01100000
00100000
,
00110000
00100000
00202000
00000000
00000000
00000000
00000000
00000000
,
00303000
00000000
00100000
00001000
00010000
00000100
00001000
00000010
,
00000100
00000001
00000010
00000100
00000010
00000001
00001000
00000100
,
00010000
00001000
01000000
00100000
10000000
01000000
00100000
00010000
,
01000000
00100000
10000000
00010000
00100000
00002000
00020000
00003000
,
00030000
00000000
00001000
00100000
00010000
10000000
01000000
10000000
,
00010000
00100000
00001000
00010000
00000100
00001000
00000001
00000010
,
00000001
00000100
00000010
00010000
00001000
00100000
00001000
01000000
,
00100000
10000000
00010000
00100000
00001000
00010000
00000100
00001000
,
00000010
00000110
00000010
00010000
00011000
00001000
00100000
01000000
,
22000000
00000000
00000000
00000000
,
33000000
00000000
00000000
00000000
;
