#TITLE:Random Access Emotions;
#SUBTITLE:;
#ARTIST:aran;
#TITLETRANSLIT:;
#SUBTITLETRANSLIT:;
#ARTISTTRANSLIT:;
#GENRE:;
#CREDIT:;
#MUSIC:Random Access Emotions.ogg;
#BANNER:Random Access Emotions.png;
#BACKGROUND:Random Access Emotions-bg.png;
#CDTITLE:cdtitle.png;
#SAMPLESTART:22.746;
#SAMPLELENGTH:12.007;
#SELECTABLE:YES;
#OFFSET:-0.079;
#BPMS:0.000=180.000;
#STOPS:;
#ORIGIN:;
#TAGS:;
#PREVIEWVID:;
#JACKET:Random Access Emotions-jacket.png;
#CDIMAGE:;
#DISCIMAGE:;
#BGCHANGES:;
#FGCHANGES:;

//--------------- dance-single - Pandemonium X ----------------
#NOTES:
     dance-single:
     Pandemonium X:
     Beginner:
     4:
     0.158222,0.257051,0.033767,0.047274,0,164,159,5,7,0,0,0,0,0,0.158222,0.257051,0.033767,0.047274,0,164,159,5,7,0,0,0,0,0:
0000
0000
0000
0000
,
0000
0000
0000
0000
,
0000
0000
0000
0000
,
0000
0000
0000
0000
,
0000
0000
0000
0000
,
0010
0000
0000
0000
,
0000
0000
0000
0000
,
0000
0000
0000
0000
,
1000
0002
0000
0003
,
0100
0000
0000
0000
,
0100
0000
0000
0000
,
0100
0000
0000
0000
,
0100
0100
0000
0000
,
0010
0000
0000
0000
,
0010
0000
0000
0000
,
0010
0000
0000
0000
,
1000
0001
0100
0010
,
1001
0000
0000
0000
,
0001
0000
0000
0000
,
0001
0000
0000
0000
,
0001
0001
0000
0000
,
1000
0000
0000
0000
,
1000
0000
0000
0000
,
1000
0000
0000
0000
,
1000
1000
0000
0000
,
0110
0000
0000
2000
,
3001
0000
0000
0000
,
0010
0000
0000
0000
,
0100
0100
0000
0000
,
1000
0000
0000
0000
,
0010
0000
0000
0000
,
0100
0000
0000
0000
,
0001
0001
1000
1000
,
0010
0000
0100
0000
,
0001
0000
1000
0000
,
0100
0000
0010
0000
,
0001
0001
0001
0001
,
1000
0000
0000
0000
,
0001
0000
0100
0000
,
0010
0000
1000
0000
,
0100
0200
0000
0300
,
0010
0000
0000
0000
,
0001
0000
0000
0000
,
1000
0000
0000
0000
,
0020
0000
0000
0000
,
0130
0000
0000
0000
,
0010
0000
0000
0000
,
1000
0000
0000
0000
,
0001
0000
0110
0000
,
1000
0000
0000
0000
0000
1000
0000
0000
,
0000
0000
0000
0000
0001
0000
0000
0001
,
0000
0000
0000
0000
0000
1000
0000
1000
,
0000
0000
0000
0001
0000
0000
0000
0000
,
1000
0000
0000
0000
0000
0001
0000
0001
,
0000
0000
0000
0000
1000
0000
0000
0001
,
0000
0000
0000
0000
0000
1000
0000
1000
,
0000
0000
0000
0001
0000
0000
0000
0000
,
0100
0000
0000
0000
,
0010
0000
0000
0000
,
1000
0000
0001
0000
,
0010
0000
0100
0000
,
1000
0000
0000
0000
,
0001
0000
0000
0000
,
0010
0000
0000
0000
,
0100
0000
0010
0000
,
1001
0000
0000
0000
,
0000
0000
0000
0000
,
0010
0000
0000
0000
,
0000
0000
0000
0000
,
0100
0000
0000
0000
,
0010
0000
0000
0000
,
1000
0000
0001
0000
,
1000
0200
0000
0300
,
0010
0000
0000
0001
,
1000
0000
0001
0000
,
1000
0000
0010
0000
,
1000
0000
0100
1000
,
0100
0000
1000
0000
,
0010
0000
0100
0000
,
0001
0000
1000
0000
,
0001
0000
1000
0001
,
0100
0000
0010
0000
,
0100
0000
0001
0000
,
1000
0000
0100
0000
,
0010
0000
0100
1000
,
0010
0000
0100
0000
,
0001
0000
1000
0000
,
0010
0000
1000
0000
,
0001
0000
0010
0000
,
1001
0000
0000
0000
,
0000
0000
0000
0000
,
0000
0000
0000
0000
,
0000
0000
0000
0000
,
1000
0000
0000
0000
,
0001
0000
0000
0000
,
0010
0000
0000
0000
0100
0000
0000
1000
,
0000
1000
0000
1000
0000
0000
0000
0000
,
0001
0000
0000
0000
1000
0000
0000
0100
,
0000
0000
0000
0000
0100
0000
0000
0010
,
0000
0000
0000
0001
0000
0000
0000
1000
,
0000
0000
0000
0001
0000
0000
0000
0000
,
0200
0000
0000
0000
,
0000
0000
0000
0000
,
0000
0000
0000
0300
,
0010
0020
0000
0030
,
1000
0000
0000
0000
,
0001
0000
0000
0000
,
1000
0000
0000
0000
,
0001
0100
0010
1000
;

//--------------- dance-single - Pandemonium X ----------------
#NOTES:
     dance-single:
     Pandemonium X:
     Easy:
     8:
     0.328021,0.515283,0.189095,0.324162,0,340,312,28,48,0,0,0,0,0,0.328021,0.515283,0.189095,0.324162,0,340,312,28,48,0,0,0,0,0:
0000
0000
0000
0000
,
0000
0000
0000
0000
,
0000
0000
0000
0000
,
0000
0000
0000
0000
,
0000
0000
0000
0000
,
0002
0000
0000
0000
,
0000
0000
0000
0000
,
0000
0000
0000
0003
,
1000
0010
2000
0000
0000
0000
3000
0000
,
0001
1000
1000
1000
,
0001
1000
1000
1000
,
0001
1000
1000
1000
,
1001
0110
1001
0110
,
1001
0001
0001
0001
,
1000
0001
0001
0001
,
1000
0001
0001
0001
,
1001
0110
1001
0110
,
2001
3001
0100
0010
,
2000
3010
0100
0001
,
0020
0130
0010
0001
,
2000
3000
2000
0000
3001
0000
0001
0000
,
2000
3001
0010
0001
,
0200
0310
1000
0100
,
0020
0130
1000
0001
,
2000
0000
3002
0000
0103
0010
0100
0000
,
0002
0000
0003
0000
0000
0000
1000
1000
,
0200
1300
0010
0100
,
0002
0013
0100
0010
,
0002
0003
0002
0000
1003
0000
1000
0000
,
2001
0000
3000
0001
0000
0000
0100
0000
,
0000
0010
0010
0000
0100
0000
0010
0000
,
2000
3001
1000
0100
,
0020
0032
0013
1001
,
2000
0000
3200
0000
,
0320
0000
0032
0000
,
0203
0000
0320
0000
,
2030
3002
0203
0320
,
2030
0000
3020
0000
,
0230
0000
0302
0000
,
0023
0000
0230
0000
,
2300
3200
0000
0310
,
1001
0000
0001
0000
,
1000
0000
0010
0000
,
1000
0000
0001
0000
,
1000
0000
0100
0000
,
0010
0000
0001
0000
,
0100
0000
0010
0000
,
1000
0000
0001
0000
,
1000
0000
0110
0000
,
0001
0000
0000
0000
0000
1000
0000
1000
,
0000
0000
0000
0000
0001
0000
0000
1000
,
0000
0000
0000
0000
0000
0100
0000
0100
,
0000
0000
0000
0010
0000
0000
0000
0000
,
0001
0000
0000
0000
0000
0100
0000
0100
,
0000
0000
0000
0000
0010
0000
0000
0100
,
0000
0000
0000
0000
0000
0001
0000
0001
,
0000
0000
0000
1000
0000
0000
0001
0000
,
1000
0000
0000
0000
0100
0000
0000
1000
,
0000
1000
0000
0000
0010
0000
0000
0100
,
0000
0010
0000
1000
0000
0001
0000
0010
,
0000
0100
0000
0010
0000
0000
0001
0000
,
1000
0001
0100
0001
,
1000
0010
1000
0001
,
0010
0100
0010
0001
,
0100
0010
1000
0001
,
1001
0000
0001
0000
,
1000
0000
0001
0000
,
0110
0000
0100
0000
,
0010
0000
0100
0000
,
1001
0000
0000
0000
,
0110
0000
0000
0000
,
1001
0000
0110
0000
,
0100
2002
0000
3003
,
0110
0000
0000
0001
,
1000
0100
1000
0010
,
0100
0001
0010
0100
,
0010
0001
1000
0100
,
1000
0010
0100
0001
,
0010
0100
1000
0100
,
1000
0010
0100
0001
,
0010
0100
1000
0100
,
0010
0100
0010
0001
,
0100
0010
0100
0010
,
1000
0001
0010
0001
,
1000
0100
1000
0001
,
0100
0001
0010
0001
,
1000
0010
0100
0010
,
1000
0001
0010
0100
,
1000
0001
1000
0010
,
0100
0000
0010
0000
,
1000
0000
0001
0000
,
0010
0000
0100
0000
,
1000
0000
0001
0000
,
1001
0000
0100
0000
,
0010
0000
1000
0000
,
0001
0000
0000
0000
1000
0000
0000
0010
,
0000
0100
0000
0001
0000
1000
0100
0000
,
0010
0000
0000
0000
0100
0000
0000
1000
,
0000
1000
0000
0000
0100
0000
0000
0010
,
0000
0001
0100
0010
0000
0100
0000
0001
,
0000
1000
0000
0100
0000
1000
0010
0000
,
0200
0000
0000
0000
,
0010
0000
0000
0000
,
0001
0000
0000
0000
,
0310
1000
0002
0000
0000
0000
0003
0000
,
1002
1003
0010
0100
,
0002
0013
0100
1000
,
0002
1003
0001
0100
,
1001
0110
1001
0220
,
0330
0000
0000
0000
;

//--------------- dance-single - Pandemonium X ----------------
#NOTES:
     dance-single:
     Pandemonium X:
     Medium:
     12:
     0.492032,0.625701,0.256628,0.864433,0.064157,510,472,38,128,0,0,0,0,0,0.492032,0.625701,0.256628,0.864433,0.064157,510,472,38,128,0,0,0,0,0:
0000
0000
0000
0000
,
0000
0000
0000
0000
,
0000
0000
0000
0000
,
0000
0000
0000
0000
,
0000
0000
0000
0000
,
0001
0000
0000
1000
0000
0000
0000
0000
,
0000
0010
0100
0000
0000
0001
0000
1000
,
0100
0000
0000
0010
0000
0000
0100
0000
,
1000
0001
0200
0000
0000
0000
0300
0000
,
1020
0030
0100
0000
0001
0000
1000
0000
,
2100
3000
0001
0000
1000
0000
0001
0000
,
0201
0300
0010
0000
0100
0000
0001
0000
,
2001
3000
0210
0300
1001
0000
1001
0000
,
0021
0030
0100
0000
0010
0000
0001
0000
,
2001
3000
0100
0000
1000
0000
0010
0000
,
0210
0300
0001
0000
0100
0000
0010
0000
,
2020
3030
0202
0303
0022
0033
2200
3300
,
1002
0000
1003
0000
0001
0000
0010
0100
,
2000
0000
3100
0000
1000
0000
0010
0100
,
0002
0000
0013
0000
0100
0000
1000
0100
,
0002
0203
1300
0010
,
0200
0000
0310
0000
1000
0000
0001
1000
,
0200
0000
0310
0000
0100
0000
1000
0001
,
0200
0000
0301
0000
0100
0000
0010
1000
,
0200
0000
0302
0000
0103
0010
1001
0000
,
0102
0000
0000
0000
0000
0000
0010
0013
,
0200
0000
0310
0000
0001
0000
1000
0001
,
2000
0000
3100
0000
0010
0000
0100
1000
,
0020
0032
0013
1000
,
2001
0000
0000
0100
0000
0000
3001
0000
,
0200
0010
0310
0000
0000
1000
0000
1000
,
2001
0000
0000
0010
0000
0000
3001
0000
,
0200
0000
0302
0000
1003
0100
0110
0000
,
2001
3100
2000
3010
,
0200
0000
0301
0000
0020
0000
0130
0010
,
0020
0031
0002
0103
,
0001
0100
1000
0100
0001
0010
1000
0010
,
0002
0013
0200
1300
,
0200
1300
0020
0130
,
0002
1003
0200
0310
,
0011
2100
0010
3001
,
2000
0000
3002
0000
,
0203
0000
0320
0000
,
2030
0000
3020
0000
,
0130
0001
0100
0001
1000
0010
1000
0010
,
0200
0000
0302
0000
,
0023
0000
0230
0000
,
0320
0000
0032
0000
,
2003
0000
3001
0000
,
0110
0000
0000
1000
0100
0100
1000
0010
,
0000
0100
0000
0001
0010
0010
0001
1000
,
0000
0001
0100
0001
0000
0100
0000
0010
,
0000
1000
0000
0001
0000
0010
0100
1000
,
0002
0000
0003
1000
0100
0100
1000
0010
,
0000
0100
0000
0010
0100
0100
0001
1000
,
0000
0001
0000
0010
0000
0001
0000
1000
,
0000
0100
0000
0010
0000
0100
1000
0010
,
1010
0000
0000
1000
0001
0001
1000
0002
,
0000
2003
0000
3010
0100
0100
0001
2000
,
0000
3100
0010
0002
0000
2003
0000
3002
,
0000
0203
0000
0320
0000
2030
3001
0000
,
0010
0000
0001
0100
0010
0000
0100
0010
,
1000
0000
0100
0010
0001
0000
0010
0100
,
1000
0000
0010
0100
0001
0000
1000
0100
,
0010
0000
0100
1000
0001
0000
1000
0000
,
0102
1003
0100
0010
,
0100
1000
0001
0100
,
1020
0130
0010
0100
,
0001
1000
0100
0020
,
0032
0103
0001
0100
,
1020
0130
0010
1000
,
2001
3010
1002
0103
,
0001
1000
0020
0000
0000
0000
0030
0000
,
0110
0000
0000
0000
0000
0000
0000
0000
0000
0000
0000
0000
1000
0000
0000
0002
,
0000
0000
0003
0000
0010
0000
0000
0200
0000
0000
0300
0000
0010
0000
0000
0002
,
0000
0000
0003
0000
1000
0000
0000
0002
0000
0000
0003
0000
0010
0000
0000
0200
,
0000
0000
0300
0010
0000
0000
0001
0000
0000
0000
0010
0000
0100
1000
0000
0000
,
0001
0000
0000
0000
1000
0000
0000
0020
0000
0000
0030
0000
0100
0000
0000
0002
,
0000
0000
0003
0000
0010
0000
0000
0200
0000
0000
0300
0000
0010
0000
0000
0002
,
0000
0000
0003
0000
1000
0000
0000
0020
0000
0000
0000
0030
1000
0000
0000
0002
,
0000
0000
0003
0000
1000
0000
0000
0100
0000
0000
0010
0000
0100
1000
0000
0000
,
0001
0000
1000
0001
0200
0000
0310
1000
,
0200
0000
0310
0100
2000
0000
3100
0010
,
0002
0000
0013
0100
0020
0000
0130
0010
,
0002
0000
0000
0000
0013
0000
0001
0000
0000
0001
0000
0000
1000
0002
0000
0000
,
0103
0000
0010
1000
0200
0000
1300
0001
,
0200
0000
0310
1000
0002
0000
0013
0100
,
2000
0000
3100
1000
0020
0000
0130
0001
,
2000
0000
0000
0000
3001
0000
1000
0000
0000
0100
0000
0000
0020
0000
0000
0000
,
0130
0000
0000
0010
0001
0001
1000
0010
,
0000
1000
0000
1000
0010
0010
1000
0001
,
0000
1000
0001
1000
0000
0001
0000
0100
,
0000
0001
0000
1000
0000
0100
1000
0010
,
0110
0000
0000
0100
0010
1000
0001
0010
,
0000
0001
0000
0100
0010
1000
0001
2000
,
0000
3002
0000
0023
0000
0230
0000
1300
,
0000
0011
0000
1100
0000
0001
0100
0010
,
1020
1000
1030
0001
0001
0010
0001
0200
,
0000
0302
0000
0013
0100
0100
0010
0002
,
0000
0013
0100
2000
0000
3020
0000
0230
,
0000
0320
0000
2030
0000
3001
1000
0200
,
0010
0010
0010
0010
,
1000
1000
1000
1300
,
0001
0100
0010
1000
,
0001
0010
0200
0000
0000
0000
0300
0000
,
2100
3010
0100
0001
,
0021
0130
0010
0001
,
1002
0103
0001
1000
,
0002
0203
0320
0200
,
0330
0000
0000
0000
;

//--------------- dance-single - Pandemonium X ----------------
#NOTES:
     dance-single:
     Pandemonium X:
     Hard:
     16:
     0.658937,0.883342,0.357929,0.844172,0.368059,683,630,53,125,0,0,6,0,0,0.658937,0.883342,0.357929,0.844172,0.368059,683,630,53,125,0,0,6,0,0:
0000
0000
0000
0000
,
0000
0000
0000
0000
,
0000
0000
0000
0000
,
0000
0000
0000
0000
,
0000
0000
0000
0000
,
0000
0000
0000
0000
,
0000
0000
0000
0000
,
0000
0000
0000
0000
,
1000
0001
0400
0000
0000
0000
0300
0000
,
2010
3001
0010
0100
,
0012
0103
0010
1000
,
0201
0310
1000
0001
,
0201
2300
3100
0001
,
1002
0013
0100
1000
,
2001
3100
0001
0100
,
1200
0310
0001
1000
,
0002
0203
2300
3020
,
0032
0000
0103
0010
1000
0001
0010
0100
,
0020
0000
0130
1000
0010
0100
0001
0010
,
0200
0000
0310
0001
0100
0001
1000
0100
,
0020
0031
0200
0301
0011
0000
1100
0000
,
2000
0000
3100
1000
0001
0010
0001
1000
,
0020
0000
1030
0001
0100
0001
1000
0010
,
0200
0000
0310
1000
0001
0010
0001
1000
,
0002
0000
0203
0000
0300
0010
1001
0000
,
0220
0000
0330
4000
,
3200
0000
0310
0100
1000
0010
0100
0001
,
0020
0000
0130
1000
0001
0100
0001
1000
,
0002
0003
2000
3000
0101
0000
1100
0000
,
1002
0000
0013
1000
0010
0001
0100
0010
,
0200
0001
0301
1000
0010
1000
0001
0010
,
0200
0000
1300
0100
0001
0100
0010
0001
,
2001
3020
0032
0203
,
1300
0000
0100
1000
0001
0000
0100
0010
,
1000
0000
0001
0010
0100
0000
0010
0001
,
1000
0000
0010
0100
1000
0100
0001
1000
,
0002
0013
2000
3010
0002
0103
0020
1030
,
0001
1000
0100
0000
1000
0001
0100
0000
,
0010
1000
0001
0000
0010
0001
0100
0000
,
1000
0100
0001
0100
0010
1000
0001
0010
,
0100
1000
0004
1000
0003
0000
1100
0000
,
1002
0000
2003
0000
,
3020
0000
0230
0000
,
0302
0000
0023
0000
,
0130
0010
0100
0010
0001
0010
0001
0010
0100
1000
0100
1000
0010
1000
0010
0100
,
0002
0000
0203
0000
,
2300
0000
3200
0000
,
0320
0000
2030
0000
,
0002
0000
0000
3003
0110
0000
0000
0000
,
1001
0000
0000
1000
0100
0110
0010
0021
,
0000
0230
0000
1300
1100
1000
0001
0201
,
0000
0301
0010
0001
0000
1100
0000
1010
,
0000
0010
0000
0201
0000
0301
1000
0100
,
0110
0000
0000
0001
1000
0110
0010
2010
,
0000
3001
0000
1000
1001
0010
0100
1200
,
0000
0320
0000
0031
0000
0101
0000
1010
,
0000
0100
0000
0120
0000
1030
1001
0001
,
0102
0000
0003
0010
1000
0010
0001
2000
,
0000
3020
0000
0130
1000
0100
0001
2000
,
0000
3001
0010
2000
0000
3010
0000
0002
,
0000
0000
1003
0000
0001
0000
1000
0001
0100
0001
1000
0000
0100
0010
0000
0000
,
0100
0000
1000
0001
0200
0000
1300
0100
,
0002
0000
1003
0001
0020
0000
1030
0010
,
0002
0000
1003
0100
0020
0000
0130
1000
,
0002
0000
0000
0000
1003
0001
0100
0002
0000
0000
0023
0000
0230
0000
0000
0000
,
1300
0000
0000
1000
0001
0000
0000
0001
1000
0000
0000
1000
0010
0000
0000
0000
,
1001
0000
0000
0001
1000
0000
0000
1000
0001
0000
0000
0001
0100
0000
0000
0000
,
1001
0000
0000
0001
0010
0000
0000
0010
0100
0000
0000
0100
1000
0000
0000
0000
,
1001
0000
0000
0001
1000
0000
0000
1000
0100
0000
0000
0100
0010
0000
0000
0010
,
0001
0000
0000
0010
0001
0100
0010
0000
0000
1000
0001
0010
,
0100
0000
0000
0010
0001
1000
0100
0000
0000
0010
0100
1000
,
0001
0100
1000
0100
0001
0100
1000
0100
0001
0100
1000
0100
,
0010
2000
0004
0000
0000
0000
3003
0000
,
0110
0000
0000
0000
0000
0000
0000
0000
0000
0000
0000
0000
1000
0100
1000
0002
,
0000
0000
0003
0000
0010
0001
0010
0200
0000
0000
0300
0000
0010
0001
1000
0002
,
0000
0000
0003
0000
1000
0010
1000
0002
0000
0000
0003
0000
0010
0100
1000
0200
,
0000
0000
0300
0000
0010
0100
1000
0002
0000
0000
0013
0000
0010
0200
0000
0000
,
1300
0000
0000
0000
0100
1000
0100
0020
0000
0000
0030
0000
0100
0010
0001
0200
,
0000
0000
0300
0000
0010
1000
0010
0200
0000
0000
0300
0000
0001
0010
0001
2000
,
0000
0000
3000
0000
0001
1000
0100
0020
0000
0000
0030
0000
0100
1000
0001
0200
,
0000
0000
0300
0000
0010
0100
0001
0020
0000
0000
0130
0000
0100
2000
0000
0000
,
3020
0000
0000
0000
0130
0001
1000
0200
0010
0000
0300
0000
1000
0010
0100
0020
,
1000
0000
0030
0000
0100
0010
1000
0100
0010
0100
1000
0001
1000
0001
0010
0200
,
1000
0000
0300
0000
0010
0001
0100
0020
0100
0000
0030
0000
1000
0001
0010
0002
,
0100
0000
0003
0000
0010
0100
0010
0001
0000
0011
0000
1000
0020
0000
0000
0000
,
0130
0000
0000
0000
0001
0100
0010
2000
0000
0000
3000
0000
0100
0010
0100
2000
,
0000
0000
3000
0000
0001
1000
0010
0200
0000
0000
0300
0000
0001
0010
0100
2000
,
0000
0000
3000
0000
0001
0010
0100
0020
0000
0000
0030
0000
0100
0010
0001
2000
,
0000
0000
3001
0100
0010
0100
0002
0000
0000
0000
1003
0000
1000
0100
0010
0001
,
1000
0000
0000
0001
1000
1000
0001
0010
,
0000
0100
0000
0010
0001
0001
0010
0100
,
0000
0010
0001
0100
0000
1000
0000
0100
,
0000
0001
0000
0100
0000
0010
1000
0001
,
1001
0000
0000
1000
0100
0100
0010
0001
,
0000
1000
0000
0100
0010
0010
0100
1000
,
0000
1000
0000
0001
0000
0100
0000
1001
,
0000
0101
0000
1010
0000
1000
0100
0010
,
0210
0010
0310
0100
1000
0001
0100
2000
,
0000
3200
0000
0310
1000
0010
0001
0020
,
0000
0130
0001
0020
0000
0230
0000
2300
,
0000
3200
0000
0302
0000
0103
1000
0010
,
0100
0001
0100
0001
1000
0010
1000
0010
,
1000
0001
1000
0001
0010
0001
0010
0001
,
1000
0100
1000
0000
0001
0100
0001
0000
1000
0010
1000
0000
0001
0010
0001
0000
,
1000
0000
0001
0000
0100
0040
4000
0000
0000
0000
0000
0000
0000
0000
3030
0000
,
0201
0300
0001
1000
0001
0010
0100
1000
,
1002
0003
0100
0010
1000
0001
0010
0001
,
0021
0030
0100
0010
0001
0010
0100
1000
,
2002
3003
0220
0330
2002
3003
0220
0000
,
0330
0000
0000
0000
;

//--------------- dance-double - Pandemonium X ----------------
#NOTES:
     dance-double:
     Pandemonium X:
     Easy:
     8:
     0.362753,0.515283,0.41871,0.121561,0,376,314,62,18,0,0,0,0,0,0.362753,0.515283,0.41871,0.121561,0,376,314,62,18,0,0,0,0,0:
00000000
00000000
00000000
00000000
,
00000000
00000000
00000000
00000000
,
00000000
00000000
00000000
00000000
,
00000000
00000000
00000000
00000000
,
00000000
00000000
00000000
00000000
,
10000000
00000000
00000000
00010000
00000000
00000000
00000000
00000000
,
00000000
00100000
00100000
00000000
00000000
00001000
00000000
00001000
,
00010000
00000000
00000000
00000100
00000000
00000000
00000000
00000000
,
00001000
00000010
00002000
00000000
00000000
00000000
00003000
00000000
,
00001001
00001000
00001000
00001000
,
00001100
00010000
00010000
00010000
,
00011000
01000000
01000000
01000000
,
01100000
01100000
00010000
10000000
,
11000000
01000000
01000000
01000000
,
01010000
00010000
00010000
00010000
,
00110000
00001000
00001000
00001000
,
00001000
00020000
00030200
00001300
,
00000110
00000100
00001000
00000100
,
00000101
00000001
00000010
00001000
,
00001010
00000010
00000001
00001000
,
00001100
00001100
00000100
00010000
,
00011000
00001000
01000000
00100000
,
01100000
00100000
10000000
01000000
,
01100000
00100000
00010000
00001000
,
00011000
00000000
00011000
00000000
00000000
00010000
00000100
00000000
,
00001100
00000000
00000000
00000000
00000000
00000000
00000100
00010000
,
00001000
00010000
00000100
00010000
,
01001000
01000000
00100000
10000000
,
10010000
10010000
10000000
00010000
,
00110000
00100000
00001000
00010000
,
00010100
00001000
00000010
00000100
,
00000101
00000001
00000010
00000100
,
00001001
00000110
00001001
00000110
,
00000001
00000000
00000100
00000000
,
00000010
00000000
00010000
00000000
,
00001000
00000000
01000000
00000000
,
10010000
01100000
10010000
01100000
,
10010000
00000000
00010000
00000000
,
00100000
00000000
00001000
00000000
,
00010000
00000000
00000010
00000000
,
00000100
00000001
00000020
00000000
00000000
00000000
00000030
00000000
,
00000100
00000000
00010000
00000000
,
00001000
00000000
01000000
00000000
,
00100000
00000000
10000000
00000000
,
00020000
00000000
01000000
00000000
,
10030000
00000000
01000000
00000000
,
00100000
00000000
00010000
00000000
,
00001000
00000000
00000100
00000000
,
00000010
00000000
00000011
00000000
,
00000101
00000000
00000000
00000000
00000000
00000100
00000000
00000010
,
00000000
00000000
00000000
00000000
00001000
00000000
00000000
00000100
,
00000000
00000000
00000000
00000000
00000000
00010000
00000000
00001000
,
00000000
00000000
00000000
01000000
00000000
00000000
00100000
00000000
,
10000000
00000000
00000000
00000000
00000000
00010000
00000000
00100000
,
00000000
00000000
00000000
00000000
01000000
00000000
00000000
10000000
,
00000000
00000000
00000000
00000000
00000000
00010000
00000000
00100000
,
00000000
00000000
00000000
00001000
00000000
00000000
00010000
00000000
,
00000100
00000000
00000000
00000000
00001000
00000000
00000000
00000010
,
00000000
00000010
00000000
00000000
00000100
00000000
00000000
00000001
,
00000000
00001000
00000000
00000100
00000000
00001000
00000000
00000010
,
00000000
00000100
00000000
00000001
00000000
00000010
00000100
00000000
,
00001000
00000100
00010000
00001000
,
01000000
00001000
01000000
00100000
,
10000000
00010000
00100000
00001000
,
00010000
00000100
00001000
00000010
,
00000101
00000000
00001001
00000000
,
00001100
00000000
00010100
00000000
,
00011000
00000000
01001000
00000000
,
01100000
00000000
10100000
00000000
,
22000000
33000000
00000000
00000000
,
00220000
00330000
00000000
00000000
,
00022000
00033000
00002200
00003300
,
00000001
00000100
00000020
00000000
00000000
00000000
00000030
00000000
,
00001001
00000000
00000000
00000001
,
00000100
00000010
00001000
00000100
,
00010000
00001000
01000000
00100000
,
10000000
00010000
00100000
10000000
,
00100000
00010000
00100000
00001000
,
00010000
00000100
00001000
00000010
,
00000001
00000010
00001000
00000010
,
00000100
00001000
00000100
00010000
,
00001000
01000000
00100000
10000000
,
01000000
00010000
01000000
00100000
,
00001000
00010000
00000100
00001000
,
00000010
00000001
00000010
00001000
,
00000100
00010000
00001000
00100000
,
00001000
00010000
00000100
00001000
,
00000010
00001000
00000100
00010000
,
00001000
01000000
00100000
10000000
,
10010000
00000000
00000000
00000000
,
00000000
00000000
00000000
00000000
,
00000000
00000000
00000000
00000000
,
00000000
00000000
00000000
00000000
,
10010000
00000000
00010000
00000000
,
00100000
00000000
00001000
00000000
,
00010000
00000000
00000000
00000000
00000100
00000000
00000000
00001100
,
00000000
00001100
00000000
00001100
00000000
00001000
00000001
00000000
,
00000110
00000000
00000000
00000000
00000010
00000000
00000000
00001000
,
00000000
00000100
00000000
00000000
00010000
00000000
00000000
00001000
,
00000000
01000000
00000000
00100000
00000000
10000000
00000000
00010000
,
00000000
00100000
00000000
01000000
00000000
10000000
00100000
02000000
,
00000000
00000000
00000000
00000000
00000000
00000000
00000000
00100000
,
00000000
00000000
00000000
00000000
00000000
00000000
00000000
00100000
,
00000000
00000000
00000000
00000000
,
03100000
01000000
00020000
00000000
00000000
00000000
00030000
00000000
,
00110000
00100000
00001000
00010000
,
00010100
00000100
00001000
00000010
,
00000101
00000001
00000100
00000010
,
00001010
00000101
00000011
00002002
,
00003003
00000000
00000000
00000000
;

//--------------- dance-double - Pandemonium X ----------------
#NOTES:
     dance-double:
     Pandemonium X:
     Medium:
     11:
     0.451512,0.587544,0.580791,0.357929,0.07091,468,382,86,53,0,0,0,0,0,0.451512,0.587544,0.580791,0.357929,0.07091,468,382,86,53,0,0,0,0,0:
00000000
00000000
00000000
00000000
,
00000000
00000000
00000000
00000000
,
00000000
00000000
00000000
00000000
,
00000000
00000000
00000000
00000000
,
00000000
00000000
00000000
00000000
,
20000000
00000000
32000000
00000000
,
03020000
00000000
00032000
00000000
,
00003020
00000000
00000032
00000000
,
00001003
00000010
00000200
00000000
00000000
00000000
00000300
00000000
,
00001001
00000001
00001000
00000010
,
00001010
00000010
00001000
00000100
,
00001100
00000100
00001000
00000010
,
00001010
00010100
00100000
00010000
,
10010000
00010000
01000000
00100000
,
10100000
10000000
00010000
00100000
,
00110000
00100000
01000000
00100000
,
00110000
00101000
00011000
00001100
,
00011000
00010000
00000100
00001000
,
00000101
00000001
00000010
00000100
,
00000011
00000001
00000100
00000010
,
00001010
00000000
00010100
00000000
00010000
00001000
01000000
00000000
,
01100000
00100000
10000000
00010000
,
11000000
10000000
00010000
00100000
,
00101000
00100000
00001000
00010000
,
00010100
00000000
00011000
00000000
00001000
01000000
00100000
00000000
,
01010000
00000000
00000000
20000000
,
30010000
00100000
00001000
00010000
,
00010100
00010000
00000100
00001000
,
00001010
00000000
00000101
00000000
00000001
00001000
00000010
00000000
,
00001010
00000010
00001000
00000100
,
00010100
00010000
00000100
00010000
,
00011000
00001000
01000000
00100000
,
10100000
01010000
10010000
11000000
,
20000000
00000000
32000000
00000000
,
03020000
00000000
00032000
00000000
,
00003020
00000000
00000032
00000000
,
00001003
00000110
00001001
00000110
,
00000002
00000000
00000203
00000000
,
00002300
00000000
00023000
00000000
,
00230000
00000000
20300000
00000000
,
30010000
00000000
02200000
00000000
00000000
03300000
10010000
00000000
,
21000000
00000000
32000000
00000000
,
23000000
00000000
30020000
00000000
,
00230000
00000000
00302000
00000000
,
00013000
00001000
00010000
00001000
00010000
00001000
00010000
00001000
,
00020000
00000000
00030200
00000000
,
00002300
00000000
00003020
00000000
,
00000230
00000000
00000302
00000000
,
00002003
00000000
00003100
00000000
,
00001010
00000000
00000000
00000000
00000000
00001010
00000000
00010100
,
00000000
00000000
00000000
00000000
00011000
00000000
00000000
01001000
,
00000000
00000000
00000000
00000000
00000000
01100000
00000000
10010000
,
00000000
00000000
00000000
11000000
00000000
00000000
00000000
00000000
,
01010000
00000000
00000000
00000000
00000000
00110000
00000000
00101000
,
00000000
00000000
00000000
00000000
00011000
00000000
00000000
00010100
,
00000000
00000000
00000000
00000000
00000000
00001100
00000000
00000011
,
00000000
00000000
00000000
00000101
00000000
00000000
00000010
00000000
,
00001010
00000000
00000000
00000000
00000020
00000000
00000000
00010000
,
00000000
00010030
00000000
00000000
00002000
00000000
00000000
01003000
,
00000000
00100000
10000000
00010000
00000000
00100000
00000000
10000000
,
00000000
00100000
00000000
00010000
00000000
10000000
00010000
00000000
,
00100000
00002000
00013000
00000200
,
00001300
00000020
00000130
00000002
,
00000013
00002000
00003010
00000200
,
00001300
00000200
00010300
00001000
,
01001000
01000000
01000000
01000000
,
01000000
01000000
01000000
00100000
,
10010000
10000000
10000000
10000000
,
10000000
10000000
10000000
10010000
,
00210000
00301000
00020000
00030010
,
00000210
00000301
00002000
00003100
,
00001020
00010030
00012000
01003000
,
00100000
10000000
02000000
00000000
00000000
00000000
03000000
00000000
,
01100000
00000000
00000000
00000000
00000000
00000000
00000000
00000000
00000000
00000000
00000000
00000000
10000000
00000000
00000000
00010000
,
00000000
00000000
00000000
00000000
00100000
00000000
00000000
00001000
00000000
00000000
00000000
00000000
00010000
00000000
00000000
00000100
,
00000000
00000000
00000000
00000000
00001000
00000000
00000000
00000010
00000000
00000000
00000000
00000000
00000100
00000000
00000000
00000001
,
00000000
00000000
00000000
00000000
00000001
00000000
00000000
00001000
00000000
00000000
00000100
00000000
00001000
00000000
00000000
00000000
,
00000010
00000000
00000000
00000000
00000100
00000000
00000000
00000010
00000000
00000000
00000000
00000000
00001000
00000000
00000000
00000100
,
00000000
00000000
00000000
00000000
00010000
00000000
00000000
00001000
00000000
00000000
00000000
00000000
01000000
00000000
00000000
00100000
,
00000000
00000000
00000000
00000000
10000000
00000000
00000000
01000000
00000000
00000000
00000000
00000000
10000000
00000000
00000000
00010000
,
00000000
00000000
00000000
00000000
00100000
00000000
00000000
00001000
00000000
00000000
00010000
00000000
00000100
00000000
00001000
00000000
,
00000010
00000000
00000100
00000001
00000010
00000000
00000100
00001000
,
00000010
00000000
00000100
00000010
00001000
00000100
00010000
00000000
,
00001000
01000000
00100000
00000000
01000000
00010000
10000000
00000000
,
01000000
00000000
10000000
00000000
00100000
00000000
00000000
01000000
00000000
00000000
00100000
00000000
10000000
00000000
00000000
00000000
,
10010000
00000000
00000000
00000000
10000000
00000000
00000000
11000000
00000000
00000000
00000000
00000000
01000000
00000000
00000000
01100000
,
00000000
00000000
00000000
00000000
00100000
00000000
00000000
00110000
00000000
00000000
00000000
00000000
00100000
00000000
00000000
00101000
,
00000000
00000000
00000000
00000000
00010000
00000000
00000000
00010100
00000000
00000000
00000000
00000000
00000100
00000000
00000000
00001100
,
00000000
00000000
00000000
00000000
00001000
00000000
00000000
00001010
00000000
00000000
00000101
00000000
00001001
00000000
00000000
00000000
,
00000011
00000001
00000100
00000010
,
00001000
00000100
00010000
00001000
,
01000000
00100000
10000000
01000000
,
00100000
00000000
01000000
00000000
10000000
00000000
00010000
01000000
,
01100000
01000000
00010000
00100000
,
00001000
00010000
00000100
00001000
,
00000010
00000000
00000100
00000000
00000001
00000000
00001000
00001001
,
00000000
00000110
00000000
00001001
00000000
00000001
00000100
00000010
,
00001000
00000000
00000000
00000100
00010000
00010000
00001000
01000000
,
00000000
00100000
00000000
01000000
00100000
00100000
10000000
00010000
,
00000000
10000000
01000000
00100000
00000000
01000000
00000000
10000000
,
00000000
00010000
00000000
00100000
00000000
00001000
00010000
00000200
,
00000000
00010000
00000000
00010000
,
00000000
00010000
00000000
00010000
,
00000000
00010000
00000000
00010300
,
00001000
01000000
00200000
00000000
00000000
00000000
00300000
00000000
,
01100000
01000000
00010000
00100000
,
00101000
00001000
00010000
00000100
,
00001100
00001000
00000010
00000100
,
00001001
00000110
00001001
00000110
;

//--------------- dance-double - Pandemonium X ----------------
#NOTES:
     dance-double:
     Pandemonium X:
     Hard:
     15:
     0.660866,0.80973,0.445723,0.952227,0.344422,685,619,66,141,0,0,0,0,0,0.660866,0.80973,0.445723,0.952227,0.344422,685,619,66,141,0,0,0,0,0:
00000000
00000000
00000000
00000000
,
00000000
00000000
00000000
00000000
,
00000000
00000000
00000000
00000000
,
00000000
00000000
00000000
00000000
,
00000000
00000000
00000000
00000000
,
00010000
00000000
00000000
00100000
00000000
00000000
00000000
00000000
,
00000000
00001000
00001000
00000000
00000000
00010000
00000000
00000010
,
00000100
00000000
00000000
00000100
00000000
00000000
00000010
00000000
,
00000100
00000001
00002000
00000000
00000000
00000000
00003000
00000000
,
00000200
00010300
00001000
01000000
,
00200000
10300000
01000000
00100000
,
00002000
00013000
00000100
00001000
,
00002200
00003300
00000022
00000033
00001000
00000000
00000001
00000000
,
00000201
00000310
00001000
00000100
,
00010200
00010300
00001000
01000000
,
02100000
03100000
10000000
00010000
,
00220000
00330000
00022000
00033000
00020020
00030030
00002020
00003030
,
00000201
00000000
00000301
00001000
00000001
00001000
00000001
00001000
,
00000200
00000000
00010300
00000100
00010000
00000100
00010000
00000100
,
00020000
00000000
00031000
01000000
00001000
01000000
00001000
01000000
,
01001000
01010000
00020000
20030000
,
30020000
00000000
00130000
01000000
00100000
01000000
00100000
01000000
,
20000000
00000000
30100000
01000000
00100000
01000000
00100000
01000000
,
00020000
00000000
00130000
00001000
00100000
00001000
00100000
00001000
,
00020000
00000000
00030200
00000000
00001300
00000010
00000101
00000000
,
00000210
00000000
00000000
00000000
00000300
00000000
00000000
00000000
00000000
00000000
00000000
00000000
00000010
00010000
00000010
00010000
,
00002000
00000000
01003000
00001000
01000000
00001000
01000000
00001000
,
00020000
00000000
00030100
00010000
00000100
00010000
00000100
00010000
,
00022000
00033000
00022000
00033000
00001010
00000000
00000101
00000000
,
00001001
00000000
00000000
00000101
00000000
00000000
00001000
00000000
,
00000000
00010100
00010100
00000000
00010000
00000000
00001000
01000000
,
01200000
00000000
10300000
00010000
00100000
01000000
10000000
00010000
,
00110000
00001010
00110000
00011000
,
00020000
00000000
00030100
00001000
00000020
00000000
00000130
00000001
,
00002000
00000000
00003100
00010000
00002000
00000000
01003000
00100000
,
20000000
00000000
31000000
00100000
00020000
00000000
00130000
00001000
,
00022000
00033000
00022000
00033000
00022000
00033000
00022000
00033000
,
00010200
00000000
00001300
00000010
00000200
00000000
00000301
00000010
,
00000200
00000000
00000310
00000001
00002000
00000000
00003100
00010000
,
00002000
00000000
01003000
00100000
20000000
00000000
30010000
00100000
,
01000000
00000000
10000000
00000000
00100000
01000000
00100000
01000000
00100000
00000000
00000000
00000000
10010000
00000000
00000000
00000000
,
20000000
00000000
32000000
00000000
,
03020000
00000000
00032000
00000000
,
00003020
00000000
00000032
00000000
,
00001003
00000010
00001000
00000010
00001000
00000010
00001000
00000010
00001000
00000010
00001000
00000010
00001000
00000010
00001000
00000010
,
00002000
00000000
00023000
00000000
,
00230000
00000000
20300000
00000000
,
32000000
00000000
03020000
00000000
,
00032000
00000000
00013000
00000000
,
00010100
00000000
00000000
00000100
00010000
00011000
00001000
01002000
,
00000000
00013000
00000000
00001000
00101000
00100000
01000000
11000000
,
00000000
10000000
00010000
01000000
00000000
01010000
00000000
00102000
,
00000000
00013000
00000000
00010100
00000000
00000100
00001000
00000010
,
00000210
00000000
00000300
00000010
00000100
00000101
00000001
00001001
,
00000000
00001000
00000000
00000100
00010100
00010000
00001000
02001000
,
00000000
03200000
00000000
10300000
00000000
10010000
00000000
11000000
,
00000000
00010000
00000000
00110000
00000000
00100000
00001000
00010000
,
00020100
00000000
00030000
00001000
01000000
01000000
10000000
02000000
,
00000000
03020000
00000000
00130000
00001000
00001000
00010000
00000200
,
00000000
00001300
00000010
00000002
00000000
00000023
00000000
00000230
,
00000000
00000000
00000302
00000000
00000000
00000000
00001003
00000100
00000010
00000000
00000100
00000000
00001000
00000001
00000000
00000000
,
00000100
00000000
00000010
00010000
00002000
00000000
01003000
00100000
,
20000000
00000000
31000000
00100000
00020000
00000000
00130000
00001000
,
00020000
00000000
00030100
00001000
00000020
00000000
00000130
00000001
,
00002000
00000000
00003100
00010000
00001000
00010000
00002000
00000000
,
01003000
00000000
00000000
00100000
10000000
00000000
00000000
10000000
00010000
00000000
00000000
00010000
00100000
00000000
00000000
00000000
,
01000000
00000000
00000000
00100000
00001000
00000000
00000000
00001000
00010000
00000000
00000000
00010000
00000200
00000000
00000300
00000000
,
00010000
00000000
00000000
00000010
00001000
00000000
00000000
00001000
00000001
00000000
00000000
00000001
00000010
00000000
00000000
00000000
,
00000100
00000000
00000000
00000010
00000100
00000000
00000000
00000100
00001000
00000000
00000000
00001000
00000020
00000000
00000030
00000000
,
00000110
00000000
00000000
00000010
00001000
00000100
00020000
00000000
00000000
00031000
01000000
00100000
,
02000000
00000000
00000000
03001000
00010000
00000100
00002000
00000000
00000000
00003010
00010000
00001000
,
00100000
01000000
10000000
00010000
01000000
00001000
00010000
00000100
00001000
00000010
00000100
00000001
,
00000010
00020000
00002000
00000000
00000000
00000000
00033000
00000000
,
01000100
00000000
00000000
00000000
00000000
00000000
00000000
00000000
00000000
00000000
00000000
00000000
00001000
00000000
01000000
00001000
,
00000000
00010000
00100000
00000000
01000000
00000000
10000000
00010000
00000000
00100000
00001000
00000000
00010000
00000000
00000100
00001000
,
00000000
00000100
00000010
00000000
00000100
00000000
00001000
00000001
00000000
00000100
00000010
00000000
00001000
00000000
00000100
00010000
,
00000000
00001000
01000000
00000000
00100000
00000000
10000000
02000000
00000000
00000000
03100000
00000000
01000000
20000000
00000000
00000000
,
30100000
00000000
00000000
00000000
01000000
00000000
00010000
00100000
00000000
00001000
00010000
00000000
00000100
00000000
00001000
00000010
,
00000000
00000100
00000001
00000000
00000010
00000000
00000100
00001000
00000000
00000100
00010000
00000000
00001000
00000000
01000000
00100000
,
00000000
10000000
00010000
00000000
00100000
00000000
00001000
00010000
00000000
00000100
00001000
00000000
00000010
00000000
00000100
00000010
,
00000000
00001000
00000100
00000000
00010000
00000000
00001000
02000000
00000000
00000000
03200000
00000000
10300000
00020000
00000000
00000000
,
00130000
00000000
00000000
00000000
00001000
00000000
00010000
00000200
00000000
00001300
00000010
00000000
00000100
00000000
00000001
00000020
,
00000000
00000130
00001000
00000000
00000100
00000000
00010000
00002000
00000000
00013000
00000100
00000000
00010000
00000000
00001000
02000000
,
00000000
03100000
10000000
00000000
00010000
00000000
00100000
02000000
00000000
03100000
00010000
00000000
10000000
00000000
01000000
00200000
,
00000000
01300000
10000000
00000000
00010000
00000000
00101000
00000000
00000000
00010100
00000000
00000000
00010000
00002000
00000000
00000000
,
01003000
00000000
00000000
00000000
01000000
00010000
00100000
00002000
00000000
00000000
00000000
00000000
00013000
00000100
00001000
00000020
,
00000000
00000000
00000000
00000000
00000130
00000001
00000010
00000200
00000000
00000000
00000000
00000000
00000310
00000001
00001000
00000200
,
00000000
00000000
00000000
00000000
00010300
00001000
01000000
00200000
00000000
00000000
00000000
00000000
10300000
01000000
00100000
00020000
,
00000000
00000000
00000000
00000000
00130000
00001000
00010000
00002000
00000000
00000000
00013000
00000000
00001000
00010000
00000010
00000100
,
00000001
00000000
00000000
00001000
00000100
00000100
00010000
00002000
,
00000000
02003000
00000000
03100000
10000000
10000000
00010000
00200000
,
00000000
10300000
00100000
00020000
00000000
02030000
00000000
03002000
,
00000000
00023000
00000000
00030200
00000000
00001300
00000010
00000100
,
00000101
00000000
00000000
00000001
00000010
00001000
00000010
00000002
,
00000000
00000103
00000000
00000100
00001000
00000100
00000001
00000101
,
00000000
00001010
00000000
00010010
00000000
00101000
00000000
00100010
,
00000000
00011000
00000000
01000100
00000000
00001000
00010000
00000010
,
00000200
00000001
00000301
00001000
00000100
00010000
00001000
02000000
,
00000000
23000000
00000000
31000000
00010000
00100000
00001000
00020000
,
00000000
00030100
00001000
00000020
00000000
00000032
00000000
00000023
,
00000000
00002030
00000000
00023000
00000000
00031000
01000000
00100000
,
20000000
01000000
00100000
30010000
,
00020000
01000000
00100000
10030000
,
20000000
01000000
00100000
30010000
,
00100000
00000000
00001000
00000000
00010000
00001000
00010000
00001000
00010000
00001000
00010000
00001000
00010000
00000000
00000000
00000000
,
00010200
00000000
00001300
00000010
00000100
00000001
00000010
00000100
,
00002000
00000000
00003100
00010000
00001000
01000000
00100000
10000000
,
00020000
00000000
10030000
01000000
00100000
00010000
00100000
01000000
,
01100000
00011000
00000110
00000002
,
00000003
00000000
00000000
00000000
;
