#TITLE:音楽 (STARDOM Remix);
#SUBTITLE:;
#ARTIST:cosMo@暴走P;
#TITLETRANSLIT:Ongaku (STARDOM Remix);
#SUBTITLETRANSLIT:;
#ARTISTTRANSLIT:;
#GENRE:;
#CREDIT:;
#MUSIC:Ongaku (STARDOM Remix).ogg;
#BANNER:;
#BACKGROUND:;
#CDTITLE:;
#SAMPLESTART:94.367;
#SAMPLELENGTH:14.222;
#SELECTABLE:YES;
#OFFSET:1.633;
#BPMS:0.000=135.000;
#STOPS:;
#BGCHANGES:;
#FGCHANGES:;

//--------------- dance-single - Pandemonium X ----------------
#NOTES:
     dance-single:
     Pandemonium X:
     Beginner:
     4:
     0,0,0,0,0:
0000
0000
0000
0000
,
0000
0000
0000
0000
,
0000
0000
0000
0000
,
0000
0000
0000
0000
,
0000
0000
0000
0000
,
0000
0000
0000
0000
,
0001
0000
0000
0000
,
1000
0000
0000
0000
,
0010
0000
0000
0000
,
0100
0000
0010
0000
,
1000
0000
1000
0000
,
1000
0000
0000
0000
,
0001
0000
0001
0000
,
0010
0000
0100
0000
,
0010
0000
0000
0000
,
0100
0000
0000
0000
,
1000
0000
0001
0000
,
0110
0000
0000
0001
,
1001
0000
0000
1000
,
1001
0000
0001
0000
,
1000
0000
0100
0000
,
0010
0000
0100
0000
,
1000
0000
0001
0000
,
0100
0000
0000
0000
,
0010
0010
0010
0010
,
1001
0000
0000
0000
,
0000
0000
0000
0000
,
0001
0000
0000
0000
,
1000
0000
0000
0000
,
0010
0000
0100
0000
,
0001
0000
1000
0000
,
0100
0000
0010
0000
,
0001
0000
1001
0110
,
1001
0000
0001
0000
,
1000
0000
0010
0000
,
0100
0100
0100
0000
,
0010
0010
0010
0000
,
1000
0000
0001
0000
,
0010
0000
0100
0000
,
1000
0000
0001
0000
,
0100
0000
0010
0000
,
1000
1000
0001
0001
,
1001
0000
0000
0000
,
0001
0001
1000
1000
,
1001
0000
0110
0000
,
0002
0000
0000
0003
,
2000
0000
0000
3000
,
0020
0000
0000
0030
,
0200
0000
0000
0300
,
0010
0000
0010
0000
,
0100
0000
0100
0000
,
0001
0000
1000
0000
,
0010
0000
0100
0000
,
0000
0000
0000
0000
,
1001
0000
0001
0000
,
1000
0000
0000
0100
,
0100
0000
0010
0000
,
0001
0000
1000
0000
,
1001
0000
0001
1000
,
1000
0000
0001
0010
,
0100
0000
0000
0010
,
0001
0000
0000
1000
,
0001
0000
0100
0000
,
0010
0000
1000
0000
,
1001
0000
0110
0000
,
1001
0110
1001
0110
;

//--------------- dance-single - Pandemonium X ----------------
#NOTES:
     dance-single:
     Pandemonium X:
     Easy:
     9:
     0,0,0,0,0:
0000
0000
0000
0000
,
0000
0000
0000
0000
,
0000
0000
0000
0000
,
0000
0000
0000
0000
,
0000
0000
0000
0000
,
0000
0000
0000
0000
,
0001
1000
0001
1000
,
0010
0100
0010
0100
,
0001
0100
0010
1000
,
1001
0010
1001
1000
,
0001
1000
0100
0010
,
0100
1000
0000
0001
,
0100
0001
0010
0100
,
0110
0001
0110
1000
,
0110
1001
0000
0001
,
1010
1100
1000
0001
,
0101
0011
1001
1100
,
0100
0010
0001
0000
0100
0000
0010
0000
,
0010
0100
0001
0000
1000
0000
0100
0000
,
1100
1000
0110
0100
,
0101
0001
0011
1100
,
0001
1000
0000
0001
0100
0001
0000
1000
,
0010
1000
0000
0001
0100
0001
0000
0000
,
0100
0100
0100
0100
,
0101
1010
1100
0011
,
1001
0001
0001
0001
,
1000
1000
1000
1000
,
0020
0030
0200
0300
,
0002
0003
2000
3000
,
0100
0010
0000
0000
0100
1000
0000
0000
,
0010
0100
0000
0000
0001
0010
0000
0000
,
0100
0010
0000
0000
0001
0010
0100
1000
,
0001
1000
1001
0110
,
0201
0010
0001
0310
,
1020
0100
1000
0130
,
0001
0000
0001
0010
0100
0000
0100
0000
,
1000
0000
1000
0100
0020
0000
0000
0000
,
0130
0000
0010
0001
0100
0000
1010
0000
,
0001
0000
1000
0100
0010
0000
0011
0000
,
0101
0000
0001
1000
0010
0000
1000
0000
,
0000
0001
1000
0001
0000
1000
0001
1000
,
0001
0000
0100
0100
0100
0000
0010
0010
,
0010
0100
0001
1000
,
1001
0000
1000
1000
1000
0000
0001
0000
,
1000
0000
0000
0100
0010
0000
0001
0000
,
1000
0000
0100
0000
0010
0000
0001
0001
,
0000
0010
0002
0203
,
0310
0000
0100
0000
,
0001
1000
0100
0000
,
1000
1000
0001
0001
,
0100
0100
0010
0010
,
0100
0001
0010
0100
,
1000
0100
0010
0001
,
2002
0000
0000
3003
,
0101
0001
0011
0010
,
0110
1100
0000
0100
,
1100
1010
0010
0100
,
0101
0101
1010
1010
,
1001
0000
0000
0001
0010
0000
0100
0000
,
0110
0000
0000
0100
1000
0000
0010
0000
,
0110
0000
0000
0001
0000
0000
1000
0000
,
0001
0000
0000
0010
0000
0100
0000
1000
,
0001
0010
0100
1000
,
0001
0100
0010
1000
,
1001
0000
0110
0000
,
0101
1010
1100
1001
;

//--------------- dance-single - Pandemonium X ----------------
#NOTES:
     dance-single:
     Pandemonium X:
     Medium:
     13:
     0,0,0,0,0:
0000
0000
0000
0000
,
0000
0000
0000
0000
,
0000
0000
0000
0000
,
0000
0000
0000
0000
,
0000
0000
0000
0000
,
0000
0000
0000
0000
,
0001
0100
0001
1000
,
0100
0010
0001
0100
,
0001
1000
0100
1000
,
0020
0230
0302
1003
,
1100
0110
1100
1010
,
0110
0000
0101
0000
0000
0001
0010
0100
,
0110
0000
0011
0000
0001
0100
0001
1000
,
1100
0110
0011
0101
,
1001
0000
1100
0000
0000
1000
0010
0100
,
0101
0000
0011
0000
0000
0001
0010
0100
,
0110
1100
0110
0011
,
0101
0000
0100
0000
0020
0000
0000
0000
0030
0000
0100
0001
0100
0000
0001
0000
,
1001
0000
1000
0000
0200
0000
0000
0000
0300
0000
0010
0001
0010
0000
0100
0000
,
1000
1000
0001
0001
0100
0100
0010
0010
,
0001
0010
1000
0100
0001
0100
0010
0001
,
1000
0000
1001
0000
0000
0000
1000
0001
0010
0000
0100
0000
0000
0000
0100
1000
,
0010
0000
0100
0000
0000
0000
0100
0001
0010
0000
0100
0000
0000
0000
0000
0000
,
0010
1001
0000
0000
0000
1000
0001
0010
,
0100
0000
1000
0000
0010
0000
0100
0000
0001
0000
0010
0000
0100
1000
0100
1000
,
0001
0000
0001
0000
0001
0000
0001
1000
,
0010
0000
0010
0000
0010
0000
0010
0100
,
0001
0000
0100
0010
1000
0000
0100
0010
,
0001
0000
0010
0100
1000
0000
0001
0000
,
1000
0001
0000
0100
0001
0010
0000
0000
,
0100
0010
0000
0100
1000
0001
0000
0000
,
0100
0001
0000
0000
0010
0100
1000
0100
,
0010
0000
0000
0100
0010
0000
0001
0000
0100
0000
0100
0000
0001
0000
1000
0000
,
0001
0100
0001
1000
0001
0010
0100
1000
,
0001
1000
0010
1000
0001
0010
0100
1000
,
0200
0000
1300
0010
0200
0000
2300
0000
,
3200
0000
0301
0010
0200
0000
0320
0000
,
0031
0000
0000
0000
0010
0000
0100
0000
1000
0000
0000
0001
0100
0000
0000
0000
,
1001
0000
0000
0000
1000
0000
0001
0000
0100
0000
0000
0010
1000
0000
0000
0000
,
1001
0000
0001
0010
0100
0010
0001
1000
,
0000
0001
0100
0000
0010
0000
1000
0000
0000
1000
0100
0000
0010
0000
0100
0000
,
1000
0000
0001
0001
0100
0000
0001
0001
,
1000
0000
0001
0100
0001
0000
1000
0010
1000
0000
0001
0100
0001
0000
1000
0000
,
0001
0000
0010
0100
1000
0000
0011
0000
,
1001
0000
0000
0000
0000
0000
1000
0100
0010
0000
0000
0000
0011
0000
0000
0000
,
0001
0100
0001
1000
0100
0010
1001
1001
,
0000
1000
0100
1000
0001
0100
0101
0011
,
0101
0000
0001
0100
0110
0000
0100
0001
,
1001
0000
1000
0100
0001
0000
0100
0000
,
1000
0100
1000
0100
0010
0001
0010
0001
,
0010
0100
0010
0001
0100
0010
1000
0001
,
1000
0100
0001
0100
1000
0010
0001
0010
,
1000
0010
0100
0001
0010
0100
0010
0001
,
1000
0001
0100
0001
,
1001
0101
0011
0110
,
1100
0000
0011
0000
0100
1000
0010
0100
,
0101
0000
1001
0000
1000
0010
1000
0001
,
0011
1100
1001
0101
,
1001
0000
0000
0001
0101
0000
1100
0000
,
1001
0000
0000
1000
1010
0000
0011
0000
,
1001
0000
0001
1000
0000
0001
0010
0100
,
0010
0000
0001
0010
0100
1000
0010
0100
,
0001
0000
0000
1000
0100
0000
0000
0100
0010
0000
0000
0010
0001
0000
0000
0000
,
0100
0001
0010
0100
0010
0001
1000
0010
,
1001
0000
1000
0001
1000
0000
0001
0000
0110
0000
0001
1000
0001
0000
1000
0000
,
0001
0000
1000
0000
0100
0010
0001
1000
0010
0000
0000
0000
1001
0000
0000
0000
;

//--------------- dance-single - Pandemonium X ----------------
#NOTES:
     dance-single:
     Pandemonium X:
     Hard:
     16:
     0,0,0,0,0:
0000
0000
0000
0000
,
0000
0000
0000
0000
,
0000
0000
0000
0000
,
0000
0000
0000
0000
,
0000
0000
0000
0000
,
0000
0000
0000
0000
0000
0000
0000
0000
0000
0000
0000
0000
0000
0000
0001
1000
,
0100
1100
0001
0101
,
1000
1010
0001
0011
,
0001
1000
0001
0000
1010
0000
1000
0100
1000
0000
0011
0000
0010
0100
1000
0001
,
0100
0000
0010
0000
0100
0000
0010
0000
0000
1000
0000
0000
0100
0000
0010
0000
0100
0000
0010
0000
0000
0001
0000
0000
0200
0000
0000
0000
0000
0000
0000
0000
0000
0000
0000
0000
0310
0000
0000
0000
0000
0000
0000
0000
0000
0000
0000
0000
,
1001
0101
0110
1010
,
1001
0000
1100
0000
0100
0001
0100
1000
,
1010
0000
0000
0000
0101
0000
0000
0000
0001
0000
0000
1000
0100
0000
1000
0000
,
1010
0110
0101
0011
,
0110
0000
1100
0000
1000
0010
0001
0010
,
0110
0000
0101
0000
0001
0010
0100
0010
,
1001
0011
0101
1010
,
1001
0000
1100
0000
1001
0000
0001
0000
1000
0000
0100
0010
0001
0000
0100
0000
,
0110
0000
1001
0000
1100
0000
1000
0000
0010
0000
0010
1000
0100
0000
0010
0000
,
0110
0000
0010
0000
0001
0000
0100
0000
0110
0000
0000
0001
1000
0000
0001
0000
,
0011
0001
0100
0010
0001
0010
0100
0001
,
0010
0000
0000
0000
0001
0000
0000
0000
0010
0000
0000
0000
0001
0000
0000
0000
0000
0000
1000
0000
0000
0000
0000
0000
0001
0000
0000
0000
0000
0000
0000
0000
0000
0000
0000
0000
0100
0000
0000
0000
0000
0000
0010
0000
0000
0000
0000
0000
1000
0000
0000
0000
0100
0000
0000
0000
1000
0000
0000
0000
0100
0000
0000
0000
0000
0000
0010
0000
0000
0000
0000
0000
0100
0000
0000
0000
0000
0000
0000
0000
0000
0000
0000
0000
0010
0000
0000
0000
0000
0000
0001
0000
0000
1000
0000
0000
,
0001
1000
0001
0000
1000
0000
0001
1000
0001
0000
1000
0000
0001
1000
0001
0000
1000
0001
1000
0001
1000
0000
0001
0000
1000
0000
0000
0000
0000
0000
0000
0000
,
1001
0101
0001
0010
0100
0011
1100
1001
,
0001
0000
0000
0100
0000
0000
0001
0000
0000
0100
0000
0000
0010
0000
0000
0100
0000
0000
0010
0000
0000
1000
0000
0000
0010
0000
1000
0000
0010
0000
0100
0000
0010
0000
0100
0000
0001
0000
0010
0000
0100
0000
1000
0000
0100
0000
0010
0000
,
0001
0000
1000
0001
1000
0000
1000
0001
1000
0000
1000
0001
1000
0000
0010
0000
,
1000
0000
0001
1000
0001
0000
0001
1000
0001
0000
0001
1000
0001
0000
0100
0000
,
0020
0000
0130
0001
2000
0000
3100
1000
,
0002
0000
0000
0000
0103
0000
0010
0000
0200
0000
0000
0000
0310
0000
0000
0010
,
0100
0000
1001
0000
0000
1000
0100
0000
0010
0000
0011
0000
0000
0000
0000
0000
,
0001
1100
0000
1000
0101
1001
0000
0000
,
0010
1001
0000
0000
0001
0100
0001
1000
,
0100
0000
0000
0010
0010
0000
0001
0000
0101
0000
0110
0000
1001
0000
1100
0000
,
2000
3010
0200
0301
0020
1030
0020
0031
,
2000
3100
0020
0031
0200
1300
0200
0301
,
1002
0000
1003
0100
0020
0000
0230
0000
,
0320
0000
0000
0000
0031
0000
0010
0000
0100
1000
0100
0010
0100
0010
0001
0100
,
0001
0000
0000
0000
0100
0000
0001
0000
0020
0000
0000
0100
0130
0000
0000
0000
,
1100
0000
0000
0000
1000
0000
0010
0000
0200
0000
0000
0010
0310
0000
0000
0000
,
1001
0000
0001
1000
0100
0001
0100
1000
,
0000
0010
0100
0001
0010
1000
0010
0001
0000
0001
1000
0010
0001
0010
1000
0100
,
0010
0000
0010
0100
1001
0000
0100
0010
,
1001
0000
1000
0001
1000
0000
1000
0100
1000
0000
1000
0010
1000
0000
1000
0001
,
0100
0000
0000
0000
0010
0000
1000
0000
0200
0000
0000
0010
0310
0000
0000
0000
,
0011
0000
0000
0000
0000
0000
0001
0100
1000
0000
0000
0000
0100
0010
1000
0100
,
0020
0000
0000
0000
0031
0010
0100
1000
0100
0010
0100
1000
0001
0000
1001
0000
,
0000
0000
0001
0010
0100
0010
0001
1000
0010
1000
0001
0010
0200
0000
1000
0000
,
1300
0000
0000
0000
0100
0000
0010
0001
1000
0000
0000
0000
0001
0100
0001
1000
,
0001
0000
1000
0001
0110
0000
1001
0000
,
0001
0001
0100
0100
0010
0010
1000
1000
,
0001
0010
0100
1000
0100
0010
0001
1000
,
0010
0100
0010
1000
0010
1000
0001
1000
0001
0010
0001
0010
0100
1000
0100
1000
,
0001
0010
0001
0010
0100
0010
0100
1000
0100
1000
0010
1000
0010
0100
0010
0100
0001
0100
0001
1000
0001
1000
0100
0010
,
0200
0001
0010
1300
,
1001
1010
1100
0110
,
0011
0000
1001
0000
1000
0010
0100
1000
,
1100
0000
0101
0000
0001
0100
0010
0001
,
0011
1010
1001
0110
,
1001
0000
0000
0001
0011
0000
1001
0000
,
1100
0000
0000
1000
1100
0000
1001
0000
,
0001
0100
0001
0010
0100
1000
0001
0000
1000
0000
0001
0010
0001
0000
1000
0000
,
0010
0100
0001
0100
0010
1000
0100
0000
0010
0000
0001
0000
0010
0000
0100
1000
,
0001
0000
0000
0100
0001
0000
0000
0001
0010
0000
0000
0010
0100
0000
0000
0000
,
0100
1000
0010
1000
0001
0000
1001
0000
0100
0010
0001
1000
0010
0100
0001
1000
,
1001
0000
0001
0001
0010
0100
0010
0001
0000
0000
1000
1000
0100
0010
0100
1000
,
0100
0001
0100
1000
0010
0001
0010
1000
0100
0000
0000
0000
0022
0000
0000
0000
,
0000
0000
0000
0000
,
0000
0000
0000
0000
,
0033
0000
0000
0000
;

//--------------- dance-double - Pandemonium X ----------------
#NOTES:
     dance-double:
     Pandemonium X:
     Easy:
     8:
     0,0,0,0,0:
00000000
00000000
00000000
00000000
,
00000000
00000000
00000000
00000000
,
00000000
00000000
00000000
00000000
,
00000000
00000000
00000000
00000000
,
00000000
00000000
00000000
00000000
,
00000000
00000000
00000000
00000000
,
00001000
00001000
00010000
00010000
,
00001000
00001000
00010000
00010000
,
00001000
01000000
00100000
10000000
,
02000000
23000000
30200000
01300000
,
10010000
10000000
00010000
00100000
,
00001000
00001000
00000000
00010000
,
00000100
00001000
00000010
00000100
,
00000001
00000010
00001000
00000010
,
00000001
00000001
00000000
00001000
,
00000010
00000100
00000000
00000010
,
00001000
00000100
00010000
00001000
,
01000000
00010000
01000000
00000000
00000000
00000000
00100000
00000000
,
10000000
00010000
10000000
00000000
00000000
00000000
00010000
00000000
,
00100000
00001000
00010000
00000010
,
00000100
00000001
00000010
00000100
,
00001000
00000100
00000000
00000000
00001000
00000010
00000000
00000000
,
00000100
00000001
00000000
00000000
00000010
00000100
00000000
00000000
,
00000010
00001001
00000000
00000000
00000000
00000000
00000001
00000000
,
00000100
00001000
00010000
00001000
,
00011000
00000000
00000000
00000000
,
00000000
00000000
00000000
00000000
,
00020000
00000000
00030200
00000000
,
00002300
00000000
00003020
00000030
,
00000100
00000001
00000000
00000000
00000010
00000100
00000000
00000000
,
00000100
00001000
00000000
00000000
00000100
00010000
00000000
00000000
,
00010000
00001000
00000000
00000000
00010000
00000000
00001000
00000000
,
01000000
00000000
00100000
00000000
10000000
01000000
00100000
00010000
,
10000000
10000000
00010000
00010000
,
00100000
00100000
00001000
00001000
,
00010000
00000010
00000200
00000302
,
00000013
00000000
00000100
00000000
00002200
00000000
00000000
00003300
,
00010100
00000000
00000100
00010000
00001000
00000000
00011000
00000000
,
00001000
00000000
01000000
00001000
00010000
00000000
00110000
00000000
,
11000000
00000000
01000000
10000000
00010000
00000000
10000000
00000000
,
00000000
00010000
01000000
00010000
00000000
01000000
00100000
01000000
,
00010000
00200000
00301000
00020000
,
00030010
00000100
00000100
00000100
,
00001001
00000000
00000001
00000100
00000010
00000000
00001000
00000000
,
00001100
00000000
00010100
00000000
,
00010000
00000000
00001000
00000000
01000000
00000000
00010000
00010000
,
00000000
00100000
01000000
10000000
,
00010000
00000000
10000000
00000000
,
00100000
01000000
00001000
00000000
,
00010000
00000100
00001000
00000010
,
00000100
00000001
00000010
00000100
,
00001000
00001000
00000100
00000100
,
00020000
00032000
02003000
03200000
,
02300000
00000000
00000000
00000000
,
13000000
01000000
00010000
00100000
,
00001000
00010000
00000000
00000100
,
00001000
00000010
00000001
00000010
,
00000100
00000001
00000010
00000100
,
00001100
00000000
00000000
00000100
00010000
00000000
00001000
00000000
,
01001000
00000000
00000000
01000000
00010000
00000000
00100000
00000000
,
01000000
00000000
00000000
00100000
00000000
00000000
00001000
00000000
,
00010000
00000000
00000000
00000100
00000000
00001000
00000000
00000000
,
00000010
00000100
00000001
00001000
,
00000100
00010000
00001000
01000000
,
00110000
00000000
00011000
00000000
,
00001100
00000011
00001001
00000110
;

//--------------- dance-double - Pandemonium X ----------------
#NOTES:
     dance-double:
     Pandemonium X:
     Medium:
     13:
     0,0,0,0,0:
00000000
00000000
00000000
00000000
,
00000000
00000000
00000000
00000000
,
00000000
00000000
00000000
00000000
,
00000000
00000000
00000000
00000000
,
00000000
00000000
00000000
00000000
,
00000000
00000000
00000000
00000000
,
00011000
00010000
00000100
00000100
,
00010000
00001000
01000000
01000000
,
00001000
00010000
00000010
00000010
,
00001010
00001000
00001100
00010000
,
00011000
00001000
01000000
00100000
,
10000000
00000000
01000000
00000000
00000000
00100000
01000000
10000000
,
00010000
00000000
00100000
00000000
00001000
00010000
00000100
00001000
,
00001020
00000130
00000102
00000013
,
00002100
00000000
00003001
00000000
00000000
00000010
00000001
00001000
,
00001200
00000000
00010300
00000000
00000000
00001000
01000000
00010000
,
00210000
01300000
21000000
30100000
,
10000000
00000000
00010000
00000000
00200000
00000000
00000000
00000000
00300000
00000000
01000000
10000000
01000000
00000000
00100000
00000000
,
00001000
00000000
00010000
00000000
00002000
00000000
00000000
00000000
00003000
00000000
00010000
00000100
00010000
00000000
00000100
00000000
,
00001000
00000010
00000100
00000001
00000010
00000100
00000010
00000001
,
00001000
00000100
00010000
00000100
00010000
00001000
01000000
00001000
,
00100000
00000000
00010000
00000000
00000000
00000000
00100000
00010000
01000000
00000000
00100000
00000000
00000000
00000000
00100000
10000000
,
01000000
00000000
00100000
00000000
00000000
00000000
00100000
00001000
00010000
00000000
00001000
00000000
00000000
00000000
00000000
00000000
,
00011000
00011000
00000000
00000000
00000000
00010000
00000100
00001000
,
00000010
00000000
00000100
00000000
00000001
00000000
00000010
00000000
00000100
00000000
00001000
00000000
00000001
00001000
00000100
00000010
,
00000001
00000000
00000001
00000000
00000001
00000000
00000001
00000100
,
00001000
00000000
00001000
00000000
00001000
00000000
00001000
00000100
,
00000001
00001000
00000100
00000010
,
00000100
00001000
00000100
00010000
,
00001000
00010000
00000000
00001000
01000000
00100000
00000000
00000000
,
01000000
00010000
00000000
00100000
01000000
10000000
00000000
00000000
,
01000000
00100000
00000000
00000000
01000000
10000000
00010000
01000000
,
00001000
00000000
00000000
00010000
00000100
00000000
00001000
00000000
00000010
00000000
00000001
00000000
00000010
00000000
00001000
00000000
,
00000001
00000010
00001000
00000010
00000001
00001000
00000001
00001000
,
00000001
00000100
00001000
00000100
00000001
00001000
00000001
00001000
,
00000200
00000000
00010300
00001000
02000000
00000000
03020000
00000000
,
00230000
00000000
01300000
00100000
00020000
00000000
02030000
00000000
,
03100000
00000000
00000000
00000000
01000000
00000000
00010000
00000000
00100000
00000000
00000000
01000000
10000000
00000000
00000000
00000000
,
10010000
00000000
00000000
00000000
00010000
00000000
00100000
00000000
00001000
00000000
00000000
00010000
00000100
00000000
00000000
00000000
,
00011000
00000000
00010000
00000100
00001000
00000010
00000100
00000010
,
00000000
00000100
00000001
00000010
00000000
00000100
00001000
00000010
,
00000100
00000000
00000001
00000001
00001000
00000000
00000100
00000100
,
00010000
00000000
00001000
00010000
00001000
00000000
00010000
00001000
00010000
00000000
00001000
00010000
00001000
00000000
00010000
00000000
,
00000100
00000000
00001000
00000010
00000100
00000000
00000101
00000000
,
00001001
00000000
00000000
00000000
00000000
00000000
00000001
00000010
00000100
00000000
00000000
00000000
00000010
00000000
00000000
00000000
,
00000001
00000100
00000010
00001000
00010000
01000000
00010000
00010000
,
00000000
00100000
10000000
00100000
00010000
00100000
00001000
00001000
,
00020000
00000000
00030100
00001000
00000020
00000000
00000031
00000010
,
00000200
00000000
00000310
00010000
00001000
00000000
00011000
00000000
,
00010100
00010100
00001100
00001100
,
00001010
00001010
00000101
00000101
,
00000001
00000100
00001000
00010000
00100000
10000000
01000000
00100000
,
00010000
00100000
10000000
00100000
00010000
00001000
00000100
00001000
,
00000001
00000100
00001000
00000100
,
00000201
00000310
00002100
00003010
,
00001020
00000000
00010030
00000000
00000000
00001000
01000000
00010000
,
00210000
00000000
01300000
00000000
11000000
01000000
00100000
00001000
,
00021000
00030100
00002100
00003010
,
00000101
00000000
00000000
00000100
00000101
00000000
00001010
00000000
,
00001001
00000000
00000000
00001000
00001100
00000000
00010100
00000000
,
00011000
00001000
01000000
00100000
00000000
01000000
00010000
00100000
,
10000000
00000000
00000000
00000000
00100000
00000000
00001000
00000000
00010000
00000000
00000100
00000000
00001000
00000000
00000010
00000100
,
00000001
00000000
00000000
00000001
00000010
00000000
00000000
00000010
00000100
00000000
00000000
00000100
00020000
00000000
00000000
00000000
,
00031000
01000000
00001000
01000000
00001000
00000000
01000000
00000000
00010000
10000000
00010000
10000000
00010000
00000000
00100000
00000000
,
11000000
00000000
00110000
00000000
,
00100000
00001000
00010000
00000010
00000100
00000001
00000010
00000100
00001000
00000000
00000000
00000000
00022000
00000000
00000000
00000000
,
00000000
00000000
00000000
00000000
,
00033000
00000000
00000000
00000000
;

//--------------- dance-double - Pandemonium X ----------------
#NOTES:
     dance-double:
     Pandemonium X:
     Hard:
     16:
     0,0,0,0,0:
00000000
00000000
00000000
00000000
,
00000000
00000000
00000000
00000000
,
00000000
00000000
00000000
00000000
,
00000000
00000000
00000000
00000000
,
00000000
00000000
00000000
00000000
,
00000000
00000000
00000000
00000000
,
00012000
00103000
00021000
00030010
,
00012000
00103000
00021000
00030010
,
00010000
00000100
00001000
00000010
00000100
00000001
00000010
00000100
00001000
00000100
00010000
00001000
01000000
00010000
00100000
01000000
,
10000000
00000000
01000000
00000000
10000000
00000000
01000000
00000000
00000000
00100000
00000000
00000000
00010000
00000000
01000000
00000000
00010000
00000000
01000000
00000000
00000000
00010000
00000000
00000000
00200000
00000000
00000000
00000000
00000000
00000000
00000000
00000000
00000000
00000000
00000000
00000000
10000000
00000000
00000000
00000000
00000000
00000000
00000000
00000000
00000000
00000000
00000000
00000000
,
00301000
00010100
00001100
00001010
,
00001001
00000000
00001001
00000000
00000000
00000001
00000100
00001000
,
00011000
00000000
00000000
00000000
00010100
00000000
00000000
00000000
00000100
00000000
00000000
00010000
00001000
00000000
01000000
00000000
,
02010000
03100000
21000000
30010000
,
01010000
00000000
00110000
00000000
00000000
00100000
00001000
00100000
,
00011000
00000000
00010100
00000000
00000000
00010000
00000100
00001000
,
00001010
00001100
00011000
00101000
,
00011000
00000000
00010100
00000000
00022000
00000000
00000000
00000000
00033000
00000000
00001000
01000000
00100000
00000000
10000000
00000000
,
11000000
00000000
01100000
00000000
00220000
00000000
00000000
00000000
00330000
00000000
00100000
00001000
00010000
00000000
00000100
00000000
,
00001100
00000010
00000001
00000100
00000101
00000010
00001000
00000100
,
00011000
00000100
00010000
00001000
01001000
00010000
00100000
01000000
,
10000000
00000000
01000000
00000000
10000000
00000000
01000000
00000000
00000000
10000000
00000000
00000000
00010000
00000000
00000000
00000000
00000000
00000000
01000000
00000000
00000000
00010000
00000000
00000000
00100000
00000000
00001000
00000000
00100000
00000000
00001000
00000000
00000000
00010000
00000000
00000000
00001000
00000000
00000000
00000000
00000000
00000000
00010000
00000000
00000000
00000100
00000000
00000000
,
00001000
00000000
00000010
00000000
00001000
00000000
00000010
00000000
00000000
00000100
00000000
00000000
00000001
00000000
00000100
00000000
00000001
00000000
00000100
00000000
00000000
00000010
00000000
00000000
00001000
00000000
00000010
00000000
00001000
00000000
00000010
00000000
00000000
00001000
00000000
00000000
00000001
00000000
00000000
00000000
00000000
00000000
00000000
00000000
00000000
00000000
00000000
00000000
,
00000011
00000000
00000010
00000000
00000100
00000000
00000010
00000001
00000100
00000000
00001000
00000000
00010000
00000000
00100000
00000000
,
01000000
00000000
00000000
00010000
00000000
00000000
00100000
00000000
00000000
00001000
00000000
00000000
00010000
00000000
00000000
00000100
00000000
00000000
00001000
00000000
00000000
00000010
00000000
00000000
00000100
00000000
00000000
00000001
00000000
00000000
00001000
00000000
00000000
00000001
00000000
00000000
00000010
00000000
00000100
00000000
00000010
00000000
00000100
00000000
00000010
00000000
00000001
00000000
,
00000010
00000000
00000001
00001000
00000001
00000000
00000001
00001000
00000001
00000000
00000001
00001000
00000001
00000000
00001000
00000000
,
00000100
00000000
00010000
00001000
00010000
00000000
00010000
00001000
00010000
00000000
00010000
00001000
00010000
00000000
00000010
00000000
,
00002000
00000000
00003010
00001000
00000200
00000000
00010300
00001000
,
02000000
00000000
00000000
00000000
03010000
00000000
10000000
00000000
00020000
00000000
00000000
00000000
00130000
00000000
01000000
10000000
,
00100000
00000000
10010000
00000000
00000000
10000000
00010000
00000000
00100000
00000000
00101000
00000000
00000000
00000000
00000000
00000000
,
00010000
00001100
00000000
00001000
00000101
00001001
00000000
00000000
,
00000010
00001001
00000000
00000000
00000100
00000001
00000100
00001000
,
00000100
00000000
00000000
00010000
00001000
00000000
00010000
00000000
00001000
00000000
01000000
00000000
00100000
00000000
10000000
00000000
,
02000000
03010000
02000000
13000000
00100000
01000000
00001000
00010000
,
00000020
00000031
00000020
00001030
00000200
00000310
00000002
00001003
,
00001001
00000000
00000001
00001000
00000020
00000000
00020030
00000000
,
00032000
00000000
00000000
00000000
00103000
00000000
00010000
00000000
01000000
00010000
10000000
00100000
01000000
00010000
10000000
00100000
,
01000000
00000000
00010000
00000000
00100000
00000000
00001000
00000000
00020000
00000000
00000000
00000100
00030100
00000000
00000000
00000000
,
00001010
00000000
00000000
00000000
00000100
00000000
00000001
00000000
00002000
00000000
00000000
00000001
00003001
00000000
00000000
00000000
,
00010100
00000000
00000100
00010000
00001000
01000000
00010000
00100000
,
00000000
00000000
00000000
00000000
00000000
00000000
00100000
00000000
01000000
00000000
10000000
00000000
00010000
00000000
00000000
01000000
00000000
00000000
00100000
00000000
00000000
10000000
00000000
00000000
00000000
00000000
00000000
00000000
00000000
00000000
01000000
00000000
00100000
00000000
00010000
00000000
00100000
00000000
00000000
00010000
00000000
00000000
00100000
00000000
00000000
00001000
00000000
00000000
,
00010000
00000000
00000100
00001000
00000010
00000000
00000010
00010000
,
00001000
00000000
00010000
00001000
00010000
00000000
00010000
00001000
00010000
00000000
00001000
00010000
00001000
00000000
00001000
00010000
,
00001000
00000000
00000000
00000000
00100000
00000000
00001000
00000000
00011000
00000000
00000000
00010000
00000100
00000000
00000000
00000000
,
00010010
00000000
00000000
00000000
00000000
00000000
00000010
00010000
00001000
00000000
00000000
00000000
00210000
00000000
00000000
00000000
,
02300000
00000000
00000000
00000000
03010000
00100000
10000000
00100000
00001000
00010000
00000100
00001000
00000010
00000000
00001010
00000000
,
00000000
00000001
00000100
00001000
00000100
00000010
00001000
00000100
00010000
00001000
00100000
00010000
10000000
00000000
10010000
00000000
,
02100000
00000000
00000000
00000000
03010000
00000000
00100000
01000000
10000000
00000000
00000000
00000000
01000000
00100000
00010000
00001000
,
00010000
00000000
00000100
00001000
00000020
00000000
00002000
00003030
,
00001100
00000100
00010100
00010000
00011000
00001000
01001000
01000000
,
01100000
01000000
10010000
00010000
00110000
00100000
01100000
01000000
,
10000000
01000000
00100000
00010000
00100000
00001000
00010000
00000010
00000100
00000001
00000010
00000100
00001000
00000010
00010000
00001000
,
00010000
00001000
00010000
00001000
01000000
00001000
01000000
00100000
01000000
00100000
10000000
00100000
01000000
00010000
01000000
00010000
00100000
00010000
00100000
00001000
00100000
00001000
00010000
00000100
,
00001000
00000100
00000001
00000010
,
00001000
00000100
00001000
00000000
00000100
00000010
00000100
00000000
00000010
00000001
00000010
00000000
00000001
00000100
00000001
00000000
,
00000100
00000010
00001000
00000000
00000100
00010000
00001000
00000000
00000000
00000000
00010000
00000000
00001000
00000000
01000000
00000000
,
00100000
10000000
01000000
00000000
10000000
00010000
01000000
00000000
00100000
00000000
10000000
00000000
00010000
00000000
00100000
00000000
,
00101000
00011000
00010100
00001100
,
00001000
00000010
00000000
00000000
00000000
00000000
00000000
00000000
00000000
00000000
00000000
00000000
00000100
00000000
00000000
00000000
00000101
00000000
00000000
00000000
00000000
00000000
00000000
00000000
00000011
00000000
00000000
00000000
00000000
00000000
00000000
00000000
,
00001000
00000100
00000000
00000000
00000000
00000000
00000000
00000000
00000000
00000000
00000000
00000000
00010000
00000000
00000000
00000000
00011000
00000000
00000000
00000000
00000000
00000000
00000000
00000000
01001000
00000000
00000000
00000000
00000000
00000000
00000000
00000000
,
00010000
00100000
01000000
00000000
00100000
00000000
00020000
00000000
00000000
00000000
10030000
00000000
00100000
00000000
00010000
00000000
,
00200000
00000000
00000000
00000000
01300000
00000000
00001000
00000000
00010000
00000000
00000100
00000000
00001000
00000000
00000100
00000010
,
00000001
00000000
00000000
00000001
00000010
00000000
00000000
00000010
00000100
00000000
00000000
00000100
00001000
00000000
00000000
00000000
,
00000100
00001000
00000010
00000100
00000001
00000000
00001001
00000000
00000001
00000010
00000100
00001000
00000100
00010000
00001000
01000000
,
01010000
00000000
00010000
00010000
01000000
00100000
10000000
00010000
00110000
00000000
00100000
00100000
00001000
00010000
00000010
00000100
,
00000010
00000000
00000100
00000000
00000001
00000000
00001000
00000000
00000000
00000100
00000000
00000000
00000010
00000000
00000001
00000000
00001000
00000000
00000100
00000000
00000000
00001000
00000000
00000000
00000100
00000000
00000000
00000000
00000000
00000000
00000000
00000000
00000000
00000000
00000000
00000000
00022000
00000000
00000000
00000000
00000000
00000000
00000000
00000000
00000000
00000000
00000000
00000000
,
00000000
00000000
00000000
00000000
,
00000000
00000000
00033000
00000000
;
