#TITLE:Now and Forever;
#SUBTITLE:;
#ARTIST:StripE vs MUNETICA feat. ARISA;
#TITLETRANSLIT:;
#SUBTITLETRANSLIT:;
#ARTISTTRANSLIT:;
#GENRE:;
#CREDIT:;
#MUSIC:Now and Forever.ogg;
#BANNER:Now and Forever.png;
#BACKGROUND:Now and Forever-bg.png;
#CDTITLE:cdtitle.png;
#SAMPLESTART:97.390;
#SAMPLELENGTH:13.151;
#SELECTABLE:YES;
#OFFSET:-0.404;
#BPMS:0.000=146.000;
#STOPS:208.000=1.233
,229.000=1.233
;
#ORIGIN:;
#TAGS:;
#PREVIEWVID:;
#JACKET:Now and Forever-jacket.png;
#CDIMAGE:;
#DISCIMAGE:;
#BGCHANGES:;
#FGCHANGES:;

//--------------- dance-single - Pandemonium X ----------------
#NOTES:
     dance-single:
     Pandemonium X:
     Beginner:
     4:
     0.238576,0.379933,0.174956,0.135193,0,210,188,22,17,0,0,0,0,0,0.238576,0.379933,0.174956,0.135193,0,210,188,22,17,0,0,0,0,0:
0000
0000
0000
0000
,
0000
0000
0000
0000
,
0000
0000
0000
0000
,
1001
0000
0000
0000
,
0000
1000
0100
0010
,
0000
0000
0000
0000
,
0000
0100
1000
0001
,
0000
0100
0000
0100
,
0000
0100
0010
1000
,
0000
0001
0000
0001
,
1000
0010
0110
0100
,
0001
0001
0001
1000
,
0001
0100
0010
1000
,
0100
0100
0100
0010
,
0100
1000
0001
0001
,
1000
0000
0001
0000
,
0100
0000
0010
0000
,
1000
0000
0001
0000
,
0220
0000
0000
0330
,
1000
0001
0010
0001
,
1000
0010
1000
0001
,
1000
0100
1000
0001
,
0101
0000
1010
0000
,
1001
1000
0001
0010
,
0001
1000
0010
1000
,
0101
0001
1100
1000
,
1020
0230
0302
1003
,
0110
0000
0000
0000
,
1000
0000
0000
0000
,
0001
0000
0000
0100
,
1001
0110
1001
0110
,
1001
0000
0001
0000
,
0000
0000
1000
0000
,
0000
0000
0010
0000
,
0100
0100
0100
0100
,
1001
0000
0000
0001
,
1000
0000
0000
0100
0000
0000
0000
0020
,
0000
0000
0030
0001
,
0010
0000
0000
0001
0000
0000
0000
2000
,
0000
0000
0000
3000
0000
0000
0000
0010
,
0000
0000
0000
0100
0000
0100
0000
0200
,
0000
0000
0000
0010
0000
0010
0000
0020
,
0000
0000
0000
0330
,
1001
0000
0000
0001
,
1000
0000
0000
0100
0000
0100
0000
0100
,
0000
0000
0000
0010
0000
0010
0000
0010
,
0000
0000
0000
0001
,
2000
0000
0000
0002
0000
0000
0000
0000
,
3003
0000
0000
0100
0000
0001
0000
0000
,
2000
0000
0000
0002
0000
0000
3003
0000
,
1001
0000
0000
0000
,
0100
0010
1000
0001
,
0110
1000
0000
0001
,
0000
0010
0000
0001
,
1000
0000
0100
0000
,
0010
0000
0001
0000
,
0010
0001
0100
1000
,
0100
0101
1000
0001
,
0010
0000
0001
1000
,
0100
0000
0010
0010
,
0100
0100
0010
0001
,
1000
0010
0100
0100
,
0001
0000
1000
0000
,
0001
1000
0010
0000
,
1000
0000
0100
0000
,
0010
0001
1001
1000
,
0001
0100
0001
1000
,
0100
0010
0001
0000
,
0010
0000
0100
0000
,
1000
0000
0100
0000
2000
0000
0000
3020
,
0000
0000
0000
0000
0030
0000
0000
0100
,
0000
0001
0000
0000
2000
0000
0000
3200
,
0000
0000
0310
0100
,
1000
0001
0110
0000
;

//--------------- dance-single - Pandemonium X ----------------
#NOTES:
     dance-single:
     Pandemonium X:
     Easy:
     9:
     0.373769,0.496835,0.238576,0.190861,0.119288,329,299,30,24,0,0,0,0,0,0.373769,0.496835,0.238576,0.190861,0.119288,329,299,30,24,0,0,0,0,0:
0000
0000
0000
0000
,
0000
0000
0000
0000
,
0000
0000
0000
0000
,
0100
0010
0001
0100
,
0010
0000
1000
0000
0001
0000
1000
0100
,
0010
0100
1000
0001
,
0100
0000
0010
0000
0100
0001
0010
0100
,
1000
1100
1000
1010
,
0010
0110
0100
0101
,
0001
0011
0010
0110
,
1001
0000
0000
0001
1001
0000
0110
0000
,
1000
1000
0001
0001
,
0010
0000
0001
0000
0100
0000
0010
0100
,
0001
1000
0100
0010
,
0100
0000
1000
0000
0001
0010
0100
1000
,
0001
0100
0001
0010
,
0001
1000
0010
0100
,
0010
1000
0100
0010
,
2002
0000
0000
3003
,
0001
0000
0000
1000
0000
0000
0010
0000
1000
0000
0000
0001
0000
0000
0010
0000
,
0100
0010
0001
1000
,
0010
0000
0000
1000
0000
0000
0100
0000
0010
0000
0000
0010
0000
0000
0010
0000
,
0000
0000
0000
0000
0000
0000
0100
0000
1001
0000
0000
1000
0000
0001
0000
1000
,
0010
0000
0000
0010
0000
0000
0100
0000
0001
0000
0000
0001
0000
0000
1000
0000
,
0000
0000
0100
0000
0000
1000
0000
0000
0010
0000
0000
0100
0000
0000
0001
0000
,
1000
0001
0100
0100
0001
1000
0010
0010
,
2000
0000
3200
0000
0310
0001
0100
0000
,
1010
0000
0000
1000
0002
0000
0003
0000
,
0000
0000
0000
1000
0002
0000
0003
0000
,
0000
0000
0000
1000
0002
0000
0103
0000
,
1010
1001
0011
1100
,
1001
0000
0000
0001
2000
0000
3000
0000
,
0000
0000
0000
0001
2000
0000
3000
0000
,
0000
0000
0000
0001
2000
0000
3000
0000
,
1001
0110
1001
0110
,
1001
0000
0000
0001
,
0100
0000
0000
0010
0000
1000
0000
0200
,
0000
0000
0300
0010
,
0100
0000
0000
0010
0000
0001
0000
2000
,
0000
0000
3000
0000
0000
0001
0100
0001
,
0000
0000
0100
0010
0000
1000
0000
0002
,
0000
0000
0000
0100
0000
0100
0000
0200
,
0000
0000
0000
0303
,
1010
0000
0000
1000
,
0001
0000
0000
1000
0000
0100
0000
2000
,
0000
0000
0000
0001
0000
0001
0000
0002
,
0000
0000
0000
0000
3003
0010
0100
1000
,
0002
0000
0000
2003
0000
0000
0000
0000
,
0000
0000
0000
3001
0000
1000
0000
0100
,
0020
0000
0000
0002
0000
0000
0000
0000
,
0033
0000
0000
0000
,
1000
0000
0000
0000
0100
0000
1000
0000
0010
0000
0000
0100
0000
0000
0001
0000
,
1001
0000
0000
0000
0001
0000
0000
0100
0000
0000
0010
0000
1000
0000
0000
0001
,
0000
0010
0000
0100
1000
0000
0000
0100
0000
1000
0000
0010
0000
0000
0100
0000
,
0001
1000
0000
0001
1000
0010
0000
1000
,
0001
0100
0000
0001
1000
0010
0000
1000
,
0001
0100
0010
0000
0100
0000
0001
0000
,
1000
0000
0110
0000
1000
0000
0001
0010
,
0100
0010
0001
1000
,
0010
0000
0100
0000
0010
0000
0100
0001
,
0010
0000
0100
1000
0010
0000
0100
0000
,
0001
1000
0100
0001
0100
0000
1000
0100
,
0010
0000
0100
0000
1000
0010
0001
0010
,
1000
0000
0000
0010
0000
0100
0000
0001
1000
0000
0000
0100
0000
1000
0100
0000
,
0010
0000
0000
0001
0000
0100
0000
0010
1000
0000
0000
0001
0000
0001
0000
0001
,
0000
1000
0001
0100
0001
0000
0011
0000
,
0010
0100
1000
0000
0100
0000
0011
0000
,
0001
0100
0010
0000
1000
0000
1010
0000
,
1000
0001
0010
0000
0100
0000
1010
0000
,
0100
0001
1000
0100
0020
0000
0000
0230
,
0000
0000
0000
0000
0000
0000
0000
0310
,
0000
0001
0000
1000
0020
0000
0000
0230
,
0000
0000
0000
0000
1300
0100
0001
0100
,
0010
1000
0001
1000
1001
0000
0000
0000
;

//--------------- dance-single - Pandemonium X ----------------
#NOTES:
     dance-single:
     Pandemonium X:
     Medium:
     13:
     0.52714,0.73064,0.206766,0.270386,0.520891,464,438,26,34,0,0,0,0,0,0.52714,0.73064,0.206766,0.270386,0.520891,464,438,26,34,0,0,0,0,0:
0000
0000
0000
0000
,
0000
0000
0000
0000
,
0000
0000
0000
0000
,
0001
0010
0001
1000
,
0010
0000
0000
0000
0000
0000
1000
0000
0000
0000
0000
0000
0010
0000
0000
0000
0000
0000
0000
0000
0000
0100
0000
0000
0000
0000
0000
0000
0000
0000
0001
0000
0000
0000
0000
0000
0010
0000
0000
0000
0100
0000
0000
0000
1000
0000
0000
0000
,
0001
1000
0100
0010
,
0100
0000
0000
0000
0000
0000
1000
0000
0000
0100
0000
0000
1000
0000
0000
0000
0000
0000
0001
0000
0000
0000
0000
0000
0100
0000
0000
0000
0010
0000
0000
0000
1000
0000
0000
0000
0001
0000
0000
0000
0010
0000
0000
0000
0100
0000
0000
0000
,
1000
1010
0010
0110
,
0100
0000
0000
0000
0000
0000
0001
0000
0000
0000
0000
0000
0010
0000
0000
0000
0000
0000
0000
0000
0000
0001
0000
0000
0000
0000
0000
0000
0000
0000
1000
0000
0000
0000
0000
0000
0001
0000
0000
0000
0010
0000
0000
0000
0001
0000
0000
0000
,
0100
0110
0010
1010
,
1000
0000
0000
0000
0000
0000
0001
0000
0000
0010
0000
0000
0001
0000
0000
0000
0000
0000
0100
0000
0000
0000
0000
0000
0020
0000
0000
0000
0000
0000
0000
0000
0130
0000
0000
0000
0010
0000
0000
0000
1000
0000
0000
0000
0001
0000
0000
0000
,
0100
0000
0000
0100
0000
0000
0100
0000
0000
0000
0010
1000
0000
1000
0001
0010
,
0000
0000
0000
0000
0000
0000
0100
0000
0000
0000
0000
0000
1000
0000
0000
0100
0000
0000
0000
0000
0000
1000
0000
0000
0000
0000
0000
0000
0000
0000
1000
0000
0000
0000
0000
0000
0010
0000
0000
0000
0100
0000
0000
0000
0010
0000
0000
0000
,
0100
0000
0000
0100
0000
0000
0100
0000
0000
0000
0010
1000
0000
1000
0100
0000
,
0000
0000
0000
0010
0000
0000
0100
0000
0000
1000
0000
0000
0001
0000
0100
0000
0001
0000
0010
0000
0100
0000
1000
0000
,
0001
1000
0010
0000
0101
0000
0011
0000
,
0010
0100
1000
0000
1100
0000
1010
0000
,
1000
0001
0100
0000
0010
1000
0100
0000
,
0022
0000
0000
0033
,
1100
0000
0000
1000
0000
0001
0000
0100
0010
1000
0000
0001
0000
1000
0100
0010
,
0000
0000
0100
0000
0000
1000
0000
0000
0010
0000
0000
0100
0000
0000
0001
1000
,
0001
0000
0000
1000
0000
0001
0000
0010
0100
0000
0100
1000
0000
1000
0100
0000
,
0000
0000
0000
0000
0000
0000
0010
0001
0100
0000
0010
0100
0000
0001
0000
1000
,
0100
0000
0010
0001
0000
0010
0100
0000
1000
0000
0100
0010
0000
0100
1000
0001
,
0000
0000
1000
0000
0000
0010
0000
0000
0100
0000
0000
0001
0000
0100
0010
0000
,
1000
0000
0010
0000
0001
0000
0010
0000
0100
0000
0001
1000
0001
0000
0010
0000
,
0200
0000
0000
0000
2300
0000
0000
0000
3010
0100
0010
0000
0220
0000
0330
0000
,
1001
0000
0000
0001
0200
0000
0000
0000
,
0300
0000
0000
0010
2000
0000
0000
0000
,
3000
0000
0000
0001
0200
0000
0310
0000
,
1001
0000
1000
0100
1000
0000
0001
0100
0001
0000
1000
0100
1000
0000
0001
0100
,
0001
0000
0000
1000
0200
0000
0000
0000
,
0300
0000
0000
0010
0002
0000
0000
0000
,
0003
0000
0000
1000
0200
0000
0300
0000
,
0021
1000
0001
1000
,
0031
0000
0000
0000
0000
1000
0010
0010
,
1000
0000
0001
0010
0000
0100
0000
0020
,
0000
0000
0000
0000
0030
0100
0010
0010
,
0100
0000
0010
0001
0000
0100
0000
0020
,
0000
0000
0000
0000
0030
0100
0010
1000
,
0000
0000
0001
2000
0000
3200
0000
0320
,
0000
0000
0000
0001
0000
0001
0000
0002
,
0000
0000
0000
0033
,
1001
0000
0000
0000
0000
1000
0100
0100
,
1000
0000
0001
0200
0000
0320
0000
0230
,
0000
0000
0000
0320
0000
0230
0000
0320
,
0000
0000
0000
0000
0000
0130
0001
1000
,
0200
0000
0000
0020
0000
0000
0000
0000
,
0000
0000
0330
0200
0000
0320
0000
0031
,
0200
0000
0000
0020
0000
0000
0330
0000
,
2002
0000
0000
3003
,
0001
0100
0000
0100
0010
0000
1000
0000
0001
0000
0010
0100
0000
0100
1000
0000
,
1001
0000
0000
0000
1000
0000
0000
0100
0000
0100
0010
0000
0001
0000
0000
0010
,
0000
0100
0000
1000
0001
0000
0000
0100
0000
0010
0000
0100
0000
0000
0010
0000
,
1000
0000
0001
1000
0000
0000
0100
0000
0010
0000
0001
0010
0000
0000
0010
0000
,
0100
0000
1000
0100
0000
0000
0100
0000
0010
0000
0001
0010
0000
0000
0010
0000
,
0100
0000
0100
1000
0001
0000
0100
0000
0010
0000
1000
0000
0001
0000
0010
0000
,
0100
0000
1000
0000
1001
0000
0000
0000
0001
0100
0000
0100
0001
0000
0010
0000
,
0100
0000
0000
0100
0000
0000
0100
0000
1000
0000
0001
0000
0000
1000
0001
0000
,
1000
0000
0000
0010
0000
0000
1000
0000
0001
0000
0000
0010
0000
0010
0000
0000
,
0100
0000
0000
1000
0000
1000
0000
0000
0010
0000
0000
0100
0000
0100
0000
0100
,
0000
0000
0010
0000
0100
0001
0100
0001
1000
0100
0000
0100
1000
0000
0001
0000
,
0100
0000
0000
0001
0000
0000
0010
0000
0100
1000
0100
0000
1000
0000
0010
0000
,
0100
0000
0001
0010
0000
0010
0001
0000
1000
0000
0000
1100
0000
0001
0010
0000
,
1100
0000
0000
1010
0000
0101
0000
0010
0100
0000
0000
0110
0000
1001
0000
0110
,
0000
0000
1000
0000
1000
0000
1000
0001
1000
0100
0000
0010
0001
0000
0100
0000
,
0001
0000
1000
0000
0100
0000
0001
0000
0100
0000
1000
0100
0000
1000
0010
0000
,
0100
0000
0001
0010
0000
0100
0010
0000
0001
0000
0000
1000
0000
0010
0100
0000
,
0001
0000
0000
0010
0000
0100
0000
0010
0001
0000
0000
1000
0000
0001
0000
1000
,
0000
0000
0010
0000
1000
0000
0100
0010
0001
0000
1000
0000
0010
0000
0100
0000
,
0001
0000
0010
0100
0010
0000
0001
0000
1000
0000
0010
1000
0010
0000
0100
0000
,
0001
0000
0010
0100
0010
0000
0100
0000
1000
0100
1000
0000
0001
0100
0001
0000
,
1000
0010
1000
0000
0001
0010
0001
0000
1000
0000
0100
0000
0001
0000
0100
0000
,
1000
0010
0001
0010
1001
0000
0000
0000
;

//--------------- dance-single - Pandemonium X ----------------
#NOTES:
     dance-single:
     Pandemonium X:
     Hard:
     16:
     0.638475,1.081347,0.222671,0.246529,0.835017,562,534,28,31,0,0,3,0,0,0.638475,1.081347,0.222671,0.246529,0.835017,562,534,28,31,0,0,3,0,0:
0000
0000
0000
0000
,
0000
0000
0000
0000
,
0000
0000
0000
0000
,
0001
1000
0001
1000
,
0001
0000
0000
0000
0000
0000
0010
0000
0000
0001
0000
0000
0100
0000
0000
0001
0000
0000
0000
0000
0000
1000
0000
0000
0000
0000
0000
0000
0000
0000
1000
0000
0000
0000
0000
0000
1000
0000
0000
0000
0100
0000
0000
0000
1000
0000
0000
0000
,
0001
1000
0001
1000
,
0001
0000
0000
0000
0000
0000
0010
0000
0000
0001
0000
0000
1000
0000
0000
0010
0000
0000
0100
0000
0010
0000
0100
0000
0001
0000
0000
0000
1000
0000
0000
0000
0001
0000
0000
0000
0010
0000
0000
0000
0100
0000
0000
0000
1000
0000
0000
0000
,
0001
1010
1000
0011
,
0010
0000
0000
0000
0000
0000
0100
0000
0000
1000
0000
0000
0010
0000
0000
0100
0000
0000
0000
0000
0000
0100
0000
0000
0000
0000
0000
0000
0000
0000
0100
0000
0000
0000
0000
0000
0100
0000
0000
0000
0010
0000
0000
0000
1000
0000
0000
0000
,
0001
1100
1000
0101
,
1000
0000
0000
0000
0000
0000
0100
0000
0000
0010
0000
0000
0001
0000
0000
1000
0000
0000
0001
0000
0100
0000
0001
0000
2000
0000
0000
0000
0000
0000
0000
0000
3100
0000
0000
0000
0010
0000
0000
0000
0001
0000
0000
0000
0100
0000
0000
0000
,
0010
0000
0000
0010
0000
0000
0010
0000
0000
0000
0010
0100
0000
0100
0010
0100
,
0000
0000
0000
0000
0000
0000
0100
0000
0000
0010
0000
0000
0100
0000
0000
0001
0000
0000
0000
0000
0000
1000
0000
0000
0000
0000
0000
0000
0000
0000
0001
0000
0000
0000
0000
0000
0100
0000
0000
0000
0010
0000
0000
0000
0100
0000
0000
0000
,
0001
0000
0000
0001
0000
0000
0001
0000
0000
0000
1000
0100
0000
0100
1000
0001
,
0000
0000
0000
0000
0000
0000
0100
0000
0000
0010
0000
0000
1000
0000
0000
0001
0000
0000
0010
0000
0100
0000
0010
0000
0100
0000
0000
0000
1000
0000
0000
0000
0100
0000
0000
0000
0010
0000
0000
0000
0100
0000
0000
0000
1000
0000
0000
0000
,
0001
0000
0000
0001
0000
0000
0001
0000
0000
0000
1000
0010
0000
0010
0100
0000
,
0001
0000
0010
0000
0100
0000
0010
0000
0001
0000
1000
0000
0100
0000
0000
0010
0000
0000
0001
0000
0000
0100
0000
0000
,
1000
0100
0010
1000
0001
0010
0100
0010
,
0004
4000
0000
0000
0000
0000
0000
0000
0000
0000
0000
0000
3003
0000
0000
0000
,
0101
0000
0001
0100
0000
0010
1000
0000
0100
0000
0010
0100
0000
0010
0001
0010
,
0000
0000
0100
0000
0000
1000
0000
0000
0010
0000
0000
0100
0000
0010
0000
1000
,
0001
0000
0000
0100
0000
0001
1000
0000
1001
0000
0001
1000
0000
0001
0010
0100
,
2000
0000
0000
0000
0000
0000
3001
1000
1001
0000
0000
0110
0000
0110
0000
1001
,
0001
0000
0010
0001
0000
0010
0100
0000
0010
0000
0001
0100
0000
0010
1000
0100
,
0000
0000
0010
0000
0000
0100
0000
0000
1000
0000
0000
0001
2000
0000
0000
0000
,
3001
0000
0010
0000
0001
0000
0010
0000
0100
0010
0100
0000
0100
1000
0100
0000
,
0020
0000
0032
4003
0000
3001
0110
0000
,
1002
0000
0000
0000
,
2003
0000
0000
0000
,
3020
0000
0000
0130
,
1001
0000
0000
1000
0010
0100
0001
0000
0000
0001
0100
0010
1000
0000
0000
1000
0010
0100
0001
0000
0000
0001
0100
0010
,
2000
0000
0000
0000
,
3002
0000
0000
0000
,
0023
0000
0000
0030
,
1002
2003
3002
2003
,
3100
0000
0000
0000
0000
0010
0001
0100
,
0001
0000
1000
0001
0000
1000
0000
0010
,
0020
0000
0000
0000
0000
0130
0010
1000
,
0100
0000
0010
0001
0000
0100
0000
0002
,
0000
0000
0003
0000
0000
0100
0010
0200
,
0000
0000
0310
0100
0000
0001
0000
2000
,
0000
0000
0000
0100
0000
0100
0000
0200
,
0000
0000
0000
3300
,
1001
0000
0000
0000
0000
0001
0010
0100
,
1000
0000
0100
0010
0000
0001
0000
0020
,
0000
0000
0000
0230
0000
0320
0000
0230
,
0000
0000
0000
0000
0000
0310
0001
0100
,
0020
0000
0000
0200
0000
0000
0000
0000
,
0000
0030
0000
0320
0000
0230
0000
0302
,
0023
0000
0000
0200
0000
0000
0000
0330
,
1001
0000
1000
0001
0010
0001
1000
0010
0100
0010
1000
0001
0010
0100
1000
0001
,
1000
0010
0000
0010
0100
0000
0001
0000
1001
0000
1000
0010
0000
0100
0010
0000
,
1001
0000
0000
0000
0011
0000
0010
0001
0000
0001
0010
0000
0100
0000
1000
0001
,
0000
0001
0000
1000
0100
0000
0010
0001
0000
0001
0000
1000
0000
0000
0001
0000
,
0001
0100
0010
0100
0000
0000
0010
0000
1000
0100
0010
0100
0000
0000
0010
0000
,
0100
0010
0001
0100
0000
0000
0010
0000
0100
0010
1000
0100
0000
0000
0010
0000
,
0001
0100
0010
0100
0010
1000
0100
0000
0010
0001
0100
0000
0010
1000
0100
0010
,
0100
1000
0010
1000
0001
0000
0000
0000
1000
0010
0000
1000
0001
0000
1000
0100
,
0010
0000
0100
1000
0000
0001
0100
0000
0010
0000
1000
0000
0000
0001
0010
0000
,
0001
0000
0000
0100
0000
0010
0100
0001
0010
0000
0100
1000
0000
0010
1000
0000
,
0001
0000
1000
0100
0000
1000
0000
0001
0010
0000
0100
0010
0000
0100
0000
1000
,
0000
0000
0001
0000
0001
0010
0100
1000
0001
0010
0000
0001
1000
0000
0010
1000
,
0100
0000
0010
0001
0000
0010
0100
0000
1000
0100
0010
0001
0000
1000
0010
1000
,
0001
0000
0000
0011
0000
0100
1000
0001
0100
0000
0000
0110
0000
0010
1000
0000
,
1001
0000
0000
0011
0000
0110
0000
0100
0010
0000
0000
0011
0000
1001
0000
1001
,
0000
0000
1010
0000
1000
0010
0100
0001
0010
0001
0000
0010
0100
0000
0010
0000
,
0001
0000
1000
0010
0000
0100
0001
0000
1000
0100
0000
0010
0100
0000
1000
0000
,
0001
0000
1000
0010
0000
1000
0100
0000
0010
0000
0100
0010
0001
0000
0010
0000
,
0001
0000
1000
0010
0100
0000
0001
0000
1000
0000
0001
1000
0000
1000
0000
0100
,
0000
0000
0010
0000
0100
0000
1000
0000
0001
0010
0001
0000
1000
0010
1000
0000
,
0001
0100
0001
0000
1000
0100
1000
0000
0001
0010
0100
1000
0001
1000
0001
1000
,
0001
0010
0100
0010
0001
0100
0010
1000
0100
0010
0100
1000
0010
0100
0001
1000
,
0100
0000
0010
0000
0100
0000
0010
0000
0100
0000
0010
0000
0001
0000
0010
0000
0001
0000
0010
0000
0001
0000
1000
0000
0001
0000
0000
0010
0000
0000
0100
0000
0000
0010
0000
0000
0100
0000
0000
1000
0000
0000
0100
0000
0000
0010
0000
0000
,
0100
1000
0001
0010
0100
0010
0001
1000
0001
0000
0000
0000
0000
0000
0000
0000
;

//--------------- dance-double - Pandemonium X ----------------
#NOTES:
     dance-double:
     Pandemonium X:
     Easy:
     8:
     0.324918,0.52606,0.341959,0.262434,0,286,243,43,33,0,0,0,0,0,0.324918,0.52606,0.341959,0.262434,0,286,243,43,33,0,0,0,0,0:
00000000
00000000
00000000
00000000
,
00000000
00000000
00000000
00000000
,
00000000
00000000
00000000
00000000
,
10010000
00000000
00000000
00000000
,
00000000
10000000
01000000
00010000
,
00000000
00000000
00000000
00000000
,
00000000
01000000
00010000
00100000
,
00000000
00011000
00000000
00010100
,
00000000
00001100
00000000
00000110
,
00000000
00000011
00000000
00000101
,
00001020
00000000
00020030
00031000
,
00011000
00001000
01000000
00100000
,
10000000
01000000
00010000
01000000
,
10000000
00010000
00100000
00001000
,
00010000
00000100
00000010
00000001
,
00001000
00001000
00000100
00000100
,
00010000
00010000
00001000
00001000
,
01000000
00100000
10000000
00010000
,
00110000
00000000
00000000
00000000
,
10000000
00010000
00100000
00001000
,
00010000
00000100
00001000
00000010
,
00000100
00000001
00000010
00000100
,
00001100
00000000
00000000
00000100
00010100
00000000
00011000
00000000
,
01000000
00100000
01000000
00001000
,
00010000
00000100
00010000
00001000
,
01001000
01000000
01100000
00100000
,
20100000
00000000
30020000
00000000
00130000
00001000
00010000
00000000
,
00021000
00000000
00030200
00000000
,
00002300
00000000
00003020
00000000
,
00000230
00000000
00000302
00000013
,
00001100
00011000
01010000
01100000
,
10200000
00000000
02300000
00000000
,
03002000
00000000
00023000
00000000
,
00030200
00000000
00020300
00000000
,
00031000
00001000
00010000
00010000
,
00011000
00000000
00000000
00001000
,
01000000
00000000
00000000
00100000
00000000
10000000
00000000
00020000
,
00000000
00000000
00030000
00100000
,
00001000
00000000
00000000
00010000
00000000
00000100
00000000
00020000
,
00000000
00000000
00000000
00030000
00000000
00000000
00000000
00000100
,
00000000
00000000
00000000
00001000
00000000
00000001
00000000
00000200
,
00000000
00000000
00000000
00000310
00000000
00001000
00000000
00000200
,
00000000
00000000
00000000
00000300
,
00001001
00000000
00000000
00000001
,
00000100
00000000
00000000
00000010
00000000
00000010
00000000
00000020
,
00000000
00000000
00000000
00010000
00000000
00010000
00000000
00020030
,
00000000
00000000
00000000
00000000
00000000
00031000
01000000
00100000
,
20000000
00000000
00000000
02000000
00000000
00000000
00000000
00000000
,
33000000
00000000
00000000
00100000
00000000
00001000
00000000
00010000
,
00000200
00000000
00000000
00002000
00000000
00000000
00000300
00000000
,
00000020
00000000
00000000
00003030
,
00000101
00001010
00001100
00010100
,
00011000
00101000
00110000
00101000
,
00011000
00000000
00101000
00000000
00110000
00000000
00000000
01000000
,
10000000
01000000
00000000
10000000
00100000
10000000
00000000
00010000
,
01000000
00010000
00000000
00100000
00010000
00100000
00000000
00001000
,
00100000
00001000
00010000
00000000
00000100
00000000
00001000
00000000
,
00000010
00000101
00000001
00001000
,
00000010
00001000
00000100
00010000
,
00001000
00000000
01000000
00100000
10000000
00000000
01000000
00000000
,
00100000
00001000
00010000
00000100
,
00001000
00000010
00000100
00000001
00001000
00000000
00000001
00000000
,
00001000
00000000
00000100
00000000
00010000
00001000
00100000
00000000
,
11000000
00000000
10000000
00000000
10100000
00000000
00100000
01000000
,
00010000
00000000
00100000
00001000
00010000
00000000
00000100
00001000
,
00000010
00000100
00000001
00001010
,
00000001
00000100
00000010
00000000
00001000
00000000
00001100
00000000
,
00000100
00010000
00001000
00000000
00010000
00000000
00011000
00000000
,
00001000
01001000
01000000
01100000
,
01000000
00010000
00100000
00000000
01000000
10000000
00010000
00000000
,
01000000
00000000
00001000
00000000
00010000
00000100
00001000
00000000
,
00000010
00000000
00000100
00000000
00000002
00000000
00000000
00000023
,
00000000
00000000
00000230
00020300
,
00032000
02003000
03100000
00000000
;

//--------------- dance-double - Pandemonium X ----------------
#NOTES:
     dance-double:
     Pandemonium X:
     Medium:
     12:
     0.44307,0.555286,0.310149,0.167003,0.274363,390,351,39,21,0,0,0,0,0,0.44307,0.555286,0.310149,0.167003,0.274363,390,351,39,21,0,0,0,0,0:
00000000
00000000
00000000
00000000
,
00000000
00000000
00000000
00000000
,
00000000
00000000
00000000
00000000
,
10000000
00010000
01000000
00010000
,
00100000
00000000
00000000
00001000
00000000
00000000
00010000
00000000
00000000
00000100
00001000
00000100
,
00001000
00000100
00000010
00000001
,
00000100
00000000
00000000
00000010
00000000
00000000
00001000
00000000
00000000
00000001
00000000
00000000
00000010
00000000
00000100
00000000
00000010
00000000
00000001
00000000
00001000
00000000
00000010
00000000
,
00000100
00000101
00000001
00000011
,
00000010
00000000
00000000
00000110
00000000
00000000
00000100
00000000
00000000
00001000
00000100
00001000
,
00000100
00010100
00010000
00011000
,
02001000
00000000
00000000
00000000
00000000
00000000
03100000
00000000
00000000
01000000
00100000
10000000
,
00010000
10000000
01000000
00100000
,
00001000
00000000
00000000
00010000
00000000
00000000
00000100
00000000
00000000
00001000
00000010
00001000
,
00000010
00000100
00000001
00000010
,
00000100
00000000
00000000
00000010
00000000
00000000
00000001
00001000
00000001
00000010
00000001
00001000
,
00000100
00010000
00001000
01000000
,
00100000
10000000
01000000
00010000
,
01000000
00100000
00001000
00010000
,
00022000
00000000
00000000
00033000
,
00010000
00000000
00000000
00000100
00000000
00000000
00001000
00000000
00000010
00000000
00000000
00000100
00000000
00000000
00000001
00000000
,
00000000
00000000
00000010
00000000
00000000
00000100
00000000
00000000
00001000
00000000
00000000
00000100
00000000
00000000
00010000
00000000
,
00001000
00000000
00000000
00100000
00000000
00000000
01000000
00000000
11000000
00000000
00000000
00110000
00000000
00000000
10010000
00000000
,
00000000
00000000
00000000
00000000
00000000
00000000
10000000
00100000
10000000
00000000
00000000
01000000
00000000
00100000
00000000
00001000
,
00010000
00000000
00000000
00000100
00000000
00000100
00000000
00000000
00001000
00000000
00000000
00000010
00000000
00000000
00000100
00000000
,
00000000
00000000
00000001
00000000
00000000
00000010
00000000
00000000
00000100
00000000
00000000
00000010
00000000
00000000
00000001
00000000
,
00000101
00000000
00000001
00000100
00000010
00010000
00001000
00010000
,
00020100
00000000
00000000
00000000
00032000
00000000
00000000
00000000
00103000
00001000
00100000
00000000
00110000
00000000
00000000
00000000
,
21000000
00000000
00000000
30000000
,
00200000
00000000
00000000
00300000
,
02000000
00000000
00000000
03010000
,
00110000
00001010
00110000
00001010
,
00021000
00000000
00000000
00030000
,
00000200
00000000
00000000
00000300
,
00002000
00000000
00000000
00003000
,
00001001
00000110
00001001
00000110
,
00001001
00000000
00000000
00000000
00000000
00000001
00000100
00000100
,
00000001
00000000
00001000
00000100
00000000
00010000
00000000
00000020
,
00000000
00000000
00000000
00000000
00000030
00000100
00000010
00001000
,
00000100
00000000
00010000
00001000
00000000
01000000
00000000
00002000
,
00000000
00000000
00003000
00000000
00000000
00010000
00000100
00001000
,
00000000
00000000
00000100
00010000
00000000
00001000
00000000
00020000
,
00000000
00000000
00000000
00001000
00000000
00001000
00000000
00002000
,
00000000
00000000
00000000
00033000
,
00101000
00000000
00000000
00000000
00000000
00100000
01000000
10000000
,
00010000
00000000
00010000
01000000
00000000
10000000
00000000
01000000
,
00000000
00000000
00000000
00100000
00000000
10000000
00000000
00020000
,
00000000
00000000
00000000
00000000
00030000
10000000
01000000
00010000
,
00002000
00000000
00000000
02003000
00000000
00000000
00000000
00000000
,
03000000
00000000
00000000
01100000
00000000
01010000
00000000
00010000
,
00200000
00000000
00000000
00302000
00000000
00000000
00000000
00000000
,
00020000
00000000
00000000
00033000
,
00010000
00000100
00000000
00000100
00001000
00000000
00000010
00000000
00000100
00000000
00000000
00000001
00000000
00000000
00001000
00000000
,
00001001
00000000
00000000
00000000
00000001
00000000
00000000
00000100
00000000
00000010
00001000
00000000
00000100
00000000
00000000
00010000
,
00000000
00001000
00000000
00010000
00000100
00000000
00000000
00010000
00000000
00010000
00000000
00001000
00000000
00000000
00010000
00000000
,
00001000
01000000
00000000
00100000
10000000
01000000
00000000
10000000
,
01000000
00100000
00000000
00100000
00001000
00010000
00000000
00000100
,
00001000
00000010
00000100
00000001
00000010
00000100
00010000
00001000
,
01000000
00100000
10100000
00000000
10000000
01000000
01100000
00000000
,
00100000
00000000
00101000
00000000
00001000
00010000
00010100
00000000
,
00000100
00000000
00001010
00000000
00000010
00000100
00000101
00000000
,
00000001
00000000
00000011
00000000
00000010
00000100
00001000
00000000
,
00001100
00000000
00000100
00000000
00010000
00001000
00010000
00001000
01000000
00000000
00100000
00000000
10100000
00000000
00000000
00000000
,
10000000
00000000
10010000
00000000
00010000
00100000
00001000
00000000
,
00001000
00000000
00000000
00010000
00000000
00010000
00000000
00010000
00000010
00000000
00000000
00000100
00000000
00000001
00000010
00000000
,
00000100
00000000
00000000
00001000
00000000
00000010
00000000
00000100
00000001
00000000
00000000
00000100
00000000
00000010
00000000
00001000
,
00000000
00000000
00000100
00000000
00010000
00000000
00001000
01000000
00100000
10000000
00000000
10000000
01000000
00000000
00100000
00000000
,
01000000
00000000
10000000
00000000
00010000
00000000
00000000
00000000
00100000
00001000
00000000
00001000
00010000
00000000
00000100
00000000
,
00001000
00000000
00000010
00000000
00000100
00000000
00000000
00000000
00000010
00000000
00000000
00001000
00000000
00000001
00000010
00000000
,
00000100
00000000
00000000
00001000
00000000
00000100
00000000
00010000
00001000
00000000
00000000
00010000
00000000
00010000
00000000
00010000
,
00000000
00001000
01000000
00100000
10000000
01000000
00010000
01000000
,
00100000
00001000
00010000
00000100
00001000
00000010
00000100
00001000
,
00000100
00000001
00000100
00001000
00010000
00100000
01000000
10000000
,
01000000
00010000
00001000
00010000
00000100
00001000
00000010
00000001
,
00000010
00001000
00000100
00010000
00011000
00000000
00000000
00000000
;

//--------------- dance-double - Pandemonium X ----------------
#NOTES:
     dance-double:
     Pandemonium X:
     Hard:
     16:
     0.693007,0.964444,0.556678,0.190861,0.827064,610,540,70,24,0,0,0,0,0,0.693007,0.964444,0.556678,0.190861,0.827064,610,540,70,24,0,0,0,0,0:
00000000
00000000
00000000
00000000
,
00000000
00000000
00000000
00000000
,
00000000
00000000
00000000
00000000
,
10000000
00100000
00010000
00100000
,
01000000
00000000
00000000
00000000
00000000
00000000
00010000
00000000
00000000
00100000
00000000
00000000
00001000
00000000
00000000
00010000
00000000
00000000
00000000
00000000
00000000
00001000
00000000
00000000
00000000
00000000
00000000
00000000
00000000
00000000
00001000
00000000
00000000
00000000
00000000
00000000
00010000
00000000
00000000
00000000
00000100
00000000
00000000
00000000
00010000
00000000
00000000
00000000
,
00001000
00010000
00000100
00001000
,
00000010
00000000
00000000
00000000
00000000
00000000
00000100
00000000
00000000
00000001
00000000
00000000
00000100
00000000
00000000
00000010
00000000
00000000
00000100
00000000
00000001
00000000
00000100
00000000
00000010
00000000
00000000
00000000
00010000
00000000
00000000
00000000
00001000
00000000
00000000
00000000
00100000
00000000
00000000
00000000
01000000
00000000
00000000
00000000
10000000
00000000
00000000
00000000
,
00010000
10010000
00010000
00110000
,
00100000
00000000
00000000
00000000
00000000
00000000
00001000
00000000
00000000
00010000
00000000
00000000
00000100
00000000
00000000
00001000
00000000
00000000
00000000
00000000
00000000
00001000
00000000
00000000
00000000
00000000
00000000
00000000
00000000
00000000
00001000
00000000
00000000
00000000
00000000
00000000
00001000
00000000
00000000
00000000
00000100
00000000
00000000
00000000
00000010
00000000
00000000
00000000
,
00000001
00000011
00000001
00000101
,
00001010
00000000
00000000
00000000
00000000
00000000
00000010
00000000
00000000
00010000
00000000
00000000
00001000
00000000
00000000
00010000
00000000
00000000
00000010
00000000
00010000
00000000
00001000
00000000
00020000
00000000
00000000
00000000
00000000
00000000
00000000
00000000
00000000
00031000
00000000
00000000
01000000
00000000
00000000
00000000
00100000
00000000
00000000
00000000
10000000
00000000
00000000
00000000
,
11000000
00000000
00000000
01100000
00000000
00000000
11000000
00000000
00000000
00000000
10000000
00010000
00000000
00010000
00100000
00001000
,
00000000
00000000
00000000
00000000
00000000
00000000
00010000
00000000
00000000
00000100
00000000
00000000
00010000
00000000
00000000
00000100
00000000
00000000
00000000
00000000
00000000
00001000
00000000
00000000
00000000
00000000
00000000
00000000
00000000
00000000
00001000
00000000
00000000
00000000
00000000
00000000
00000100
00000000
00000000
00000000
00010000
00000000
00000000
00000000
00001000
00000000
00000000
00000000
,
01001000
00000000
00000000
01010000
00000000
00000000
01001000
00000000
00000000
00000000
01000000
00100000
00000000
00100000
01000000
00010000
,
00000000
00000000
00000000
00000000
00000000
00000000
00100000
00000000
00000000
00001000
00000000
00000000
00010000
00000000
00000000
00000100
00000000
00000000
00001000
00000000
00000001
00000000
00001000
00000000
00000001
00000000
00000000
00000000
00000100
00000000
00000000
00000000
00001000
00000000
00000000
00000000
00000100
00000000
00000000
00000000
00000001
00000000
00000000
00000000
00000010
00000000
00000000
00000000
,
00000100
00001000
00000100
00010000
00001000
01000000
00100000
10000000
,
01000000
00010000
01000000
10000000
00100000
00010000
00100000
01000000
,
00010000
00100000
00001000
00010000
00000100
00001000
00000010
00001000
,
00022000
00000000
00000000
00033000
,
01010000
00000000
01000000
00001000
00000000
00010000
00000100
00000000
00001000
00000000
00000100
00000010
00000000
00000010
00000001
00001000
,
00000000
00000000
00000010
00000000
00000000
00000100
00000000
00000000
00000001
00000000
00000000
00001100
00000000
00010100
00000000
00001100
,
00000100
00000000
00010000
00001000
00000000
01000000
00100000
00000000
10000000
00000000
01000000
10000000
00000000
01000000
00100000
00000000
,
11000000
00000000
00000000
00000000
00000000
00000000
01000000
00100000
00010000
00000000
00000000
00110000
00000000
00001010
00000000
00011000
,
00010000
00000000
00001000
00010000
00000000
00000100
00001000
00000000
00000010
00000000
00000100
00000001
00000000
00000010
00000100
00001000
,
00000000
00000000
00000100
00000000
00010000
00001000
00000000
00001000
01000000
00000000
00000000
01100000
00000000
10100000
00000000
00010000
,
10010000
00000000
10000000
00000000
00010000
00000000
00100000
00000000
00001000
00000000
00010000
00000000
00000100
00001000
00000010
00000100
,
00000002
00000000
00000000
00000000
00000013
00000100
00001000
00000100
00010000
00001000
01000000
00100000
10000000
00000000
10010000
00000000
,
10200000
00000000
00000000
10300000
02000000
00000000
03000000
00000000
,
00000000
00000000
00000000
00100000
00020000
00000000
00030000
00000000
,
00000000
00000000
00000000
00010000
00001000
00000000
00001100
00000000
,
00011000
00000000
00000000
00100000
00001000
00010000
00000010
00000000
00000000
00000010
00010000
00001000
00100000
00000000
00000000
00001000
00010000
00000100
00010000
00000000
00000000
00001000
01000000
00001000
,
00010000
00000000
00000000
00001000
00020000
00000000
00000000
00000000
,
00030000
00000000
00000000
00000100
00000020
00000000
00000000
00000000
,
00000030
00000000
00000000
00000100
00002000
00000000
00003000
00000000
,
00001001
00011000
10010000
01100000
,
10010000
00000000
00000000
00000000
00000000
10000000
01000000
00010000
,
01000000
00000000
00100000
00010000
00000000
00100000
00000000
00002000
,
00000000
00000000
00003000
00000000
00000000
00010000
00001000
00000010
,
00000001
00000000
00000010
00000100
00000000
00001000
00000000
00000020
,
00000000
00000000
00000000
00000000
00000030
00000100
00001000
00010000
,
00000000
00000000
00010000
00001000
00000000
01000000
00000000
00200000
,
00000000
00000000
00000000
02300000
00000000
03002000
00000000
00020000
,
00000000
00000000
00000000
00033000
,
00100010
00000000
00000000
00000000
00000000
00010000
00000100
00001000
,
00000010
00000000
00000100
00000001
00000000
00000010
00000000
00002000
,
00000000
00000000
00000000
00003020
00000000
00002030
00000000
00000200
,
00000000
00000000
00000000
00000000
00003300
00001000
00000100
00010000
,
00001000
00000000
00000000
00022000
00000000
00000000
00000000
00000000
,
00000000
00000000
00003000
00031000
00000000
01000000
00000000
00100000
,
01000000
00000000
00000000
00022000
00000000
00000000
00000000
00033000
,
00011000
00000000
00010000
00000100
00001000
00000010
00000100
00000010
00010000
00001000
01000000
00100000
10000000
01000000
00100000
00010000
,
00100000
01000000
00000000
01000000
10000000
00000000
10010000
00000000
00110000
00000000
00100000
00001000
00000000
00000010
00000100
00000000
,
00001001
00000000
00000000
00000000
00001001
00000000
00000001
00000100
00000000
00000010
00001000
00000000
00010100
00000000
00000000
00011000
,
00000000
01001000
00000000
01000000
00100000
00000000
00000000
10100000
00000000
01010000
00000000
10100000
00000000
00000000
01001000
00000000
,
01000000
00001000
00010000
00000100
00000000
00000000
00010000
00000000
00001000
00100000
00001000
00010000
00000000
00000000
00000100
00000000
,
00010000
00000010
00000100
00000010
00000000
00000000
00000100
00000000
00000010
00010000
00001000
00100000
00000000
00000000
00100000
00000000
,
01000000
10000000
00010000
00100000
00001000
00010000
00000100
00001000
00000010
00000001
00000010
00001000
00000100
00010000
00001000
01000000
,
00100000
10000000
01000000
00100000
00010000
00000000
00000000
00000000
10000000
00100000
00000000
00100000
00010000
00000000
10000000
00000000
,
10010000
00000000
10000000
01000000
00000000
01000000
00010000
00000000
10010000
00000000
00110000
00000000
00000000
00100000
00001000
00000000
,
00011000
00000000
00000100
00001000
00000000
00000001
00000100
00000010
00000100
00000000
00000000
00000010
00000000
00001000
00000001
00000000
,
00000011
00000000
00000000
00001000
00000000
00000100
00000000
00010000
00001000
00000000
00000000
00011000
00000000
00010100
00000000
00011000
,
00000000
00000000
00011000
00000000
00010000
00000010
00000100
00000001
00001000
00000100
00000000
00000100
00000001
00000000
00001000
00000001
,
00001000
00000000
00000001
00000010
00000000
00000010
00001000
00000000
00001000
00000010
00010000
00001000
00000000
00010000
00001000
01000000
,
00100000
00000000
10000000
01000000
00000000
01000000
00010000
10000000
00010000
00000000
00100000
00001000
00000000
00010000
00000100
00000000
,
00000110
00000000
00000000
00001001
00000000
00000110
00000000
00001000
00001001
00000000
00000000
00000101
00000000
00001010
00000000
00000101
,
00000000
00000000
00000001
00000000
00000100
00000000
00000010
00010000
00001000
00010000
00000000
00001000
01000000
00000000
00100000
00000000
,
10000000
00000000
01000000
10000000
00000000
01000000
10000000
00010000
01000000
00000000
00010000
00000000
00000000
00100000
00001000
00000000
,
00010000
00000000
00000100
00001000
00000000
00000100
00000010
00000100
00001000
00000000
00000000
00001100
00000000
00000100
00000010
00000000
,
00000011
00000000
00000000
00000101
00000000
00000101
00000000
00000010
00001000
00000000
00000000
00001100
00000000
00011000
00000000
00001100
,
00000000
00000000
00010000
00000000
00000100
00000000
00010000
00001000
01000000
00010000
01000000
00000000
00100000
10000000
00100000
00000000
,
10000000
00010000
10000000
00000000
00010000
00100000
00010000
00000000
00100000
00001000
00100000
00010000
00100000
00001000
00100000
00010000
,
00100000
00001000
00010000
00000100
00001000
00000100
00001000
00000010
00000100
00001000
00000100
00000001
00000010
00001000
00000010
00000001
,
00000010
00000100
00001000
00000100
00010000
00001000
01000000
00100000
10000000
00000000
10000000
01000000
00100000
00010000
00001000
00000100
,
00000010
00000001
00000010
00000100
00000010
00000001
00001000
00000100
00000010
00000000
00000000
00000000
00000000
00000000
00000000
00000000
;
