#TITLE:Nightmare before oversleep;
#SUBTITLE:;
#ARTIST:猫叉Master;
#TITLETRANSLIT:;
#SUBTITLETRANSLIT:;
#ARTISTTRANSLIT:Nekomata Master;
#GENRE:;
#CREDIT:;
#MUSIC:Nightmare before oversleep.ogg;
#BANNER:Nightmare before oversleep.png;
#BACKGROUND:Nightmare before oversleep-bg.png;
#CDTITLE:;
#SAMPLESTART:76.893;
#SAMPLELENGTH:10.105;
#SELECTABLE:YES;
#OFFSET:-0.807;
#BPMS:0.000=47.500
,4.000=95.000
,34.000=190.000
,193.000=95.000
,195.000=190.000
,288.000=47.500
;
#STOPS:195.000=0.316
,287.500=1.263
;
#BGCHANGES:;
#FGCHANGES:;

//--------------- dance-single - Pandemonium X ----------------
#NOTES:
     dance-single:
     Pandemonium X:
     Beginner:
     6:
     0,0,0,0,0:
0000
0000
0000
0000
,
0001
0000
1000
0000
,
0010
0000
0100
0010
,
1000
0000
0010
0100
,
0001
1001
0110
0000
,
0001
1000
0100
0000
,
0010
0000
0100
0000
,
0010
0000
0001
0000
,
1000
0000
0110
0000
,
0000
0000
0000
0000
,
0000
0000
0001
0000
,
0000
0000
0000
0000
,
0000
0000
1000
0000
,
0001
0000
0100
0000
,
0010
0000
0010
0000
1000
0000
0000
1000
,
0000
0000
1000
0000
0000
1000
0000
0000
,
1000
0001
1000
0000
,
0000
0000
0010
0000
,
0100
0000
0001
0000
,
0000
0000
0010
0000
,
0100
0100
0010
0000
,
0000
0000
0001
0000
,
0000
0000
0000
0000
0010
0000
0000
0010
,
0000
0000
0001
0000
0000
0002
0000
0000
,
0000
0000
1003
0000
,
0000
0000
0010
0000
,
0100
0000
0001
0000
,
0000
0000
0010
0000
,
0100
0100
1000
0000
,
0000
0000
0100
0000
,
0000
0000
0000
0000
1000
0000
0000
1000
,
0000
0000
0001
0000
0000
0200
0000
0000
,
0000
0000
0310
0000
,
0000
0100
0000
0000
,
0001
0000
0000
0010
,
0000
0000
0100
0000
,
0000
1000
0000
0000
,
0100
1000
0010
0100
,
0000
0000
0001
0000
,
0000
0010
0000
0000
,
0100
0010
0001
1000
,
0000
0001
1000
0000
,
0000
0001
0000
0000
,
1000
0000
0000
0010
,
0000
0000
0100
0000
,
0000
1001
0000
0000
,
0110
0000
0000
1001
,
0000
0000
0110
0110
,
1001
0000
0000
0000
,
0001
0000
0000
0000
,
1000
0000
0010
0000
,
0100
0000
0000
0000
,
0010
0000
1000
0000
,
1001
0000
0000
0000
,
0110
0000
0000
0000
,
1001
0001
0001
0000
,
1000
0000
0001
0000
,
0010
0000
0001
0100
,
0001
0000
0100
0000
,
0010
0000
1000
0001
,
0110
0000
0000
0000
,
0110
0000
0000
0000
,
1001
0000
0000
0000
,
1001
0000
0000
0000
,
1000
0000
0000
0000
,
0001
0000
0000
0000
,
0100
0000
0000
0000
,
0010
0100
0001
1000
,
0100
0000
0000
0000
,
0010
0000
0000
0000
,
0100
0000
0000
0000
,
1000
1000
1000
1000
,
0001
0000
0000
0001
;

//--------------- dance-single - Pandemonium X ----------------
#NOTES:
     dance-single:
     Pandemonium X:
     Easy:
     9:
     0,0,0,0,0:
0000
0000
0000
0000
,
0001
1000
0010
1000
,
0001
0000
0010
0000
0100
0000
0010
0100
,
0010
0000
0100
0010
0100
1000
0010
0100
,
0001
1001
1010
0010
,
0100
0001
0011
0010
,
0110
0000
0100
1000
1010
0000
0010
0100
,
0001
1000
0100
1000
0010
0000
0000
0000
,
0100
0000
0000
0000
0001
0000
0000
1000
,
0000
0000
0100
0000
0000
1000
0000
0000
,
0010
0000
0010
0000
0100
0000
0000
0001
,
0000
0000
1000
0000
0000
0100
0000
0000
,
0010
0000
0100
0000
1000
0000
0000
0100
,
0000
0000
1000
0000
0000
0010
0000
0000
,
0100
0000
0100
0000
0001
0000
0000
1000
,
0000
0000
0010
0000
0000
0100
0000
0000
,
0001
1000
0001
0100
,
0001
0010
0001
0100
,
0010
1010
0010
0100
,
0001
0010
0100
1000
,
0200
2300
3010
0100
,
0001
0010
0100
0010
,
0001
0000
0100
0000
0001
0000
0000
1000
,
0000
0000
0010
0000
0000
0200
0000
0000
,
0000
0000
0000
0000
0310
0000
0000
1000
,
0000
0000
0001
0000
0000
0010
0000
0000
,
0100
1000
0100
0000
1000
0000
0000
0001
,
0000
0000
0010
0000
0000
0100
0000
0000
,
0010
0001
0100
0001
0010
0000
0000
0001
,
0000
0000
1000
0000
0000
0010
0000
0000
,
0100
0000
0001
0000
1001
0000
0000
1010
,
0000
0000
1001
0000
0000
0021
0000
0000
,
0001
0000
0031
0000
1001
0000
0000
1000
,
0000
0000
0001
0000
0000
0010
0000
0000
,
1000
0000
0000
0010
0000
0000
0001
0000
,
0010
0100
0010
0001
,
1000
0100
0010
0100
,
1001
0110
1001
0001
,
0000
1000
0000
0000
0001
0000
0000
0100
,
0000
0000
0001
0000
0000
0010
0000
0000
,
1000
0010
0100
1000
,
0010
0001
0010
0100
,
0001
0000
1000
0000
0000
1000
0000
0000
,
0001
0000
0000
0001
0000
0000
0100
0000
,
0000
0100
0000
0000
0010
0000
0000
0010
,
0000
0000
0110
0000
0000
1010
0000
0000
,
0110
0000
0000
0101
0000
0000
0011
0000
,
0000
1100
0000
0000
1001
0000
0110
0000
,
1001
0000
0000
0000
,
0001
0100
0001
0010
,
0001
1000
0100
0010
,
0100
1000
0010
0100
,
0001
0010
0100
1000
,
0011
0000
0000
0001
,
1010
0000
0000
1000
,
0001
0001
1000
1000
,
0110
0001
0100
1000
,
0100
0010
1000
0001
,
0010
1000
0010
0001
,
0100
0001
1000
0010
,
1001
0000
0000
0001
,
1100
0000
0000
1000
,
0101
0000
0000
0001
,
2000
3100
0020
0031
,
0102
0100
0100
0103
,
2010
0010
0010
3010
,
0102
0100
0100
0103
,
1001
0110
1001
0110
,
2100
0100
0100
3100
,
0012
0010
0010
0013
,
2100
0100
0100
3100
,
2000
0000
0000
0000
0002
0000
0000
3003
,
0110
0000
0000
0110
;

//--------------- dance-single - Pandemonium X ----------------
#NOTES:
     dance-single:
     Pandemonium X:
     Medium:
     13:
     0,0,0,0,0:
0000
0000
0000
0000
,
0001
0010
0100
0010
,
0001
0000
1000
0000
0010
0000
0100
0001
,
1000
0000
0001
0010
0100
0010
0001
1000
,
0001
1010
0101
0001
,
1100
0010
1001
0100
,
1001
0000
0001
1000
1100
0000
0100
0010
,
0110
1000
0010
0100
0101
0000
0000
0000
,
1100
0000
0000
0000
1001
0000
0001
0100
,
0000
0100
0010
0000
0010
1000
0000
1000
,
0001
0000
1001
0000
1100
0000
1000
0100
,
0000
0100
0010
0000
0010
0001
0000
0001
,
0101
0101
0201
0010
,
0320
1000
0230
0301
,
0002
0000
2003
0000
3100
0100
0010
0100
,
0100
1000
0010
0010
0100
0010
0010
0100
,
0002
0000
2003
0000
3100
0010
0001
0010
,
0100
0010
0001
0010
0100
0010
0001
0010
,
0100
0000
1001
0000
1000
0010
0100
0010
,
1000
0010
0100
0010
1000
0010
0100
0001
,
1000
1000
0001
0001
1001
1000
0100
0010
,
0100
1000
0100
0010
0100
1000
0100
0010
,
0100
1000
0001
0100
0110
0000
0000
0101
,
0000
0000
0011
0000
0000
0010
0010
0001
,
1000
0010
0010
0100
1001
0001
0100
0001
,
1000
0100
1000
0001
0100
0001
1000
0100
,
1000
0100
0010
0100
1000
0001
0010
0001
,
1000
0010
1000
0001
0010
0001
1000
0010
,
1000
0010
0001
0010
1000
0001
0010
0001
,
1000
0010
1000
0001
0010
0001
1000
0100
,
1000
0001
0010
0100
1100
0000
0001
0101
,
0000
1000
1010
0000
0010
0100
0100
0001
,
0010
0010
0100
1000
1001
0000
0000
0001
,
0000
0000
1000
0000
0000
0100
0000
0000
,
0110
0000
0000
0100
0000
0000
1000
0000
,
0100
0010
0001
0010
,
1000
0000
0010
0000
0100
0010
0001
0100
,
2000
3000
0200
0300
0002
0003
1002
0000
,
0000
0013
0000
0000
2001
0000
0000
3010
,
0000
0000
2100
0000
0000
3001
0000
0000
,
1000
0001
0010
1000
,
0010
0000
0100
0000
0010
0000
0001
0100
,
0010
1000
0002
0000
0000
2003
0000
0000
,
3002
0000
0000
0023
0000
0000
2030
0000
,
0000
3020
0000
0000
0032
0000
0000
2003
,
0000
0000
3001
0000
0000
0100
0000
0000
,
1000
0000
0000
0010
0000
0000
0001
0000
,
0000
0100
0000
0000
1000
0000
0010
0000
,
0001
2000
0000
3000
,
0001
0100
0010
0100
,
0001
0000
0000
0000
1000
0000
0100
0000
0010
0000
0001
1000
0001
0000
1000
0000
,
0100
0000
1000
0000
0010
0000
0100
0001
,
0010
0100
1000
0010
1000
0100
0010
0100
,
1100
0000
0000
0000
0000
1000
0010
0010
,
0101
0000
0000
0000
0000
0001
0010
0010
,
0110
0011
1100
1001
,
0001
0100
0010
0100
,
0001
0000
0000
0000
1000
0000
0100
0000
1000
0000
0010
0100
0010
0000
1000
0000
,
0001
0000
0010
0000
0001
0000
1000
0100
,
1000
0010
0100
0001
0010
0100
0010
0001
,
1001
0000
0000
0000
0000
0001
0100
0100
,
1010
0000
0000
0000
0000
1000
0010
0010
,
0101
0000
0000
0000
0000
0001
0010
0010
,
0200
1300
0200
0310
,
1001
0000
0000
0001
0010
0000
0000
0010
0100
0000
0000
0100
1000
0000
0010
0000
,
0100
0000
0000
0001
1000
0000
0000
1000
0100
0000
0000
0100
0010
0000
0001
0000
,
0100
0000
0000
0010
1000
0000
0000
1000
0001
0000
0000
0001
0010
0000
0100
0000
,
0010
0001
1000
0100
1000
0010
0100
0001
,
1000
0000
0000
0001
0100
0000
0000
0010
1000
0000
0000
0100
0010
0000
0100
0000
,
1000
0000
0000
0100
1000
0000
0000
0010
0100
0000
0000
0010
1000
0000
0001
0000
,
0010
0000
0000
0100
0010
0000
0000
0001
0100
0000
0000
0010
0100
0000
0001
0000
,
1000
1000
0001
0001
0100
0100
0010
0010
,
1001
0000
0000
1001
;

//--------------- dance-single - Pandemonium X ----------------
#NOTES:
     dance-single:
     Pandemonium X:
     Hard:
     16:
     0,0,0,0,0:
0000
0000
0000
0000
0000
0000
0000
0000
0000
0000
0000
0000
0000
0000
0000
0000
0000
0000
0000
0000
0000
0000
0000
0000
0000
0000
0000
0000
0000
0000
0001
1000
,
0001
0010
1000
0010
,
0001
0000
0100
0000
1000
0000
0100
0010
,
1000
0000
0100
0001
0100
0010
0001
0100
,
0010
1001
0201
0310
,
1020
0130
2001
3010
,
1002
0000
0103
0010
1001
0000
0001
1000
,
0010
0001
0010
0100
0002
0000
0000
0000
,
2000
0000
0000
3003
1010
0000
1000
0001
,
0000
0001
0010
0000
0010
0100
0000
0100
,
1100
0000
1100
0000
0011
0000
0001
0100
,
0000
0100
0010
0000
0010
1000
0000
1000
,
1001
0000
0110
0000
1001
0000
0001
0010
,
0000
0001
0100
0000
0010
1000
0000
0100
,
1100
0000
1100
0000
1000
0100
0100
0010
,
0001
0001
0010
0100
0100
1000
0010
0010
,
0200
0000
0302
0000
1003
0100
0010
0100
,
1000
0010
0100
0001
0010
0001
0100
0001
,
1000
0100
0001
0100
1000
0010
0100
0001
,
0010
0100
0010
0001
0100
0001
1000
0001
,
1000
0000
0100
0000
0010
0001
0100
0001
1000
0000
0010
0000
0100
0000
0001
0000
,
0010
0100
0010
0001
0100
0010
1000
0100
,
0010
0001
0010
0100
1000
1000
0001
0010
,
0010
0000
0100
0000
0010
0000
0010
0000
0001
0000
1000
0010
1000
0100
1000
0001
,
1000
0001
0010
0001
1000
0010
1000
0100
0010
0000
0001
0000
0010
0000
1000
0000
,
0010
0001
0010
1000
0010
0001
0010
1000
,
0010
0100
1000
0010
0100
1000
0100
0001
,
0100
1000
0100
0001
0100
1000
0100
0001
,
0100
0000
0010
0000
1000
0001
0100
0001
1000
0000
0010
0000
0001
0000
0010
0000
,
1000
0010
0001
0010
1000
0010
0001
0010
,
1000
0100
0010
0001
1100
0100
0010
0011
,
0000
0000
0100
0000
1001
0000
1000
0000
0001
0000
0100
0001
0100
0010
0100
0001
,
1000
0100
1000
0010
0100
0001
0010
0100
1000
0000
0000
0000
0100
0000
0000
0000
,
0010
0110
1000
0010
,
0101
0001
0010
0110
,
1100
0110
0011
0101
,
1010
0000
0101
0000
0001
0010
0100
1000
,
2010
3000
0000
0000
0012
0003
0000
0000
1020
0030
0000
0000
1100
0000
0000
0000
,
1000
0010
0000
0010
0001
0000
0001
0010
,
0000
0010
1000
0000
1000
0010
0000
0010
,
0001
1001
0101
1010
,
0101
0000
0011
0000
1001
0000
0100
0001
,
0100
1000
1001
0000
0001
0100
0000
0100
,
1000
0000
1000
0100
0000
0100
0001
0000
,
0001
0100
0000
0100
1000
0000
1000
0001
,
0000
0000
1000
0000
0001
0100
0001
0000
1000
0000
0100
0010
0100
0000
0010
0000
,
0001
0100
0001
0000
1000
0000
0100
0010
0100
0000
1000
0000
0010
0100
0001
0000
,
0010
0000
0100
1000
0010
0000
0100
0000
0001
1000
0001
0000
0100
0010
0100
0000
,
0001
1000
0001
0000
0020
0000
0000
0000
0000
0000
0000
0000
0030
0000
0000
0000
,
0011
0001
0100
0001
1000
0100
0010
0100
,
1000
0000
0000
0000
0000
0000
0100
0000
0000
0010
0000
0000
0001
0000
0000
0100
0010
0100
0010
0000
0000
1000
0000
0000
,
0001
0000
0010
0001
0100
0000
0010
1000
,
0100
0000
0010
0000
0100
0000
1000
0000
0001
0100
0001
1000
0001
0010
0001
1000
,
0100
0000
0000
0000
0000
0000
0000
0000
0000
0000
1000
0100
0001
0100
1000
0000
,
1001
0000
0000
0000
0000
0000
0000
0000
0000
0000
0001
0100
1000
0100
0001
0000
,
1001
0001
0010
0100
1001
1000
0100
0000
,
1001
0001
0010
0100
1000
0010
0100
0001
,
1000
0000
0000
0000
0000
0000
0001
0000
0000
1000
0000
0000
0100
0000
0000
0010
0100
0010
0100
0000
0000
0010
0000
0000
,
0001
0000
1000
0001
0010
0000
0100
1000
,
0010
0000
0100
0000
0010
0000
1000
0000
0001
0010
0001
1000
0001
0100
0001
1000
,
0010
0000
0000
0000
0000
0000
0000
0000
0000
0000
1000
0010
0001
0010
1000
0000
,
1001
0000
0000
0000
0000
0000
0000
0000
0000
0000
0001
0010
1000
0010
0001
0000
,
1001
0000
0000
0000
0000
0000
0000
0000
0000
0000
1000
0010
0100
0010
1000
0001
,
0020
0000
0230
0000
2300
0000
3010
1000
,
0001
0100
0010
0000
0100
0001
1000
0000
0100
0010
0001
0000
0010
0100
1000
0000
,
0100
1000
0010
0000
0100
0010
1000
0000
0001
0010
0100
0000
0010
0001
1000
0000
,
0001
0100
0010
0000
0100
0001
1000
0000
0100
0010
0001
0000
0010
0100
1000
0000
,
0001
0100
0010
0100
0001
1000
0001
1000
0100
0010
0100
1000
0010
0100
0001
0010
,
0100
1000
0010
0000
0100
0001
0010
0000
0100
0010
0001
0000
0010
0100
1000
0000
,
0001
1000
0010
0000
0100
0001
0010
0000
0100
1000
0010
0000
1000
0001
0010
0000
,
0100
0010
0001
0000
0010
0100
1000
0000
0100
1000
0010
0000
0100
0001
1000
0000
,
0001
0010
0001
0100
0010
1000
0010
0100
0001
0010
0100
1000
0100
0010
0001
0000
,
1001
0000
0000
1001
;

//--------------- dance-double - Pandemonium X ----------------
#NOTES:
     dance-double:
     Pandemonium X:
     Easy:
     9:
     0,0,0,0,0:
00000000
00000000
00000000
00000000
,
00001000
00100000
00001000
00010000
,
00000100
00000000
00001000
00000000
00000010
00000000
00000100
00000001
,
00000100
00000000
00000001
00000100
00000010
00001000
00000100
00010000
,
00001000
00011000
00010000
00001000
,
01000000
00100000
10000000
01000000
,
10000000
00000000
00010000
01000000
00010000
00000000
01000000
00010000
,
00100000
00001000
00010000
00000010
00000100
00000000
00000000
00000000
,
00000001
00000000
00000000
00000000
00001000
00000000
00000000
00001000
,
00000000
00000000
00000100
00000000
00000000
00010000
00000000
00000000
,
00001000
00000000
00001000
00000000
00010000
00000000
00000000
00001000
,
00000000
00000000
01000000
00000000
00000000
00100000
00000000
00000000
,
10000000
10000000
02000000
00000000
,
03200000
00000000
00302000
00000000
,
00023000
00000000
00030200
00000000
00002300
00000000
00000000
00003010
,
00000000
00000000
00000200
00000000
00000000
00000301
00000000
00000000
,
00001000
00000000
00000100
00000000
00010000
00000000
00000000
00001000
,
00000000
00000000
00010000
00000000
00000000
00000100
00000000
00000000
,
00001000
00000000
00000010
00000000
00000100
00000000
00000000
00000001
,
00000000
00000000
00000010
00000000
00000000
00000100
00000000
00000000
,
00001000
00000000
00000100
00000000
00010000
00000000
00000000
00001000
,
00000000
00000000
01000000
00000000
00000000
00100000
00000000
00000000
,
10000000
00000000
01000000
00000000
01100000
00000000
00000000
11000000
,
00000000
00000000
01100000
00000000
00000000
11000000
00000000
00000000
,
01000000
00000000
10000000
00000000
00010000
00000000
00000000
01000000
,
00000000
00000000
00001000
00000000
00000000
00010000
00000000
00000000
,
00000100
00000000
00001000
00000000
00000010
00000000
00000000
00000100
,
00000000
00000000
00000001
00000000
00000000
00000010
00000000
00000000
,
00000100
00000000
00000010
00000000
00000001
00000000
00000000
00001000
,
00000000
00000000
00000100
00000000
00000000
00010000
00000000
00000000
,
00001000
00000000
01000000
00000000
01100000
00000000
00000000
01000000
,
00000000
00000000
01100000
00000000
00000000
00100000
00000000
00000000
,
10000000
00000000
00010000
00000000
00100000
00000000
00000000
00001000
,
00000000
00000000
00010000
00000000
00000000
00000010
00000000
00000000
,
00000100
00000000
00000000
00000001
00000000
00000000
00001000
00000000
,
00000100
00010000
00001000
01000000
,
00100000
10000000
01000000
00100000
,
00110000
00110000
11000000
01000000
,
00000000
10000000
00000000
00000000
00010000
00000000
00000000
00100000
,
00000000
00000000
00001000
00000000
00000000
00010000
00000000
00000000
,
00000100
00001000
00000010
00000100
,
00000001
00000010
00000100
00001000
,
00000100
00000000
00010000
00000000
00000000
00010000
00000000
00000000
,
00001000
00000000
00000000
00001000
00000000
00000000
00100000
00000000
,
00000000
00100000
00000000
00000000
00010000
00000000
00000000
00010000
,
00000000
00000000
00110000
00000000
00000000
00110000
00000000
00000000
,
00110000
00000000
00000000
00110000
00000000
00000000
00011000
00000000
,
00000000
00011000
00000000
00000000
00001100
00000000
00001100
00000000
,
00001100
00000020
00000000
00000030
,
00000001
00000010
00000100
00001000
,
00001100
00000100
00010000
00001000
,
01000000
00100000
10000000
00010000
,
10000000
10000000
00010000
00010000
,
00110000
00000000
00000000
00001000
,
00110000
00000000
00000000
00100000
,
00011000
00010000
00000100
00001000
,
00000010
00000100
00000001
00001000
,
00001001
00000001
00000010
00000100
,
00001000
00000100
00010000
00001000
,
01000000
00100000
10000000
00010000
,
00110000
00000000
00000000
00100000
,
00011000
00000000
00000000
00000010
,
00011000
00000000
00000000
00100000
,
00011000
00011000
00011000
00011000
,
00000100
00001000
00000010
00000100
,
00000001
00000100
00000010
00001000
,
00000100
00010000
00001000
01000000
,
01100000
10010000
01100000
10010000
,
10000000
01000000
00100000
00010000
,
00001000
00000100
00000010
00000001
,
00000010
00000001
00000100
00000010
,
00002000
00000000
00000000
00000000
00000020
00000000
00000000
00003030
,
00000001
00000000
00000000
00000001
;

//--------------- dance-double - Pandemonium X ----------------
#NOTES:
     dance-double:
     Pandemonium X:
     Medium:
     13:
     0,0,0,0,0:
00000000
00000000
00000000
00000000
00000000
00000000
00000000
00000000
00000000
00000000
00000000
00000000
00000000
00000000
00000000
00000000
00000000
00000000
00000000
00000000
00000000
00000000
00000000
00000000
00000000
00000000
00000000
00000000
00000000
00000000
00001000
00010000
,
00001000
00100000
00010000
01000000
,
00100000
00000000
10000000
00000000
01000000
00000000
00100000
00001000
,
00010000
00000000
00000100
00010000
00000100
00001000
00000010
00000100
,
00000001
00001200
00010300
00001000
,
01000000
00010000
00100000
00001000
,
00010000
00000000
00000010
00000100
00000010
00000000
00000100
00000001
,
00001000
00000100
00010000
00001000
00010000
00000000
00000000
00000000
,
00000100
00000000
00000000
00000000
00001100
00000000
00000000
00001000
,
00000000
00000000
00000010
00000000
00000000
00000100
00000000
00000000
,
00001001
00000000
00001001
00000000
00000001
00000000
00000000
00001000
,
00000000
00000000
00000100
00000000
00000000
00010000
00000000
00000000
,
00011000
01001000
01200000
00000000
,
20300000
00000000
32000000
00000000
,
03200000
00000000
00320000
00000000
10030000
01000000
10000000
00010000
,
01000000
00010000
10000000
00100000
10000000
00010000
00100000
00010000
,
02000000
00000000
03002000
00000000
00013000
00000000
00000100
00001000
,
00000000
00000100
00000010
00000000
00000100
00001000
00000000
00000100
,
00000010
00000001
00000100
00000010
00001000
00000000
00000100
00010000
,
00000000
00001000
00010000
00000000
00001000
01000000
00000000
00001000
,
00010000
00001000
01000000
00100000
10000000
00000000
00010000
00100000
,
00000000
01000000
10000000
00000000
01000000
00100000
00000000
01000000
,
10000000
00010000
00100000
00001000
00011000
00000000
00000000
00001100
,
00000000
00000000
00000110
00000000
00000000
00000001
00000010
00001000
,
00000010
00000001
00000010
00000100
00001100
00000000
00001000
00000100
,
00000000
00010000
00001000
00000000
00100000
00010000
00000000
00100000
,
10000000
00100000
00010000
01000000
00001000
00000000
00010000
00000100
,
00000000
00001000
00000010
00000000
00000100
00000001
00000000
00000010
,
00001000
00000010
00000001
00000100
00000010
00000000
00000100
00000001
,
00000000
00001000
00000100
00000000
00010000
00001000
00000000
00010000
,
00001000
01000000
00100000
10000000
11000000
00000000
00010000
00110000
,
00000000
00100000
00101000
00000000
00010000
00001000
00010000
00000100
,
00001000
00000010
00000100
00000001
00001001
00000000
00000000
00000001
,
00000000
00000000
00001000
00000000
00000000
00000100
00000000
00000000
,
00010100
00000000
00000000
00010000
00000000
00000000
00011000
00000000
,
00101000
01100000
01010000
10100000
,
01010000
00000000
00110000
00000000
00100000
00001000
00010000
00000100
,
00002000
00003020
00000230
00000301
,
00000100
00000010
00000000
00000010
00010000
00000000
00010000
00001000
,
00000000
00001000
01000000
00000000
01000000
00100000
00000000
00100000
,
01100000
01010000
00110000
00101000
,
00011000
00000000
00010100
00000000
00001100
00000000
00001000
00000100
,
00000010
00000100
00001100
00000000
00001000
00000100
00000000
00000100
,
00010000
00000000
00010000
00001000
00000000
00001000
01000000
00000000
,
01000000
00100000
00000000
00100000
10000000
00000000
10000000
00010000
,
00000000
00100000
00110000
00000000
00000000
00011000
00000000
00000000
,
00001100
00000000
00000000
00000110
00000000
00000000
00000011
00000000
,
00000000
00001100
00000000
00000000
00001100
00000000
01010000
00000000
,
00001100
00020000
00000000
00030000
,
00000100
00001000
00000010
00000110
,
00001010
00000000
00000000
00000000
00000010
00000000
00010000
00000000
00001000
00000000
01000000
00001000
01000000
00000000
00100000
00000000
,
10000000
00000000
11000000
00000000
00110000
00000000
00100000
00001000
,
00010000
00000000
00000010
00000000
00000100
00000000
00000001
00000000
00000010
00000100
00000010
00000000
00000100
00001000
00000100
00000000
,
00001100
00000000
00000000
00000000
00000000
00000100
00010000
00001000
,
01000000
00000000
00000000
00000000
00000000
01000000
00001000
00010000
,
00000100
00000100
00001000
00000010
00000100
00000100
00000001
00000000
,
00001000
00000100
00010000
00011000
,
01001000
00000000
00000000
00000000
00001000
00000000
01000000
00000000
00100000
00000000
10000000
00010000
10000000
00000000
01000000
00000000
,
00100000
00000000
00100000
01000000
10000000
00000000
10000000
01000000
,
00100000
00000000
00001000
00000000
00010000
00000000
00000100
00000000
00001000
00000010
00001000
00000000
00000001
00000100
00000001
00000000
,
00001001
00000000
00000000
00000000
00000000
00000010
00010000
00001000
,
00100000
00000000
00000000
00000000
00000000
00100000
00001000
00010000
,
00000010
00000000
00000000
00000000
00000000
00000010
00010000
00001000
,
00200000
00320000
20030000
32000000
,
03100000
00010000
01000000
00100000
10000000
00010000
00100000
00001000
,
00010000
00000100
00001000
00000010
00000100
00000001
00000010
00000100
,
00001000
00000100
00010000
00001000
01000000
00100000
10000000
00010000
,
00100000
00100000
01000000
01000000
10000000
10000000
00010000
00010000
,
00100000
00001000
00010000
00000010
00000100
00000001
00000010
00000100
,
00000010
00000001
00001000
00000010
00000100
00000001
00000010
00000100
,
00001000
00000100
00010000
00001000
01000000
00100000
10000000
00010000
,
00100000
00001000
00010000
00000010
00010000
00001000
00100000
00001000
,
00011000
00000000
00000000
00011000
;

//--------------- dance-double - Pandemonium X ----------------
#NOTES:
     dance-double:
     Pandemonium X:
     Hard:
     16:
     0,0,0,0,0:
00000000
00000000
00000000
00000000
00000000
00000000
00000000
00000000
00000000
00000000
00000000
00000000
00000000
00000000
00000000
00000000
00000000
00000000
00000000
00000000
00000000
00000000
00000000
00000000
00000000
00000000
00000000
00000000
00000000
00000000
00010000
00001000
,
00100000
00010000
01000000
10000000
,
01000000
00000000
00010000
00000000
00100000
00000000
00001000
00010000
,
00000010
00000000
00000100
00001000
00000100
00000001
00000010
00000100
,
00001000
00001100
00011000
00001000
,
01001000
00100000
01010000
10000000
,
00110000
00000000
00100000
01000000
11000000
00000000
10000000
01000000
,
00100000
00010000
00001000
00010000
00000020
00000000
00000000
00000000
,
00000200
00000000
00000330
00000000
00001010
00000000
00000010
00000100
,
00000000
00000001
00000010
00000000
00000100
00002000
00000000
00003010
,
00001010
00000000
00010010
00000000
00011000
00000000
00001000
01000000
,
00000000
00010000
00100000
00000000
01000000
20000000
00000000
30010000
,
10010000
00000000
01010000
00000000
00210000
00000000
00000000
00001000
,
00000000
00000000
00310000
00000000
00000000
00110000
00000000
00000000
,
00101000
00000000
00011000
00000000
00010000
00010000
00000010
00000100
,
00001000
00000100
00000001
00001000
00001000
00000100
00010000
00001000
,
02000000
00000000
03020000
00000000
00130000
10000000
00100000
00010000
,
01000000
00001000
00010000
00000010
00000100
00000001
00000010
00000100
,
00010000
00001000
01000000
00010000
10000000
01000000
00100000
01000000
,
10000000
00010000
00100000
00001000
00010000
00000010
00000100
00000001
,
00000010
00000000
00000100
00000000
00001000
00000100
00001000
00000100
00001000
00000000
00000010
00000000
00010000
00000000
00001000
00000000
,
01000000
00010000
00100000
00001000
00010000
00000010
00000100
00000001
,
00000010
00000100
00010000
00001000
00101000
00100000
01000000
11000000
,
10000000
00000000
00100000
00000000
01010000
00000000
01000000
00000000
00001000
00000000
00010000
00001000
00010000
00000010
00000100
00000010
,
00010000
00001000
01000000
00100000
01000000
00010000
10000000
01000000
00100000
00000000
00010000
00000000
00100000
00000000
10000000
00000000
,
00100000
00000000
00001000
00000000
00010000
00000000
00000100
00000000
00001000
00000000
00000010
00000000
00000001
00000000
00000010
00000100
,
00000001
00000010
00000100
00001000
00001001
00000001
00000010
00001000
,
00000010
00000000
00000100
00000000
00001000
00000000
00000100
00000000
00010000
00000000
00001000
00000000
01000000
00000000
00100000
01000000
,
00010000
00000000
10000000
00000000
00010000
00100000
01000000
10000000
00010000
00000000
00100000
00000000
10000000
00000000
00100000
00000000
,
00001000
00010000
00000100
00001000
00000010
00000001
00000010
00000100
,
00000001
00001000
00000010
00000100
00000101
00000100
00000010
00001010
,
00000010
00000000
00010000
00000000
00001000
00000000
01001000
00000000
01000000
00000000
00100000
10000000
00100000
01000000
00100000
10000000
,
00010000
00100000
01000000
10000000
01000000
00100000
00001000
00010000
00000010
00000000
00000000
00000000
00001000
00000000
00000010
00000000
,
00000000
00000010
00000001
00000000
00000001
00000010
00000000
00000010
,
00001000
00000000
00001000
00000010
00000000
00000010
00000011
00000000
,
00001100
00001010
00010010
00010100
,
00011000
00000000
01001000
00000000
00001000
00001000
01000000
00100000
,
02100000
10000000
03010000
10010000
,
10000000
01000000
00000000
01000000
00010000
00000000
00010000
01000000
,
00000000
01000000
10000000
00000000
10000000
01000000
00000000
01000000
,
01100000
00110000
10010000
01010000
,
00101000
00000000
00011000
00000000
00001010
00000000
00001000
00000100
,
00001000
00000010
00001020
00000000
00000000
00000100
00000000
00000000
,
00010000
00000000
00000000
00000130
00000000
00000000
00020010
00000000
,
00000000
00001000
00000000
00000000
00000010
00000000
00000000
00031000
,
00000000
00000000
00000000
00000000
01001000
00000000
01000000
00100000
01000000
00000000
10100000
00000000
10000000
00010000
10000000
00000000
,
00110000
00000000
00100000
00001000
00100000
00000000
00011000
00000000
00010000
00000100
00010000
00000000
00001100
00000000
00000100
00000010
,
00000001
00000000
00000011
00000000
00000001
00000100
00000010
00000000
00001100
00000000
00000000
00000000
01010000
00000000
00000000
00000000
,
00001100
00020000
00000000
00030000
,
00010200
00001300
00001020
00000100
,
00010030
00000000
00000000
00000000
00000000
00000000
00001000
00000000
00000000
01000000
00000000
00000000
00100000
00000000
00000000
01000000
00010000
01000000
00010000
00000000
00000000
00100000
00000000
00000000
,
02100000
00000000
10000000
00000000
03100000
00000000
01000000
00010000
,
01000000
00000000
10000000
00000000
00100000
00000000
01000000
00000000
00010000
00100000
00001000
00010000
00000100
00001000
00000010
00000100
,
00000001
00000000
00000000
00000000
00000000
00000000
00000000
00000000
00000000
00000000
00001000
00000100
00010000
00001000
00100000
00000000
,
00110000
00000000
00000000
00000000
00000000
00000000
00000000
00000000
00000000
00000000
00010000
01000000
00100000
10000000
01000000
00000000
,
11000000
01000000
01100000
00100000
00110000
00100000
00001000
00000000
,
00012000
00103000
00210000
01000000
,
00310000
00000000
00000000
00000000
00000000
00000000
00100000
00000000
00000000
00001000
00000000
00000000
00010000
00000000
00000000
00000100
00001000
00000100
00001000
00000000
00000000
00000010
00000000
00000000
,
00002010
00000000
00000100
00000000
00003001
00001000
00000001
00000010
,
00000001
00000000
00000100
00000000
00001000
00000000
00010000
01000000
00010000
10000000
01000000
00100000
00010000
00100000
00001000
00010000
,
00001000
00000000
00000000
00000000
00000000
00000000
00000000
00000000
00000000
00000000
00100000
00001000
00010000
00000010
00000100
00000000
,
00001001
00000000
00000000
00000000
00000000
00000000
00000000
00000000
00000000
00000000
00000001
00000010
00000100
00001000
00000100
00000000
,
00020100
00000000
00001000
00000000
00031000
00000000
00012000
00000000
01000000
00000000
01003000
00100000
10000000
00010000
00100000
01000000
,
10000000
01000000
00100000
00000000
01000000
00100000
00010000
00000000
00100000
00001000
00010000
00000000
00001000
00010000
00000010
00000000
,
00000110
00000000
00000010
00000100
00000001
00000000
00000010
00000100
00001000
00000000
00000100
00010000
00001000
00000000
00010000
00001000
,
01000000
00000000
00100000
10000000
00010000
00000000
00100000
01000000
10000000
00000000
01000000
10000000
00010000
00000000
01000000
00001000
,
00010000
00000000
00000100
00001000
00000010
00000000
00000100
00000001
00000010
00000000
00000100
00001000
00000100
00000000
00010000
00001000
,
00100000
00010000
01000000
00010000
00100000
00010000
01000000
00100000
10000000
00010000
00100000
01000000
10000000
00100000
01000000
00010000
,
00100000
00000000
00001000
00010000
00000100
00000000
00001000
00000010
00000100
00000000
00000001
00000010
00000100
00000000
00000010
00000100
,
00001000
00000000
00000100
00010000
00001000
00000000
00010000
00001000
01000000
00000000
00100000
01000000
00010000
00000000
10000000
01000000
,
00100000
00000000
01000000
10000000
00010000
00000000
00100000
00001000
00010000
00000010
00000100
00000001
00000010
00000100
00001000
00000100
,
00010000
00000000
00010000
00001000
00010000
00000000
00010000
00001000
00010000
00000000
00010000
00001000
00010000
00000000
00010000
00000000
,
02000200
00000000
00000000
00000000
00000000
00000000
00000000
00000000
00000000
00000000
00000000
00000000
00000000
00000000
00000000
00000000
00000000
03000300
00200020
00000000
00000000
00000000
00000000
00000000
,
00000000
00000000
00000000
00300030
;
