#TITLE:NaHaNaHa vs. Gattchoon Battle;
#SUBTITLE:;
#ARTIST:DJ Senda & Tiny-K;
#TITLETRANSLIT:;
#SUBTITLETRANSLIT:;
#ARTISTTRANSLIT:;
#GENRE:;
#CREDIT:;
#MUSIC:NaHaNaHa vs. Gattchoon Battle.ogg;
#BANNER:;
#BACKGROUND:;
#CDTITLE:;
#SAMPLESTART:58.716;
#SAMPLELENGTH:11.833;
#SELECTABLE:YES;
#OFFSET:-1.125;
#BPMS:0.000=124.000
,109.000=132.000
,113.000=152.000
,117.000=163.000
,215.000=124.000
;
#STOPS:20.000=1.452;
#BGCHANGES:;
#FGCHANGES:;

//--------------- dance-single - Pandemonium X ----------------
#NOTES:
     dance-single:
     Pandemonium X:
     Beginner:
     3:
     0,0,0,0,0:
0000
0000
0000
0000
,
0000
0000
0000
0000
,
0000
0000
0000
0000
,
0000
0000
0000
0000
,
0000
0000
0000
0000
,
0000
0001
0000
1000
,
0000
0010
0100
0010
,
0000
1000
0000
0001
,
0000
0010
0100
0010
,
0000
0001
0000
0000
,
0000
1000
0000
0000
,
0110
0001
0000
1000
,
0000
0100
0000
0000
,
0000
0010
0000
0000
,
0100
0000
0000
0000
,
0100
0000
0000
0000
0000
0000
0000
0100
,
0000
0100
0000
0000
0000
0000
0100
0000
,
0000
0010
0000
0010
,
0000
0010
0010
0010
,
0010
1001
0000
0001
,
0000
1000
0001
1000
,
0000
0010
0000
0010
,
0000
0010
0010
0010
,
0000
0100
0000
0100
,
0000
0001
0000
1000
,
0000
0001
0000
0000
,
0000
0001
0000
0000
,
0000
0110
0000
0000
,
0000
0000
0000
0000
,
0000
1000
0000
0000
,
0000
0001
0000
0000
,
0000
0010
0000
0010
,
0000
0010
0000
0010
,
0000
0100
0000
1000
,
0000
0100
0000
0000
,
0000
0010
0000
0010
,
0000
0000
0010
0000
0000
0000
0000
1001
,
0000
0000
0000
0000
,
0000
0000
0000
0000
,
0000
0001
0000
1000
,
0000
0010
0010
0000
,
0000
0100
0000
0010
,
0000
1000
0000
1001
,
0000
0000
0000
0000
,
0000
0000
0000
0000
,
0000
0001
0000
0001
,
0000
0001
0001
0001
,
0000
1000
0000
0001
,
0000
1000
0001
1000
,
0000
1000
0000
1000
,
0000
1000
0000
1000
,
1000
0010
0000
0100
,
0000
1001
0110
1001
,
0000
0000
0000
0000
0000
0000
0000
0020
,
0000
0000
0000
0000
,
0030
0000
0000
0000
;

//--------------- dance-single - Pandemonium X ----------------
#NOTES:
     dance-single:
     Pandemonium X:
     Easy:
     5:
     0,0,0,0,0:
0000
0000
0000
0000
,
0000
0000
0000
0000
,
0000
0000
0000
0000
,
0000
0000
0000
0000
,
0000
0000
0000
0000
,
0000
0001
0000
1000
,
0000
0010
0100
0010
,
0000
1000
0000
0001
,
0000
0010
0100
0010
,
0000
0100
0000
1000
,
0000
0010
0000
0100
,
1001
0001
0000
1000
,
0000
0010
0000
0000
,
0000
0100
0100
0100
,
0000
0010
1000
0001
,
0000
0010
0010
0010
,
0000
0100
1000
0001
,
0000
1001
0000
0110
,
0000
1001
1001
0110
,
0110
0001
0000
1000
,
0000
0001
1000
0010
,
1000
0100
0000
0100
,
0000
0100
0100
0100
,
0000
0010
1001
0100
,
1001
0001
0100
1000
,
0010
0001
0000
1000
,
0001
1000
0000
1000
,
0001
0110
0000
0000
,
0000
0000
0000
0000
,
0000
0001
0000
0000
,
0000
1000
0000
0000
,
0000
0000
0010
0000
0000
0010
0000
0000
,
0010
0000
0000
0010
0000
0000
0010
0000
,
0000
0100
0000
0010
,
0000
1000
0000
0001
,
0000
0000
1000
0000
0000
1000
0000
0000
,
1000
0000
0000
1000
0000
0000
0000
1001
,
0000
0000
0000
0000
,
0000
0000
0000
0000
,
0000
0001
0000
1000
,
0000
0100
1000
0000
,
0010
0000
0001
0000
,
0010
0000
1000
1001
,
0000
0000
0000
0000
,
0000
0000
0000
0000
,
0000
0010
0000
0100
,
0000
0010
0100
0010
,
0100
0001
0000
1000
,
0000
0001
1000
0001
,
1000
0001
0000
0100
,
0000
0001
0000
0100
,
0100
0010
0000
1000
,
0000
1001
0110
1001
,
0000
0000
0000
0000
0000
0000
0000
0001
,
1000
0000
0000
0000
,
0000
0000
0000
0000
,
0000
0000
0000
0000
,
0000
0010
0000
0000
0000
0000
0000
0000
0000
0000
0000
0000
0000
0000
0000
0000
;

//--------------- dance-single - Pandemonium X ----------------
#NOTES:
     dance-single:
     Pandemonium X:
     Medium:
     8:
     0,0,0,0,0:
0000
0000
0000
0000
,
0000
0000
0000
0000
,
0000
0000
0000
0000
0000
0001
0001
0000
,
0000
0000
0000
0000
0000
0001
0001
0000
,
0000
0000
0000
0000
0000
1001
1001
1000
,
0110
0000
0001
0000
1000
0000
0001
0010
,
0000
0001
0000
1000
0001
0000
0100
0000
,
0110
0000
0010
0000
1000
0000
0100
1000
,
0000
0010
0000
0100
0001
0000
1000
0000
,
0000
0000
0001
0000
0100
0000
0100
0010
,
1000
0001
0010
0100
,
0011
0000
1100
0000
0000
0100
1000
0000
,
0010
0000
0100
0000
0000
0001
0001
0000
,
0000
0000
1000
0000
0001
0000
0100
0001
,
0000
0010
0000
0100
0010
0000
0001
0100
,
0100
0000
0010
0000
1000
0000
0100
1000
,
0000
0100
0000
1000
0010
0000
0100
0000
,
0000
1001
0000
0110
,
0000
1001
0110
1001
,
0110
0001
0000
1000
,
0000
0000
0001
0000
1000
0000
0001
1000
,
0001
1000
1010
0001
,
1001
1001
0110
1001
,
0000
0001
1010
0001
,
1010
0000
0001
0010
0100
1000
0010
0010
,
0010
0100
0000
0010
,
1000
0001
0000
1000
,
0001
0110
0000
0000
,
0000
0000
0000
0000
,
0000
0000
0000
0001
0000
0001
0000
0001
,
0000
0001
0000
1000
0000
1000
0000
1000
,
0001
0000
0100
0000
0010
0100
0000
0010
,
0100
0000
0010
0100
0000
0010
0100
0010
,
0000
1000
1000
0001
,
0001
0010
0010
1000
,
0010
0000
0100
0000
0010
0100
0000
0010
,
0100
0000
0010
0100
0000
0010
0100
1001
,
0000
0000
0000
0000
,
0000
0000
0000
0000
,
0000
1001
0001
0100
,
0010
1000
1001
0001
,
1001
1000
1001
0001
,
1001
1000
1001
0110
,
0000
0000
0000
0000
,
0000
0000
0000
0000
,
0000
0000
0001
0100
0001
0000
1000
0010
,
1000
0000
0001
0100
0010
1000
0001
0100
,
0010
0000
1000
1000
0100
0000
0010
0010
,
0100
0000
0010
0010
0001
1000
0010
1000
,
0001
1000
0100
0100
0100
0000
0010
0010
,
0010
0000
0001
0001
0001
0000
1000
1000
,
1000
1001
0110
1010
,
0101
0001
0100
1001
,
0000
0000
0000
0000
0000
0000
0000
0001
,
1000
0000
0000
0000
,
0000
0000
0000
0000
,
0000
0000
0000
0000
,
0000
0010
0000
0000
0000
0000
0000
0000
0000
0000
0000
0000
0000
0000
0000
0000
;

//--------------- dance-single - Pandemonium X ----------------
#NOTES:
     dance-single:
     Pandemonium X:
     Hard:
     12:
     0,0,0,0,0:
0000
0000
0000
0000
,
0000
0000
0000
0000
,
0000
0000
0000
0000
0000
0010
0010
0000
,
0000
0000
0000
0000
0000
0010
0010
0000
,
0000
0000
0000
0000
0000
0110
0110
0100
,
1001
0000
0001
0000
0010
0001
0001
1000
,
0000
0010
0000
1000
0001
0000
1000
0000
,
0101
0000
0001
0000
1000
0010
0010
1000
,
0000
0000
0100
0000
0000
0000
0010
0002
2000
0000
0000
0000
0000
0000
0000
0000
,
3003
0000
0000
0000
0001
0000
0001
0000
0000
0100
0020
0000
0000
0000
1000
0000
,
1030
0000
0001
0010
1000
0010
0100
0000
,
0011
0000
1100
0000
0000
0100
1000
0010
,
0001
0010
0100
0100
0000
0001
0001
0000
,
0000
0000
0000
0000
0000
0110
0000
0110
0000
0000
0110
0000
0000
0000
0000
0000
,
2000
0000
3000
0000
0001
0000
0000
0000
0010
0000
0000
0000
0100
0000
2000
3000
,
2000
3000
0001
0000
0100
0000
0010
2000
,
3100
2000
3000
0010
0100
0000
2001
0000
,
3000
0102
0013
2100
,
3010
0000
0102
0000
1000
0000
0100
0100
,
0100
0000
0103
0000
1001
0000
0000
0000
0000
0000
0000
0000
0010
0100
0000
0000
,
0000
0000
0000
0000
1001
0000
0000
0000
0100
0010
0000
0000
0001
1000
0000
0010
,
0100
0000
0000
0000
0001
0100
0000
0000
1010
0000
0000
0000
0001
0100
0000
0000
,
1010
0000
0000
0000
0001
0100
0001
0100
0001
0100
0001
0100
0001
0020
0000
0000
,
0000
0000
0130
0010
0011
0000
1000
0010
,
0110
0000
0000
0000
0100
0000
1000
0000
0100
0000
0001
0010
1000
0000
0010
0000
,
0001
0000
0000
0000
1000
0100
0000
0000
0000
0000
0010
0000
0000
0010
0001
0000
,
1000
0000
0000
0000
0001
0100
0000
0000
0000
0000
0001
1000
0000
0001
1000
0000
,
0100
0110
0000
0000
,
0000
0000
0000
0000
,
0000
0000
0001
0100
0010
0100
0001
0100
,
0010
0100
0010
1000
0100
1000
0010
1000
,
1100
0000
1001
0000
0100
1001
0000
0010
,
1001
0000
0100
1001
0000
0010
1001
0110
,
0000
0000
0000
0000
0001
0100
0000
0001
0100
0000
0010
1000
0000
0010
1000
0000
,
0001
0000
0001
0000
1000
0100
0000
1000
0100
0000
0000
0010
0100
0000
1000
0000
,
0010
0100
1001
0000
0010
1001
0000
0100
,
1001
0000
0010
1001
0000
0100
1001
0220
,
0000
0330
0000
0000
,
0000
0000
0000
0000
,
0000
0000
1002
0000
1003
0100
0002
0000
,
0103
1000
0010
0001
0010
0200
0000
0000
,
0300
0010
1000
0000
0000
0010
0100
0000
,
0000
0010
1000
0010
0000
0010
1001
0000
,
0000
0000
0000
0000
,
0000
0000
0000
0000
,
0000
0000
0001
0100
0010
0000
0100
0010
,
1000
0000
0001
0100
0010
1000
0001
0100
,
0010
0000
0000
0000
1000
0000
0001
0000
0010
0100
0000
0000
1000
0000
0001
0000
,
0010
0100
0000
0000
1000
0000
0001
0000
0010
0100
0010
0000
0100
0010
0100
0000
,
0010
0100
0010
0000
0001
0000
0100
0000
2000
0000
3200
0000
0301
0000
0010
0000
,
2000
0000
3020
0000
0031
0000
0100
0000
2000
0000
3200
0000
0310
1000
0001
0000
,
1001
1200
0001
2300
,
3020
0001
0100
2000
,
0000
0000
0000
0000
0000
3030
0000
0002
,
2000
0000
0000
0000
,
0000
0003
0000
0000
3000
0000
0000
0000
0000
0000
0000
0000
0000
0000
0000
0000
,
0000
0000
0000
0000
,
0000
0001
2000
0000
0000
0000
0000
0000
0000
0000
0000
0000
0000
0000
0000
0000
,
3000
0000
0000
0000
;

//--------------- dance-double - Pandemonium X ----------------
#NOTES:
     dance-double:
     Pandemonium X:
     Easy:
     5:
     0,0,0,0,0:
00000000
00000000
00000000
00000000
,
00000000
00000000
00000000
00000000
,
00000000
00000000
00000000
00000000
00000000
00001000
00001000
00000000
,
00000000
00000000
00000000
00000000
00000000
00001000
00001000
00000000
,
00000000
00000000
00000000
00000000
00000000
00001000
00001000
00000000
,
00011000
00000000
00010000
00000000
00000000
00000100
00000100
00000000
,
00000000
00000000
00000000
00000000
,
00011000
00000000
00000000
00000000
00000000
01000000
01000000
00000000
,
00000000
00000000
00002000
00000000
,
00003000
00000000
00010000
00000000
00000000
00000000
00000000
00000100
,
00000100
00000000
00000000
00000000
,
00011000
00001000
00000000
00000000
,
00000000
00000000
01000000
00000000
00000000
00100000
00100000
00000000
,
00000000
10010000
00000000
00010000
,
00000000
00100000
00001000
00010000
,
00000000
00000100
00000000
00001000
,
00000000
00000010
00010000
00001000
,
00000000
00011000
00000000
00011000
,
00000000
00011000
00011000
00011000
,
00011000
00000010
00000000
00000100
,
00000000
00000010
00000100
00000001
,
00001000
00000100
00000000
00000100
,
00000000
00000100
00000100
00000100
,
00000000
00010000
00011000
00001000
,
00011000
00001000
01000000
00100000
,
10000000
10010000
00000000
00000000
,
00000000
01100000
00000000
00000000
,
00000000
00010000
00000000
00000000
,
00000000
00000000
00000000
00000000
,
00000000
00100000
00000000
00001000
,
00000000
00010000
00000000
00000010
,
00000000
00000000
00000100
00000000
00000000
00000100
00000000
00000000
,
00000100
00000000
00000000
00000100
00000000
00000000
00000100
00000000
,
00000000
00000000
00000010
00000000
00000000
00001000
00000000
00000000
,
00000000
00000100
00000000
00010000
,
00000000
00000000
00001000
00000000
00000000
00001000
00000000
00000000
,
00001000
00000000
00000000
00001000
00000000
00000000
00000000
00011000
,
00000000
00000000
00000000
00000000
,
00000000
00000000
00000000
00000000
,
00000000
00100000
00000000
00001000
,
00000000
00010000
00000100
00000000
,
00000100
00000000
00000100
00000000
,
00000100
00000000
00000100
00011000
,
00000000
00000000
00000000
00000000
,
00000000
00000000
00000000
00000000
,
00000000
01000000
00000000
01000000
,
00000000
01000000
01000000
01000000
,
00000000
00100000
00000000
00100000
,
00000000
00100000
00100000
00100000
,
00100000
10000000
00000000
00010000
,
00000000
10000000
00000000
00010000
,
00000000
00100000
00000000
00001000
,
00000000
00010000
00010000
00011000
,
00000000
00000000
00000000
00000000
00000000
00000000
00000000
00001000
,
00020000
00000000
00000000
00000000
,
00030000
00000000
00000000
00000000
,
00000000
00000000
00000000
00000000
,
00000000
00001000
00000000
00000000
00000000
00000000
00000000
00000000
00000000
00000000
00000000
00000000
00000000
00000000
00000000
00000000
;

//--------------- dance-double - Pandemonium X ----------------
#NOTES:
     dance-double:
     Pandemonium X:
     Medium:
     10:
     0,0,0,0,0:
00000000
00000000
00000000
00000000
,
00000000
00000000
00000000
00000000
,
00000000
00000000
00000000
00000000
00000000
00001000
00010000
00000000
,
00000000
00000000
00000000
00000000
00000000
00001000
00010000
00000000
,
00000000
00000000
00000000
00000000
00000000
00010000
00010000
00010000
,
00011000
00000000
00000100
00000000
00001000
00000000
00000010
00010000
,
00000000
00001000
00000000
00100000
00001000
00000000
00011000
00000000
,
00000000
00000000
00000100
00000000
00010000
00000000
00001000
01000000
,
00000000
00001000
00000000
00010000
00000020
00000000
00000000
00000000
,
00000130
00000001
00001000
00000100
,
00010000
00000000
00001000
00000000
01000000
00100000
10000000
00000000
,
00011000
00100000
00000000
01000000
,
10000000
00000000
00010000
00000000
00000000
01000000
01000000
00000000
,
00000000
00000000
00000000
00000000
00000000
00001000
00000000
00001000
00000000
00000000
00001000
00000000
00000000
00000000
00000000
00000000
,
00020000
00000000
00030000
00000000
00000100
00000000
00000000
00000000
00001000
00000000
00000000
00000000
00000010
00000000
00020000
00030000
,
00020000
00030000
00001000
00000000
00100000
00000000
00001000
00020000
,
00031000
00020000
00030000
00000100
00001000
00000000
00022000
00000000
,
00033000
00110000
00000000
00001010
,
00000000
00110000
00001010
00011000
,
00011000
00000000
00000000
00000000
00000100
00000000
00000000
00000000
00000000
00000000
00000000
00000000
00001000
00000010
00000000
00000000
,
00000000
00000000
00000000
00000000
00000100
00000000
00000000
00000000
00000001
00000010
00000000
00000000
00000010
00000100
00000000
00000100
,
00001000
00000000
00000000
00000000
00000100
00010000
00000000
00000000
00011000
00000000
00000000
00000000
00001000
01000000
00000000
00000000
,
01100000
00000000
00000000
00000000
01000000
00000000
10000000
00000000
01000000
00000000
00001000
00000000
00010000
00002000
00000000
00000000
,
00000000
01003000
10100000
01000000
,
10100000
00000000
10000000
01000000
00100000
00010000
00001000
00000100
,
00000010
00000000
00000000
00000000
00001000
00000000
00000000
00000000
00000000
00000000
00000001
00000000
00000000
00000001
00001000
00000000
,
00000001
00000000
00000000
00000000
00000100
00000000
00000000
00000000
00000000
00000000
00000100
00000010
00000000
00000100
00000010
00000000
,
00000010
00001001
00000000
00000000
,
00000000
00000000
00000000
00000000
,
00000000
00000000
00000001
00000100
00000000
00001000
00000000
00010000
,
00000000
00100000
01000000
00010000
00000000
00100000
00000000
00010000
,
10010000
00000000
10010000
00000000
10000000
00100000
00000000
00100000
,
00010000
00000000
00010000
00100000
00000000
00100000
10000000
10010000
,
00000000
00100000
00001000
00010000
,
00000100
00000000
00001000
00000000
00000010
00000000
00000100
00000010
,
00001000
00000001
00001001
00000000
00000001
00000100
00000000
00000100
,
00001000
00000000
00001000
00000100
00000000
00000100
00000001
00002002
,
00000000
00003003
00000000
00000000
,
00000000
00000000
00000000
00000000
,
00000000
00000001
00000100
00001000
,
00010000
00000000
00001000
00010000
00001000
02000000
00000000
00000000
,
03000000
00100000
10000000
00000000
00000000
00010000
00100000
00000000
,
00000000
00001000
00010000
00000100
00000000
00010000
00011000
00000000
,
00000000
00000000
00000000
00000000
,
00000000
00000000
00000000
00000000
,
00000000
00000000
00001000
00000100
00001000
00000000
00000001
00000010
,
00000001
00000000
00001000
00000100
00000010
00000001
00001000
00000100
,
00000010
00000000
00000100
00010000
00001000
00000000
00010000
00001000
,
01000000
00000000
00001000
01000000
00100000
10000000
00010000
00100000
,
01000000
00100000
00001000
00010000
00000020
00000000
00010030
00001000
,
00200000
00000000
00301000
00010000
00000020
00000000
00000100
00000130
,
00001001
00001010
00010100
00011000
,
01001000
01100000
10010000
02200000
,
00000000
00000000
00000000
00000000
03300000
00000000
00000000
00002000
,
00020000
00000000
00000000
00000000
,
00003000
00030000
00000000
00000000
,
00000000
00000000
00000000
00000000
,
00000000
00010000
00002000
00000000
00000000
00000000
00000000
00000000
00003000
00000000
00000000
00000000
00000000
00000000
00000000
00000000
;

//--------------- dance-double - Pandemonium X ----------------
#NOTES:
     dance-double:
     Pandemonium X:
     Hard:
     13:
     0,0,0,0,0:
00000000
00000000
00000000
00000000
,
00000000
00000000
00000000
00000000
,
00000000
00000000
00000000
00000000
00000000
00001000
00001000
00000000
,
00000000
00000000
00000000
00000000
00000000
00001000
00001000
00000000
,
00000000
00000000
00000000
00000000
00000000
00101000
00101000
00100000
,
00010000
00000000
10000000
00000000
01000000
00000000
00010000
01000000
,
00000000
00100000
00000000
00001000
00010000
00000000
00000200
00000000
,
00010300
00000000
00001000
00000000
01000000
00000000
00100000
00010000
,
00000000
00000000
00100000
00000000
00000000
00000000
10000000
00010000
00200000
00000000
00000000
00000000
00000000
00000000
00000000
00000000
,
01300000
00000000
01000000
00000000
00100000
00000000
01000000
00000000
00000000
00100000
00020000
00000000
00000000
00000000
10000000
00000000
,
10030000
00000000
00010000
01000000
00001000
00010000
00000100
00000000
,
00100010
00000000
00020000
00000000
00030100
00001000
00000010
00000100
,
00001000
00000100
00000001
00001000
00000000
00000100
00000100
00000000
,
00000000
00000000
00000000
00000000
00000000
00011000
00000000
00011000
00000000
00000000
00011000
00000000
00000000
00000000
00000000
00000000
,
00002000
00000000
00003000
00000000
01000000
00000000
00000000
00000000
00001000
00000000
00000000
00000000
00100000
00000000
00002000
00003000
,
00002000
00003000
00100000
00000000
00001000
00000000
00010000
00002000
,
00003100
00002000
00003000
00010000
00001000
00000000
00012000
00000000
,
00003000
00210000
00301000
00001020
,
00010030
00012000
01003000
00021000
,
00030100
00000000
00000000
00000000
00011000
00000000
00000000
00000000
00000000
00000000
00000000
00000000
00010000
00000100
00000000
00000000
,
00000000
00000000
00000000
00000000
00011000
00000000
00000000
00000000
00001000
01000000
00000000
00000000
00001000
00010000
00000000
00010000
,
00000100
00000000
00000000
00000000
00001000
00000010
00000000
00000000
00000101
00000000
00000000
00000000
00000001
00000010
00000000
00000000
,
00001100
00000000
00000000
00000000
00000100
00010000
00000100
00010000
00000100
00010000
00000100
00010000
00000100
00002000
00000000
00000000
,
00000000
00003010
00011000
00100000
,
00011000
00000000
00000000
00000000
00001000
00000000
01000000
00000000
10000000
00000000
01000000
00100000
10000000
00000000
10000000
00000000
,
10000000
00000000
00000000
00000000
01000000
00100000
00000000
00000000
00000000
00000000
00100000
00000000
00000000
00100000
00001000
00000000
,
00010000
00000000
00000000
00000000
00001000
00010000
00000000
00000000
00000000
00000000
00001000
00010000
00000000
00001000
00010000
00000000
,
00001000
00011000
00000000
00000000
,
00000000
00000000
00000000
00000000
,
00000000
00000000
00001000
01000000
00100000
10000000
00010000
01000000
,
00010000
01000000
00001000
00010000
00000100
00001000
00000010
00000100
,
00000001
00000000
00001100
00000000
00010000
00011000
00000000
00001000
,
01001000
00000000
01000000
01100000
00000000
00100000
01000000
20010000
,
00000000
00000000
00000000
00000000
30010000
00100000
00000000
00100000
00001000
00000000
00001000
00010000
00000000
00010000
00001000
00000000
,
00010000
00000000
00010000
00000000
00010000
00000100
00000000
00000100
00001000
00000000
00000000
00000010
00000100
00000000
00000001
00000000
,
00001000
00000100
00010100
00000000
00010000
00011000
00000000
00001000
,
01001000
00000000
01000000
01100000
00000000
00100000
01000000
20020000
,
00000000
30030000
00000000
00000000
,
00000000
00000000
00000000
00000000
,
00000000
00000000
10020000
00000000
10030000
01000000
00020000
00000000
,
01030000
00100000
00010000
00001000
00000100
00002000
00000000
00000000
,
00003000
00000001
00000100
00000000
00000000
00000010
00000100
00000000
,
00000000
00000010
00001000
00000100
00000000
00010000
00011000
00000000
,
00000000
00000000
00000000
00000000
,
00000000
00000000
00000000
00000000
,
00000000
00000000
00001000
01000000
01100000
00000000
01000000
00001000
,
00011000
00000000
00010000
00000010
00000100
00000010
00010000
00001000
,
00011000
00000000
00000000
00000000
00010000
00000000
00000010
00000000
00000100
00000001
00000000
00000000
00000100
00000000
00000010
00000000
,
00010000
00000100
00000000
00000000
00010000
00000000
00001000
00000000
01000000
00100000
01000000
00000000
00010000
10000000
00010000
00000000
,
10000000
01000000
10000000
00000000
01000000
00100000
00010000
00000000
00100000
00000000
00100000
00000000
00001000
00010000
00000100
00000000
,
00001000
00000000
00001000
00000000
00000010
00000100
00000001
00000000
00000010
00000000
00000010
00000000
00000100
00000010
00000001
00000000
,
00001100
00000000
00000000
00000100
00010000
00000000
00000000
00010000
00001000
00000000
00000000
00001000
01000000
00000000
00000000
01000000
,
00100000
00000000
10000000
00000000
10010000
00000000
00000000
00000000
00110000
00000000
00000000
00000000
00100000
00001000
00000000
00000000
,
00000000
00000000
00000000
00000000
00000000
00000000
00010000
00000000
00000000
00000000
00000000
00000000
00000000
00000000
00000000
00000000
00000000
00000000
00000100
00000000
00000000
00000000
00000000
00000000
00000000
00000000
00000000
00000000
00000000
00000000
00000000
00000000
00000000
00000000
00000000
00000000
00000000
00000000
00000000
00000000
00000000
00000000
00000000
00010000
00000000
00000000
00000000
00000000
00000000
00000000
00000000
00000000
00000000
00000000
00000000
00000000
00000000
00000000
00000000
00000000
00000000
00000000
00000000
00000000
00000000
00000000
00000000
00000000
00000000
00000000
00000000
00000000
00000000
00000000
00000000
00000000
00000000
00000000
00000000
00000000
00000000
00000000
00000000
00000000
00002000
00000000
00000000
00000000
00000000
00000000
00000000
00000000
00000000
00000000
00000000
00000000
,
00020000
00000000
00000000
00000000
,
00003000
00000000
00000000
00000000
00000000
00030000
00000000
00000000
00000000
00000000
00000000
00000000
00000000
00000000
00000000
00000000
,
00000000
00000000
00000000
00000000
,
00000000
00002000
00020000
00000000
00000000
00000000
00000000
00000000
00000000
00000000
00000000
00000000
00000000
00000000
00000000
00000000
,
00000000
00033000
00000000
00000000
;
