#TITLE:Magic Mirror Mayhem!;
#SUBTITLE:;
#ARTIST:NANORAY;
#TITLETRANSLIT:;
#SUBTITLETRANSLIT:;
#ARTISTTRANSLIT:;
#GENRE:;
#CREDIT:;
#MUSIC:Magic Mirror Mayhem!.ogg;
#BANNER:Magic Mirror Mayhem!.png;
#BACKGROUND:Magic Mirror Mayhem!-bg.png;
#CDTITLE:;
#SAMPLESTART:41.791;
#SAMPLELENGTH:10.435;
#SELECTABLE:YES;
#OFFSET:-0.052;
#BPMS:0.000=184.000;
#STOPS:;
#ORIGIN:;
#TAGS:;
#PREVIEWVID:;
#JACKET:Magic Mirror Mayhem!-jacket.png;
#CDIMAGE:;
#DISCIMAGE:;
#BGCHANGES:;
#FGCHANGES:;

//--------------- dance-single - Pandemonium X ----------------
#NOTES:
     dance-single:
     Pandemonium X:
     Beginner:
     5:
     0.228136,0.3949,0.133776,0,0,191,175,16,0,0,0,0,0,0,0.228136,0.3949,0.133776,0,0,191,175,16,0,0,0,0,0,0:
0000
0000
0000
0000
,
0000
0000
0000
0000
,
0000
0000
0000
0000
,
0000
0000
0000
0000
,
0010
0000
0100
0000
,
0010
0010
0010
0000
,
1000
0000
0001
0000
,
1000
1000
1000
0000
,
0001
0000
0000
0001
0000
0000
0001
0000
,
0000
0000
0000
0000
,
1000
0000
0000
1000
0000
0000
1000
0000
,
0000
0000
0000
0000
,
0010
0000
0000
0010
0000
0000
0010
0000
,
0000
0000
0000
0000
,
0100
0000
0000
0100
0000
0000
0100
0000
,
0000
0000
0000
0000
,
0001
0000
0000
0000
,
1000
0000
0000
0000
,
0100
0000
0000
0000
,
0010
0000
0001
0000
,
0100
0000
0000
0000
,
0010
0000
0000
0000
,
1000
0000
0000
0000
,
0100
0000
1000
0000
,
0001
0000
0000
0000
,
1000
0000
0000
0000
,
0010
0000
0000
0000
,
0100
0000
0010
0000
,
0100
0000
0000
0000
,
0001
0000
0000
0000
,
1000
0000
0001
0000
,
0010
0000
0100
0000
,
1000
0000
0001
0000
,
0100
0000
0001
0000
,
0010
0000
0100
0000
,
1000
1000
1000
0000
,
0100
0000
1000
0000
,
0010
0000
0100
0000
,
0001
0000
1000
0000
,
0001
0001
0001
0000
,
1001
0000
0001
0000
,
1000
0000
0010
0000
,
1000
0000
0001
0000
,
0010
0000
0100
0100
,
1000
0000
0100
0000
,
1000
0000
0010
0000
,
0100
0000
0000
0100
0000
0000
0010
0000
,
0000
0010
0000
0000
0010
0000
0000
0000
,
1001
0000
0001
0000
,
1001
0000
1000
0000
,
0110
0000
0010
0000
,
0110
0000
0100
0000
,
1001
0000
0000
0000
,
0110
0000
0000
0000
,
1001
0000
0110
0000
,
1001
0110
1001
0000
,
0001
0000
1000
0000
,
0010
0010
0010
0000
,
1000
0000
0001
0000
,
0100
0100
0100
0000
,
0001
0000
1000
0000
,
0100
0010
0001
0000
,
0010
0000
0001
0000
,
1000
0100
0010
0000
,
0100
0000
1000
0000
,
0010
0100
0001
0000
,
1000
0000
0001
0000
,
0010
0001
1000
0000
,
0100
0000
1000
0000
,
0010
0100
0001
0000
,
1000
0000
0001
0000
,
1000
0001
1001
0110
,
1001
0000
1000
0000
,
0001
0000
0010
0001
,
0100
0000
0010
0000
,
1000
1000
0001
1000
,
0100
0000
0010
0000
,
0100
0000
0010
0001
,
0100
0000
0010
0000
,
0100
0100
0100
0100
,
0010
1000
0001
0000
,
1000
0001
0010
0000
,
0100
0010
0001
0000
,
0010
0100
1000
0000
,
0001
0000
0000
0100
0000
0000
0010
0000
,
0000
1000
0000
0000
0001
0000
0000
0110
;

//--------------- dance-single - Pandemonium X ----------------
#NOTES:
     dance-single:
     Pandemonium X:
     Easy:
     10:
     0.455077,0.526743,0.200664,0.275913,0.041805,381,357,24,33,0,0,0,0,0,0.455077,0.526743,0.200664,0.275913,0.041805,381,357,24,33,0,0,0,0,0:
0000
0000
0000
0000
,
0000
0000
0000
0000
,
0000
0000
0000
0000
,
0000
0000
0000
0000
,
0001
0001
1000
1000
,
0010
0100
0010
0000
1001
0000
0000
0000
,
1000
1000
0100
0100
,
0010
0100
1000
0000
0011
0000
1100
0000
,
0001
0000
0000
0100
0000
0000
0010
0000
,
1000
0000
0000
0102
0000
0000
0013
0000
,
0100
0000
0000
0010
0000
0000
0001
0000
,
0200
0000
0000
0000
,
0310
0000
0000
1000
0000
0000
0001
0000
,
1000
0000
0000
2100
0000
0000
3010
0000
,
0100
0000
0000
0001
0000
0000
1000
0000
,
0200
0000
0000
0000
0310
0010
0020
0000
,
0130
0000
1000
0001
1000
0001
1000
0000
,
0001
0000
0100
0010
0100
0010
0100
0000
,
0001
0000
0010
0100
0010
0100
0010
0000
,
0100
0000
1000
0001
1000
0001
1000
0000
,
0001
0000
0100
0001
0010
0001
0100
0000
,
0010
0000
1000
0010
0100
0010
1000
0000
,
0001
0000
1000
0001
0100
0001
1000
0000
,
0001
0000
1000
0010
1000
0001
0010
0000
,
0100
0000
0000
0000
0010
0000
0000
0000
0001
0000
0000
0001
0000
0000
1000
0000
,
0001
0000
0000
0000
0100
0000
0000
0000
0010
0000
0000
0010
0000
0000
1000
0000
,
0100
0000
0000
0000
0010
0000
0000
0000
0100
0000
0000
0100
0000
0000
1000
0000
,
0001
0000
0000
1000
0000
0000
0010
0000
1000
0000
0000
0001
0000
0000
0010
0000
,
0100
0000
0000
0000
0010
0000
0000
0000
0001
0000
0000
0100
0000
0000
0100
0000
,
0010
0000
0000
0000
1000
0000
0000
0000
0001
0000
0000
0010
0000
0000
0010
0000
,
0100
0000
0000
0000
1000
0000
0000
0000
0100
0000
0000
1000
0000
0000
1000
0000
,
0001
0000
0000
0100
0000
0000
0001
0000
0010
0000
0000
0100
0000
0000
1000
0000
,
0001
0000
1000
0000
0010
0000
0000
0200
,
0000
0000
0310
0000
1000
0100
0010
0000
,
0000
0000
0100
0000
0010
0000
0000
0002
,
0000
0000
1003
0000
0001
0010
0100
1000
,
0001
0000
1000
0000
0001
0000
0000
0020
,
0000
0000
0031
0000
0100
0001
0010
0000
,
0000
0000
0100
0000
0010
0000
0000
0200
,
0000
0000
1300
0000
0100
1000
0010
0100
,
0001
0000
1000
0000
0001
0100
0000
0020
,
0000
0000
0130
0000
0001
1000
0001
0000
,
0000
0000
1000
0000
0100
0010
0000
0200
,
0000
0000
0310
0000
0100
1000
0001
0100
,
0001
0000
1000
0000
0001
0100
0000
0020
,
0000
0130
0001
1000
,
0002
0000
0103
0020
0000
0130
0002
0000
,
0103
0020
0000
0130
0002
0000
1003
0000
,
1001
0000
0001
0000
0010
0100
0010
0000
,
0100
0000
1000
0000
0001
0100
0001
0000
,
0100
0000
0010
0000
1000
0001
1000
0000
,
0001
0000
0010
0000
0100
1000
0100
0000
,
0022
0000
0033
0000
,
2200
0000
3300
0000
,
0202
0303
2020
3030
,
1001
0110
1001
0000
,
0001
1000
0100
0010
,
0100
1000
0010
0000
0100
0000
0000
0000
,
0010
0000
0100
0000
0001
0010
0100
0000
,
0100
0010
0001
0000
1000
0000
0000
0000
,
0001
1000
0010
1000
,
0100
0010
0001
0000
0010
0000
0000
0000
,
0100
0000
0010
0000
0001
0100
0010
0000
,
0100
0001
1000
0000
0110
0000
1001
0000
,
0001
1000
0010
0001
,
0010
0100
0001
0000
0010
0000
0000
0000
,
1000
0000
0010
0000
0001
0010
1000
0000
,
1000
0010
0001
0000
0100
0000
0000
0000
,
0010
0001
0010
1000
,
0010
0001
0010
0000
0100
0000
0000
0000
,
1000
0000
0100
0000
0001
0100
1000
0000
,
1000
0100
0001
0000
0101
0000
1010
0000
,
1001
0000
1000
0000
0001
0000
0000
0020
,
0000
0000
0130
0000
0010
0001
1000
0000
,
0000
0000
0001
0000
1000
0000
0000
0020
,
0000
0000
0130
0010
1000
0001
0010
0100
,
0000
0000
0010
0000
0001
1000
0000
0020
,
0000
0000
0130
0000
0001
1000
0100
0000
,
0000
0000
0010
0000
0100
0010
0000
0002
,
0000
0000
1003
0100
0010
0001
0010
0100
,
1000
0000
0001
0100
0001
0100
0000
0020
,
0000
0000
0130
0000
0001
1000
0100
0000
,
0000
0000
0010
0100
1000
0100
0000
0020
,
0000
0000
0130
0010
0001
0100
0010
1000
,
1001
0000
0000
0101
0000
0000
1010
0000
,
0000
0011
0000
0000
1100
0000
0000
0220
,
0000
0000
0000
0000
,
0000
0000
0000
0000
,
0000
0000
0000
0000
,
0000
0000
0000
0000
,
0330
0000
0000
0000
;

//--------------- dance-single - Pandemonium X ----------------
#NOTES:
     dance-single:
     Pandemonium X:
     Medium:
     14:
     0.643797,0.836936,0.493299,0.568548,0.146317,539,480,59,68,0,0,0,0,0,0.643797,0.836936,0.493299,0.568548,0.146317,539,480,59,68,0,0,0,0,0:
0000
0000
0000
0000
,
0000
0000
0000
0000
,
0000
0000
0000
0000
,
0000
0000
0000
0000
,
0001
0001
1000
1000
,
0010
0100
0010
0000
1001
0000
0000
0000
,
1000
0000
0100
0000
0010
0000
0001
0010
0001
0000
0010
0000
0100
0000
1000
0001
,
0010
1000
0010
0000
0011
0000
1010
0000
,
1002
0000
0000
0203
0000
0000
2300
0000
,
3100
0000
0000
2002
0000
0000
0000
3003
,
2000
0000
0000
3200
0000
0000
0302
0000
,
0103
0010
0001
0100
1000
0100
0010
1000
,
0002
0000
0000
0023
0000
0000
0230
0000
,
0310
0000
0000
2002
0000
0000
3003
0000
,
2000
0000
0000
3020
0000
0000
0230
0000
,
0301
0000
0000
0000
0000
0000
0010
0100
1000
0002
0000
0000
,
0103
0000
0010
1000
0001
1000
0100
0000
,
0010
0000
0001
0100
0001
1000
0100
0000
,
0010
0000
0001
0100
0001
1000
0100
0000
,
0010
0000
0100
1000
0010
0100
0001
0010
,
0100
0000
0010
0001
0100
0001
1000
0000
,
0100
0000
0010
0100
1000
0010
0100
0000
,
0001
0000
1000
0010
1000
0001
0010
0000
,
0100
0000
0010
0001
0100
0010
1000
0000
,
0010
0000
0000
0000
1001
0000
0000
0000
0001
0000
0000
0010
0000
0000
0100
0000
,
1000
0000
0000
0000
1010
0000
0000
0000
0010
0000
0000
1000
0000
0000
0001
0000
,
0000
0000
0000
0000
1100
0000
0000
0000
0100
0000
0000
1000
0000
0000
0010
0000
,
0100
0000
0000
0001
0000
0000
0010
0000
0100
1000
0100
1000
0100
0000
1000
0000
,
0001
0000
0000
0000
0101
0000
0000
0000
0100
0000
0000
0001
0000
0000
1000
0000
,
0100
0000
0000
0000
0011
0000
0000
0000
0010
0000
0000
0001
0000
0000
0100
0000
,
0010
0000
1001
0000
0001
0001
1000
1000
,
0010
0010
0100
0100
0010
0100
1001
0000
,
0201
0000
0310
1000
0001
0010
0000
2100
,
0000
0000
3001
1000
0100
1000
0001
0200
,
0000
0300
0010
1000
0001
1000
0000
1200
,
0000
0000
0310
0100
1000
1000
0001
0100
,
0020
0000
0130
0010
1000
0001
0000
2100
,
0000
0000
3010
0100
0010
1000
0001
0020
,
0000
0000
0130
0010
0001
1000
0000
0102
,
0000
0000
0013
0100
1000
0100
0010
0001
,
2001
0000
3010
0001
0010
0100
0000
1020
,
0000
0000
0130
1000
0100
0001
1000
0200
,
0000
0000
0310
0001
0100
0010
0000
0102
,
0000
0000
0103
0010
0001
0010
0100
0001
,
2000
0000
3100
0001
0100
1000
0000
0021
,
0000
0000
0130
0010
0001
0100
1000
0100
,
0020
1000
1030
0200
0010
0310
0002
1000
,
1003
0200
0010
0310
0002
0000
0003
0000
,
1000
0000
0010
1000
0000
1000
0010
0000
0100
0000
0001
0000
1001
0000
0000
0000
,
0001
0000
0010
0001
0000
0001
0010
0000
0100
0000
1000
0000
1001
0000
0000
0000
,
0001
0000
0100
0010
0000
0010
0100
0000
0010
0000
1000
0000
1001
0000
0000
0000
,
1000
0000
0100
0010
0000
0010
0100
0000
0010
0000
0001
0000
1001
0000
0000
0000
,
0001
0000
0101
0000
0000
1010
0000
0000
0101
0000
0000
0000
0000
0000
0000
0000
,
0000
0000
0101
0000
0000
1010
0000
0000
0101
0000
0000
0000
0000
0000
0000
0000
,
0001
0000
0101
0000
0000
1010
0000
0000
0100
0000
0101
0000
0000
1010
0000
0000
,
0010
0010
0010
0100
0100
0100
1001
0000
0000
0110
0000
0000
,
2001
3200
0302
0203
,
1300
0010
0001
0000
2020
0000
3030
0000
,
2000
0000
3020
0000
0031
0010
0200
0000
,
1300
0100
0001
0000
0110
0000
1001
0000
,
0021
2030
3020
0230
,
0301
0100
1000
0000
0022
0000
0033
0000
,
2100
0000
3020
0000
0130
1000
0200
0000
,
0301
0010
2000
0000
3010
0000
0011
0000
,
1100
0100
1000
0010
0100
0001
0010
0010
,
0100
0010
0001
1000
0010
1000
0100
0100
,
0010
0100
1000
0001
0100
0001
1000
1000
,
0001
0010
0100
1000
0100
0010
0001
0001
,
1000
0000
0000
1000
0100
0000
0000
0100
0010
0000
0000
0010
0001
0000
0000
0001
,
0010
0000
0100
0000
0010
0000
0000
0000
1100
0000
0000
0000
0000
0000
0000
1000
,
0010
0000
0000
0010
0100
0000
0000
0100
0001
0000
0010
0000
0100
0000
0000
0000
,
0010
0001
1000
0000
0110
0000
1001
0000
,
0201
0000
0310
1000
0001
0010
0100
0010
,
0001
1000
0001
0100
1000
0100
0001
2000
,
0000
0000
3010
0001
0010
0100
0001
1000
,
0001
0010
0001
1000
0100
0001
0100
1000
,
0020
0000
0130
1000
0100
0001
1000
0001
,
0010
0001
1000
0010
0001
0010
1000
0200
,
0000
0000
0310
1000
0010
0001
0100
0010
,
1000
0001
0100
0001
0010
1000
0010
0001
,
0101
0000
0100
1000
0100
0001
0000
1200
,
0000
0000
0301
0100
1000
0010
0100
0002
,
0000
0000
0013
1000
0010
0001
0000
2100
,
0000
0000
3010
0010
1000
0001
0010
0100
,
2000
0000
3001
0210
0000
1300
0012
0000
,
1003
0210
0000
0301
1100
0100
0010
2002
,
0000
0000
0000
0000
,
0000
0000
0000
0000
,
0000
0000
0000
0000
,
0000
0000
0000
0000
,
0000
0000
0000
0000
,
3003
0000
0000
0000
;

//--------------- dance-single - Pandemonium X ----------------
#NOTES:
     dance-single:
     Pandemonium X:
     Hard:
     16:
     0.816989,1.065191,0.685602,0.50166,0.42223,684,602,82,60,0,0,0,0,0,0.816989,1.065191,0.685602,0.50166,0.42223,684,602,82,60,0,0,0,0,0:
0000
0000
0000
0000
,
0000
0000
0000
0000
,
0000
0000
0000
0000
,
0000
0000
0000
0000
,
2100
3010
0102
0013
,
0001
0100
0010
0000
0202
0000
0303
0000
,
0001
0000
0010
0000
0100
0000
1000
0010
0100
0000
0010
0000
1000
0000
0001
1000
,
0100
0010
0001
0100
0010
1000
0001
0010
0100
0000
0000
0000
1001
0000
0000
0000
,
0002
0000
0103
1020
0000
0130
2001
0000
,
3100
0010
0001
2100
0000
0000
3010
0000
,
0201
0000
0301
0021
0000
0130
2100
0000
,
3001
0100
1000
0100
0010
1000
0001
0001
,
0021
0000
0130
2001
0000
3010
0102
0000
,
0013
0100
1000
0201
0000
0000
0310
0000
,
2001
0000
3010
0210
0000
0310
0102
0000
,
0023
0000
0000
1000
0000
0000
0031
0010
0100
1000
0000
0000
,
1001
0000
0001
0100
1000
0100
0010
0000
,
1001
0000
1000
0100
0001
0100
0010
0000
,
0011
0000
0001
0010
1000
0010
0100
0000
,
0011
0000
0000
0000
0100
0000
1000
0000
0010
0000
0100
0000
0001
0000
0010
0100
,
1000
0000
0001
0001
1000
0010
0101
0000
,
1010
0000
1000
1000
0010
0100
0011
0000
,
1001
0000
0001
0001
1000
0100
1010
0000
,
1001
0000
0001
0001
1000
0010
1001
0000
,
0001
0000
0010
0000
0001
0000
1000
0000
0100
0000
0010
0100
0000
0100
1000
0000
,
0010
0000
0100
0000
0001
0000
0010
0000
0001
0000
0010
0001
0000
0001
0010
0000
,
0100
0000
0010
0000
0001
0000
1000
0000
0010
0000
0100
0001
0000
0001
0010
0000
,
0100
0000
0010
0100
0000
0100
1000
0000
0001
1000
0001
1000
0001
0000
1000
0000
,
0010
0000
0001
0000
0010
0000
0100
0000
0001
0000
0010
0100
0000
0100
1000
0000
,
0001
0000
0010
0000
1000
0000
0010
0000
0001
0000
0010
0100
0000
0100
0010
0000
,
0100
0000
1000
0000
0010
0000
0100
0000
1000
0000
0100
0010
0000
0010
1000
0000
,
0001
1000
0001
0000
0010
0100
0010
0000
1000
0100
1000
0000
0001
0010
0001
0000
,
2001
0000
3010
0001
0010
1000
0000
0102
,
0000
0000
0013
1000
0010
0001
0100
1002
,
0000
0000
0013
1000
0010
0100
0000
0021
,
0000
0000
0130
0001
0100
1000
0010
0100
,
2001
0000
3010
0001
0010
1000
0000
0201
,
0000
0000
0310
1000
0001
0010
0001
1002
,
0000
0000
1003
0010
0100
1000
0000
1200
,
0000
0000
0301
0100
1000
0010
0100
0001
,
1001
0000
1000
0100
0110
0100
0000
0022
,
0000
0033
0010
0100
1100
1000
1010
0020
,
0000
0000
0130
0001
1001
0100
0000
0021
,
0000
0000
0130
0001
0100
1000
0010
0100
,
0201
0000
0310
0100
0110
0001
0000
0201
,
0000
0000
0310
1000
0001
0010
0100
1000
,
1001
0000
0010
0100
0010
0000
1001
0000
0100
0010
0100
0000
1001
0000
0010
0100
,
0010
0000
1001
0000
0100
0010
0100
0000
2002
0000
0000
0000
3003
0000
0000
0000
,
0101
0000
0100
0010
0000
1000
0001
0000
0011
0000
0010
0000
0011
0000
0000
0000
,
0110
0000
0100
1000
0000
1000
0010
0000
0110
0000
0020
0000
0130
0000
0100
0010
,
1000
0000
0001
0010
0000
0001
0100
0000
1010
0000
0010
0000
1010
0000
0000
0000
,
1001
0000
1000
0100
0000
1000
0010
0000
0110
0000
0001
0000
0110
0000
1000
0000
,
1001
0000
0101
0000
0100
0001
0000
0001
1000
0000
0000
0000
0100
0010
0100
1000
,
0001
0000
1010
0000
0000
0010
0100
0000
0100
0001
0000
0000
1000
0001
0010
0001
,
0100
0000
0001
1000
0000
0100
0010
0000
1100
0000
0100
1000
0000
0010
0100
0000
,
0001
0100
1000
0100
0001
0010
0200
0000
0000
0301
0000
0000
,
1200
0302
0203
2300
,
3010
0001
0020
0000
1030
0000
0101
0000
,
0002
0000
0203
0000
1300
0100
0001
0000
,
0001
0010
1000
0000
0021
0000
0130
0000
,
1002
0023
2030
3020
,
0130
1000
0020
0000
0001
0000
0100
0000
,
2030
0000
3200
0000
0301
0100
2000
0000
,
3010
0001
0020
0000
0130
0000
1001
0000
,
0001
0000
0100
0000
0010
0000
1000
0000
0001
0000
0010
0000
0100
1000
0100
1000
,
0100
0000
0010
0000
0100
0000
1000
0000
0001
0000
0100
0000
0001
0010
0001
0010
,
0001
0000
0100
0000
0001
0000
0010
0000
0100
0000
1000
0000
0001
0100
0001
0100
,
0001
0000
1000
0000
0010
0000
1000
0000
0001
0000
0010
0000
0100
1000
0100
1000
,
0001
0000
0000
0001
0100
0000
0000
0100
0010
0000
0000
0010
1000
0000
0000
1000
,
0100
0000
0001
0000
0100
0000
0000
0000
0012
0000
0000
0000
1003
0000
0000
0001
,
1000
0000
0000
1000
0010
0000
0000
0010
0100
0000
0001
0000
0010
0000
0000
0000
,
1000
0010
0001
0000
0101
0000
1100
0000
,
1001
0000
0001
0000
0100
0000
0010
1000
0100
0000
0010
0001
0100
0000
0010
0000
,
1000
0000
0001
0000
0001
0000
0010
0001
0100
0000
0010
1000
0001
0000
1000
0000
,
0100
0000
0010
0000
0100
0000
1000
0001
0100
0000
0001
1000
0100
0000
0010
0000
,
0001
0000
0000
0001
0010
0000
0000
0001
0100
0000
1000
0000
0100
0000
0001
0000
,
1000
0000
0001
1000
0010
0000
1000
0001
0010
0000
0100
0010
0001
0000
1000
0000
,
0001
0000
0000
1000
0010
0000
0001
0000
0010
0000
0100
0000
0001
0000
1000
0000
,
0100
0000
0010
0001
0100
0000
0010
1000
0001
0000
1000
0100
0010
0000
0100
0000
,
1000
0100
0001
0100
0010
0001
0100
0010
,
1000
0000
0000
0000
0001
0100
0010
0100
0001
0000
1000
0000
0000
0000
2001
0000
,
0000
0000
0000
0000
3100
0000
0010
0000
0001
0010
0001
1000
0100
0010
0002
0000
,
0000
0000
0000
0000
0103
1000
0010
0100
0010
0000
0100
0000
0000
0000
0201
0000
,
0000
0000
0000
0000
0301
0000
0100
0000
1000
0000
0100
0001
1000
0000
0001
0000
,
1001
0000
0010
0100
0010
0000
1001
0000
0100
0010
0100
0000
1001
0000
0010
0100
,
0010
0000
1001
0000
0100
0010
0100
0000
1001
0000
0010
0100
0010
0000
2002
0000
,
0000
0000
0000
0000
,
0000
0000
0000
0000
,
0000
0000
0000
0000
,
0000
0000
0000
0000
,
0000
0000
0000
0000
,
3003
0000
0000
0000
;

//--------------- dance-single - Pandemonium X ----------------
#NOTES:
     dance-single:
     Pandemonium X:
     Challenge:
     17:
     0.983014,1.103233,0.969875,0.317718,0.685602,823,707,116,38,0,0,0,0,0,0.983014,1.103233,0.969875,0.317718,0.685602,823,707,116,38,0,0,0,0,0:
0000
0000
0000
0000
,
0000
0000
0000
0000
,
0000
0000
0000
0000
,
0000
0000
0000
0000
,
1100
1100
0011
1001
,
0001
1000
1000
0000
1100
0000
0000
0000
,
1001
0000
0001
0000
0010
0000
0100
1000
0001
0000
0100
0000
0001
0000
1000
0100
,
0010
0001
0010
0001
0010
0000
0100
0000
1001
0000
0000
0000
0110
0000
0000
0000
,
2010
0000
0000
0000
3001
0000
0021
0000
0000
0000
0130
0000
1002
0000
0103
0010
,
2000
0000
0000
3200
0000
0000
0301
0100
,
2000
0000
3001
0021
0000
0130
2001
0000
,
3010
0100
0010
1000
0001
0010
0100
1000
0100
0010
0100
1000
,
0002
0000
0103
2010
0000
3100
0120
0000
,
0230
0000
0000
2300
0000
0000
3001
1000
,
1200
0000
0310
0012
0000
0103
0021
0000
,
0230
0000
0000
0000
0000
0000
0000
0000
0000
0000
0000
0000
0000
0000
0000
0000
0000
0000
0000
0000
0000
0000
0000
0000
0000
0000
0000
0000
0000
0000
0000
0000
0000
0000
0000
0000
0000
0000
0000
0000
0000
0000
0000
0000
0000
0000
0000
0000
0000
0000
0000
0000
0000
0000
0000
0000
0000
0000
0000
0000
0000
0000
0000
0000
0000
0000
0000
0000
0000
0000
0000
0000
0000
0000
0000
0000
0000
0000
0000
0000
0000
0000
0000
0000
0000
0000
0000
0000
0000
0000
0000
0000
0000
0000
0000
0000
0310
0000
0000
0000
0000
0000
0000
0000
0000
0000
0000
0000
0000
0000
0000
0000
0000
0000
0000
0010
0000
0000
0000
0000
0000
0000
0000
0000
0000
0000
0000
0000
0000
0000
0000
0000
0000
0000
0010
0000
0000
0000
0000
0000
0000
0000
0000
0000
0000
0000
0000
0000
0000
0000
0000
0000
0000
0000
0020
0000
0000
0000
0000
0000
0000
0000
0000
0000
0000
0000
0000
0000
0000
0000
0000
0000
0000
0000
0000
0000
0000
0000
0000
0000
0000
0000
0000
0000
0000
0000
0000
0000
0000
0000
0000
0000
,
0031
1000
1010
1100
1010
1100
1001
0000
,
1000
0001
0101
0011
0101
0011
1001
0000
,
0001
0010
0110
0011
0110
0011
1001
0000
,
1000
0000
0010
0000
0110
0000
1010
0000
0110
0000
1010
0000
1001
0000
1000
0100
,
0010
0001
0011
0101
0011
0101
1001
0000
,
0001
1000
1010
1100
1010
1100
1010
0000
,
1000
0001
0101
0110
1010
0110
0101
0000
,
0001
0000
1000
0000
0110
0000
0011
0000
1000
0001
1000
0001
1000
0000
0000
0000
,
0001
0000
0100
0000
0010
0000
1000
0000
0001
0000
1000
0010
0000
0100
0001
0000
,
1000
0000
0001
0000
0100
0000
0001
0000
1000
0000
0001
0010
0000
0100
1000
0000
,
0001
0000
1000
0000
0010
0000
1000
0000
0001
0000
1000
0010
0000
0010
0100
0000
,
1001
0000
0001
0010
0000
0100
1000
0000
1000
0100
1000
0010
1000
0000
0001
0000
,
0101
0000
0001
0000
1000
0000
0010
0000
1000
0000
0001
0100
0000
0100
0010
0000
,
1000
0000
0100
0000
0010
0000
0001
0000
1000
0000
0010
0100
0000
0010
1000
0000
,
0001
0000
0010
0000
0100
0000
1000
0000
1000
0100
1000
0000
0001
0100
0001
0000
,
1000
0010
1000
0000
0001
0010
0001
0000
0010
0100
0010
0000
0100
1000
0100
0000
,
0010
0000
0001
0000
1001
0000
0001
0100
0000
0010
0100
0000
0010
0000
1000
0000
,
0001
0000
1000
0000
1100
0000
0100
0010
0001
0000
0010
0000
0001
0000
1001
0000
,
1000
0000
0100
0000
0110
0000
0010
0100
0000
1000
0010
0000
0100
0000
0001
1000
,
0100
0000
0010
0001
0100
0000
0010
1000
0001
0000
0010
0000
1000
0000
0010
0000
,
0011
0000
0010
0000
0110
0000
0100
0010
0000
0010
0001
0000
1000
0000
0001
0000
,
0100
0000
0001
0000
1001
0000
0001
1000
0100
0000
1000
0000
0010
0000
0110
0000
,
0010
0000
1000
0000
0001
0000
1000
0100
0000
1000
0010
0000
0100
0000
0001
0010
,
0100
0000
0100
1000
0100
0000
0100
1000
0001
0000
0100
0010
1000
0000
0001
1000
,
0100
0000
0010
0000
0011
0000
0001
1000
0100
0000
1000
0000
0010
0000
0201
0000
,
0000
0000
0310
1000
0001
0000
1000
0001
0010
0000
1000
0000
0010
0000
0001
0000
,
1001
0000
0001
1000
0100
0000
1000
0010
0100
0000
0100
0001
0010
0000
0210
0000
,
0000
0000
1300
0000
0100
0000
1000
0000
0001
0000
0100
0010
1000
0000
0001
0000
,
1000
0000
0001
0100
0010
0000
0100
0000
0001
0000
1000
0100
0010
0000
0021
0000
,
0000
0000
0130
1000
0001
0000
0100
0000
1000
0000
0100
0000
0001
0000
1000
0000
,
1200
0000
0310
0001
1000
0000
1020
0000
0130
0001
1000
0000
0012
0000
0103
0001
,
1000
0000
1200
0000
0310
0001
1000
0000
2002
0000
0000
0000
3003
0000
0000
0000
,
0101
0000
0001
0010
0000
0100
1000
0000
1010
0000
0101
0000
1001
0000
1000
0001
,
1000
0000
1000
0100
0000
0010
0001
0000
0101
0000
1020
0000
0130
0000
0000
0000
,
1001
0000
1000
0010
0000
0100
0001
0000
0011
0000
1100
0000
1001
0000
0001
1000
,
0001
0000
1000
0010
0000
0100
0001
0000
0011
0000
1100
0000
1002
0000
2003
0000
,
3001
0000
0000
0000
0000
0000
1000
0000
0000
0100
0000
0000
0000
0000
0000
0010
0000
0000
0001
0000
0000
0000
0000
0000
1000
0000
0000
0100
0000
0000
0000
0000
0000
0000
0000
0000
1000
0000
0010
0000
1000
0000
0010
0000
1000
0000
0010
0000
,
1000
0000
0000
0000
0000
0000
0000
0000
0000
0000
0000
0000
0001
0000
0000
0000
0000
0000
0010
0000
0000
0000
0000
0000
0000
0000
0000
0000
0000
0000
0100
0000
0000
0000
0000
0000
1000
0000
0000
0000
0000
0000
0000
0000
0000
0000
0000
0000
0001
0000
0000
0000
0000
0000
0000
0000
0000
0000
0000
0000
0000
0000
0000
0000
0000
0000
0000
0000
0000
0000
0000
0000
1000
0000
0000
0000
0000
0001
0000
0000
1000
0000
0000
0000
0001
0000
0000
0000
1000
0000
0000
0000
0001
0000
0000
0000
,
1000
0000
0001
0010
0000
0100
1000
0000
1001
0000
1000
0010
0000
0100
0001
0000
,
1001
0001
0001
1001
1000
1000
1001
0000
0000
0110
0000
0000
,
1000
0000
0000
0001
0010
0000
0000
1000
0010
0000
0000
0001
0010
0000
0000
0000
,
0100
0010
0001
0000
0102
0000
0010
0000
,
1003
0000
0000
1000
0100
0000
0000
1000
0010
0000
0001
0000
0010
0000
0000
0000
,
0100
0001
1000
0000
1002
0000
0010
0000
,
1003
0000
0000
0001
0100
0000
0000
1000
0100
0000
0000
0001
0100
0000
0000
0000
,
0010
1000
0001
0000
2100
0000
0010
0000
,
3100
0000
0000
0010
0001
0000
0000
0010
0100
0000
1000
0000
0010
0000
0000
0000
,
0100
0000
0001
0000
1000
0000
0000
0000
0001
0010
0001
0010
0001
0000
0000
0000
,
1000
0000
0001
0000
0100
0000
0001
0000
1000
0000
0100
0000
0010
0100
1000
0001
,
1000
0000
0010
0000
1000
0000
0001
0000
0010
0000
0001
0000
1000
0001
0010
0100
,
0010
0000
0001
0000
0100
0000
0001
0000
1000
0000
0010
0000
0100
0010
1000
0100
,
0010
0000
0001
0000
0100
0000
0001
0000
1000
0000
0100
0000
0010
0100
1000
0001
,
1000
0000
0100
0000
0010
0000
0001
0000
1000
0000
0100
0000
0010
0100
1000
0001
,
0010
0000
1000
0000
0010
0000
0100
0000
0010
0000
0100
0000
1000
0100
1000
0001
,
0100
0000
1000
0000
0100
0000
0001
0000
0100
0000
0010
0000
1000
0001
0010
0100
,
0010
0001
0001
0000
0011
0000
1010
0000
,
1001
0000
1000
0000
1100
0000
1000
0001
0100
0000
0001
0010
0100
0000
1000
0000
,
0010
0000
0100
0000
0101
0000
0001
1000
0010
0000
0100
0001
1000
0000
1100
0000
,
0100
0000
0010
0001
0100
0000
0010
1000
0100
0000
1000
0000
0001
0010
0100
0000
,
1100
0000
0100
1000
0001
0000
0100
0001
0010
0000
0001
1000
0001
0000
0100
0000
,
1001
0000
0001
1000
0010
0000
0100
0000
0010
0000
0100
0001
1000
0000
0001
0000
,
0011
0000
0010
0000
0110
0000
0100
1000
0001
0000
0100
0010
1000
0000
1001
0000
,
1000
0001
0010
0000
0001
1000
0100
0000
0010
0000
0100
1000
0010
0000
0100
0010
,
1000
0000
0001
0000
0011
0000
0010
0100
1000
0000
0100
1000
0001
0000
0100
0000
,
0110
0000
0000
0000
1000
0010
1000
0001
0010
0100
1000
0000
0000
0000
1002
0000
,
0000
0000
0000
0000
1003
0100
1000
0010
0100
0001
0010
0100
1000
0001
0200
0000
,
0000
0000
0000
0000
0301
1000
0100
0010
0001
0100
0010
1000
0001
0010
0200
0000
,
0000
0000
0000
0000
0310
0000
0001
0010
0001
0000
1000
0100
1000
0000
0001
0000
,
0101
1000
0010
0101
0001
1000
0011
0100
,
1000
0000
1001
0000
0001
0000
0100
0000
1010
0000
0010
0100
0001
0000
0220
0000
,
0000
0000
0000
0000
,
0000
0000
0000
0000
,
0000
0000
0000
0000
,
0000
0000
0000
0000
,
0000
0000
0000
0000
,
0330
0000
0000
0000
;

//--------------- dance-double - Pandemonium X ----------------
#NOTES:
     dance-double:
     Pandemonium X:
     Easy:
     9:
     0.409689,0.526743,0.225747,0.259191,0,343,316,27,31,0,0,0,0,0,0.409689,0.526743,0.225747,0.259191,0,343,316,27,31,0,0,0,0,0:
00000000
00000000
00000000
00000000
,
00000000
00000000
00000000
00000000
,
00000000
00000000
00000000
00000000
,
00000000
00000000
00000000
00000000
,
00001000
00001000
00010000
00010000
,
00001000
00010000
00011000
00000000
,
00010000
00010000
00001000
00001000
,
00010000
00001000
00011000
00000000
,
00010000
00000000
00000000
00000100
00000000
00000000
00001000
00000000
,
00000020
00000000
00000030
00000200
00000000
00000000
00000000
00000000
,
00000301
00000000
00000000
00000010
00000000
00000000
00000100
00000000
,
00020000
00000000
00000000
00000000
,
00031000
00000000
00000000
01000000
00000000
00000000
00100000
00000000
,
20000000
00000000
00000000
32000000
00000000
00000000
03000000
00000000
,
00100000
00000000
00000000
01000000
00000000
00000000
10000000
00000000
,
00020000
00000000
00000000
00000000
00130000
00001000
00010000
00000000
,
00000100
00001000
00000010
00000100
,
00000001
00000010
00000100
00001000
,
00000100
00010000
00001000
01000000
,
00100000
10000000
00010000
00100000
,
01000000
10000000
01000000
10000000
,
00010000
00100000
00001000
00010000
,
00000100
00001000
00000010
00000100
,
00000001
00000010
00000100
00001100
,
00000100
00010000
00001000
00001000
,
00010000
00001000
01000000
01000000
,
00100000
10000000
00010000
00010000
,
10000000
00000000
10000000
00000000
00010000
01000000
00010000
00000000
,
01000000
00010000
00100000
00100000
,
00001000
00010000
00000100
00000100
,
00001000
00000010
00000100
00000100
,
00000010
00000010
00000100
00000010
,
00000000
00000000
00010000
00000000
00001000
00000000
00000000
02000000
,
00000000
00000000
03100000
00000000
10000000
01000000
00100000
00000000
,
00000000
00000000
01000000
00000000
10000000
00000000
00000000
00020000
,
00000000
00000000
00130000
00000000
00001000
00010000
00000100
00001000
,
00000010
00000000
00000100
00000000
00000001
00000000
00000000
00000020
,
00000000
00000000
00000130
00000000
00000010
00000001
00000100
00000000
,
00000000
00000000
00000010
00000000
00001000
00000000
00000000
00000200
,
00000000
00000000
00010300
00000000
00001000
01000000
00100000
10000000
,
01000000
00000000
10000000
00000000
01000000
00000000
00000000
00200000
,
00000000
00000000
00301000
00000000
00010000
00000100
00001000
00000000
,
00000000
00000000
00000010
00000000
00000100
00000000
00000000
00000002
,
00000000
00000000
00000013
00000000
00000001
00000100
00000010
00001000
,
00000100
00000000
00010000
00000000
00001000
01000000
00000000
00200000
,
00000000
01300000
00010000
00100000
,
01100000
00000000
00000000
00110000
00000000
00000000
00011000
00000000
,
00000000
00010100
00000000
00000000
00001100
00000000
00000000
00000000
,
00000001
00000000
00000100
00000000
00000010
00001000
00000010
00000000
,
00001000
00000000
00000100
00000000
00010000
00000100
00010000
00000000
,
00001000
00000000
01000000
00000000
00100000
01000000
00100000
00000000
,
01000000
00000000
00010000
00000000
10000000
00010000
10000000
00000000
,
22000000
00000000
00000000
00000000
00000000
33000000
00000000
00000000
,
00220000
00000000
00000000
00000000
00000000
00330000
00000000
00000000
,
00202000
00000000
00000000
00303000
00020200
00000000
00000000
00030300
,
00022000
00000000
00030000
00003000
,
00010000
00000100
00001000
00000010
,
00000100
00000001
00000010
00000000
00000100
00000000
00000000
00000000
,
00000010
00000000
00000001
00000000
00001000
00000010
00000100
00000000
,
00000100
00000010
00001000
00000000
00000100
00000000
00000000
00000000
,
00010000
00001000
01000000
00100000
,
10000000
00100000
01000000
00000000
00100000
00000000
00000000
00000000
,
01000000
00000000
00010000
00000000
00100000
01000000
10000000
00000000
,
10000000
01000000
00100000
00000000
00110000
00000000
01010000
00000000
,
00010000
00100000
00001000
00010000
,
00000100
00001000
00000010
00000000
00001010
00000000
00000000
00000000
,
00000010
00000000
00000100
00000000
00000001
00000010
00000100
00000000
,
00000100
00000010
00000001
00000000
00001001
00000000
00000000
00000000
,
00000001
00000100
00000010
00001000
,
00000100
00010000
00001000
00000000
00011000
00000000
00000000
00000000
,
00001000
00000000
01000000
00000000
00100000
10000000
00010000
00000000
,
00100000
01000000
10000000
00000000
11000000
00000000
00110000
00000000
,
10010000
00000000
00010000
00000000
00100000
00001000
00000000
00020000
,
00000000
00000000
00030100
00000000
00000100
00001000
00000010
00000000
,
00000000
00000000
00000100
00000000
00000001
00000010
00000000
00000200
,
00000000
00000000
00000310
00000000
00000010
00000001
00000100
00000010
,
00000000
00000000
00000100
00000000
00000010
00001000
00000000
00000200
,
00000000
00000000
00010300
00000000
00001000
01000000
00100000
00000000
,
00000000
00000000
10000000
00000000
00010000
00100000
00000000
02000000
,
00000000
00000000
03100000
00000000
00010000
00100000
01000000
10000000
,
00000000
00000000
10000000
00010000
00100000
00010000
00000000
02000000
,
00000000
00000000
03010000
00000000
00100000
00001000
00010000
00000000
,
00000000
00000000
00000100
00001000
00000010
00000100
00000000
00000002
,
00000000
00000000
00000013
00000100
00000010
00000001
00001000
00000100
,
00001100
00000000
00000000
00011000
00000000
00000000
00110000
00000000
,
00000000
01100000
00000000
00000000
11000000
00000000
00000000
20020000
,
00000000
00000000
00000000
00000000
,
00000000
00000000
00000000
00000000
,
00000000
00000000
00000000
00000000
,
00000000
00000000
00000000
00000000
,
30030000
00000000
00000000
00000000
;

//--------------- dance-double - Pandemonium X ----------------
#NOTES:
     dance-double:
     Pandemonium X:
     Medium:
     13:
     0.622297,0.714865,0.535104,0.409689,0.117054,521,457,64,49,0,0,0,0,0,0.622297,0.714865,0.535104,0.409689,0.117054,521,457,64,49,0,0,0,0,0:
00000000
00000000
00000000
00000000
,
00000000
00000000
00000000
00000000
,
00000000
00000000
00000000
00000000
,
00000000
00000000
00000000
00000000
,
00001000
00010000
00001000
00001000
,
00010000
00001000
00010000
00000000
00011000
00000000
00000000
00000000
,
00010100
00011000
01001000
00011000
,
00001000
00010000
00000100
00000000
00001100
00000000
00000011
00000000
,
00000002
00000000
00000103
00000020
00000000
00010030
00002000
00000000
,
01003000
00000000
00000000
00000000
00100000
10000000
00020000
00000000
00000000
00000000
00000000
00000000
10030000
00000000
01000000
00000000
,
00200000
00000000
00301000
00020000
00000000
00030010
00000200
00000000
,
00000301
00001000
00000100
00010000
00001000
01000000
00100000
00100000
,
10020000
00000000
00130000
02000000
00000000
13000000
00020000
00000000
,
00130000
00000000
00000000
00000000
00001000
00010000
00000020
00000000
00000000
00000000
00000000
00000000
00000130
00000000
00000001
00000000
,
00002000
00000000
00003100
00020000
00000000
00031000
02000000
00000000
,
03200000
00000000
00000000
00000000
00000000
00000000
01300000
00010000
10000000
00010000
00000000
00000000
,
11000000
00000000
10000000
00010000
00100000
00001000
00010000
00000000
,
00011000
00000000
00010000
00000100
00001000
00000001
00001000
00000000
,
00001001
00000000
00000001
00001000
00000010
00010000
00001000
00000000
,
00011000
00000000
00001000
01000000
00010000
10000000
01000000
10000000
,
10010000
00000000
00010000
00100000
00001000
00010000
00000010
00000000
,
00000110
00000000
00000100
00000010
00010000
00000100
00001000
00000000
,
00001100
00000000
00000100
00010000
00001000
01000000
00010000
00000000
,
01010000
00000000
01000000
00100000
10000000
10000000
00010000
00000000
,
10000000
00000000
00000000
00000000
01000000
00000000
00000000
00000000
00100000
00000000
00000000
00001000
00000000
00000000
00010000
00000000
,
00000100
00000000
00000000
00000000
00001000
00000000
00000000
00000000
00000010
00000000
00000000
00000100
00000000
00000000
00000001
00000000
,
00000010
00000000
00000000
00000000
00000100
00000000
00000000
00000000
00010000
00000000
00000000
00001000
00000000
00000000
01000000
00000000
,
00010000
00000000
00000000
00100000
00000000
00000000
00001000
00000000
00010000
00000100
00010000
00000100
00010000
00000000
00001000
00000000
,
00010000
00000000
00000000
00000000
00000100
00000000
00000000
00000000
00001000
00000000
00000000
00000010
00000000
00000000
00000100
00000000
,
00000010
00000000
00000000
00000000
00000100
00000000
00000000
00000000
00000001
00000000
00000000
00000010
00000000
00000000
00000001
00000000
,
00001000
00000000
00000100
00000000
00010000
00001000
01000000
00100000
,
10000000
01000000
00100000
00010000
00100000
00001000
00010000
00000100
,
00001100
00000000
00010000
00001000
01000000
00100000
00000000
20000000
,
00000000
00000000
31000000
10000000
00010000
00100000
00001000
00020000
,
00000000
00000000
00030100
00001000
00000010
00000100
00000000
00000020
,
00000000
00000000
00000130
00001000
00000100
00000001
00001000
00000100
,
00020000
00000000
00031000
01000000
00001000
00010000
00000000
00002000
,
00000000
00000000
00013000
00000100
00010000
00001000
01000000
00200000
,
00000000
00000000
01300000
00010000
10000000
00010000
00000000
00200000
,
00000000
00000000
01300000
00010000
01000000
10000000
00010000
00100000
,
00001000
00000000
00010000
00000100
00001000
00000010
00000000
00000102
,
00000000
00000000
00000013
00000100
00000010
00000001
00001000
00000200
,
00000000
00000000
00010300
00001000
01000000
00100000
00000000
20010000
,
00000000
00000000
31000000
00100000
00010000
00100000
10000000
00100000
,
00020000
00000000
01030000
00010000
00100000
00001000
00000000
00002100
,
00000000
00000000
00003100
00010000
00001000
01000000
00100000
10000000
,
00020000
00000000
00130000
02000000
00000000
13000000
00020000
00000000
,
00130000
00002000
00000000
00013000
00000200
00000000
00001300
00000000
,
00011000
00000000
00010000
00000100
00000000
00010000
00000100
00000000
00001000
00000000
00000010
00000000
00000100
00000000
00000000
00000000
,
00000001
00000000
00001000
00000001
00000000
00001000
00000001
00000000
00000010
00000000
00000110
00000000
00000100
00000000
00000000
00000000
,
00001000
00000000
00000100
00010000
00000000
00000100
00010000
00000000
00001000
00000000
01000000
00000000
00100000
00000000
00000000
00000000
,
01000000
00000000
00010000
10000000
00000000
00010000
10000000
00000000
00010000
00000000
10000000
00000000
01000000
00000000
00100000
00000000
,
00010000
00000000
00100000
00000000
00000000
00001000
00000000
00000000
00011000
00000000
00000000
00000000
00000000
00000000
00000000
00000000
,
00010000
00000000
00000100
00000000
00000000
00001000
00000000
00000000
00000101
00000000
00000000
00000000
00000000
00000000
00000000
00000000
,
00001001
00000000
00000001
00000000
00000000
00001000
00000000
00000000
00001100
00000000
00000100
00000000
00000000
00010000
00000000
00000000
,
00001000
00010000
00001000
00010000
00001000
00010000
00001000
00000000
00000000
01000000
00000000
00000000
,
10100000
01010000
00110000
00101000
,
00010000
00000100
00001000
00000000
00001100
00000000
00000000
00000000
,
00000110
00000000
00001100
00000000
00000001
00000010
00000100
00000000
,
00000010
00000100
00001000
00000000
00001100
00000000
00000000
00000000
,
00011000
00010100
00011000
01001000
,
00001000
01000000
00100000
00000000
10010000
00000000
00000000
00000000
,
10010000
00000000
00110000
00000000
00100000
00001000
00010000
00000000
,
00010000
00000100
00001000
00000000
00001100
00000000
00011000
00000000
,
00011000
00001010
00011000
00101000
,
00001000
00010000
00000100
00000000
00000110
00000000
00000000
00000000
,
00000011
00000000
00001100
00000000
00000100
00010000
00001000
00000000
,
00001000
01000000
00100000
00000000
01100000
00000000
00010000
00000000
,
00110000
00001010
00110000
00001010
,
00000010
00010000
00001000
00000000
00011000
00000000
00000000
00000000
,
00011000
00000000
00110000
00000000
00100000
01000000
10000000
00000000
,
10000000
01000000
00100000
00000000
00110000
00000000
00011000
00000000
,
00001010
00000000
00000001
00000100
00000010
00001000
00000000
00000200
,
00000000
00000000
00010300
00010000
00001000
01000000
00100000
20000000
,
00000000
00000000
31000000
00100000
01000000
10000000
00000000
00020000
,
00000000
00000000
00130000
00001000
00010000
00010000
00000100
00001000
,
00000020
00000000
00000130
00000001
00001000
00000100
00000000
00000020
,
00000000
00000000
00000130
00000100
00000010
00000001
00001000
00000200
,
00000000
00000000
00010300
00001000
01000000
00100000
00000000
20000000
,
00000000
00000000
30010000
00010000
00100000
01000000
00100000
00010000
,
20000000
00000000
31000000
00100000
00001000
00010000
00000000
00010200
,
00000000
00000000
00001300
00000010
00000100
00000100
00000001
00000020
,
00000000
00000000
00000130
00000010
00000001
00001000
00000000
00001200
,
00000000
00000000
00010300
00001000
01000000
00100000
10000000
01000000
,
00200000
00000000
00301000
00020000
00000000
00030100
00002000
00000000
,
00003010
00000200
00000000
00000310
00010000
00000100
00010000
00022000
,
00000000
00000000
00000000
00000000
,
00000000
00000000
00000000
00000000
,
00000000
00000000
00000000
00000000
,
00000000
00000000
00000000
00000000
,
00033000
00000000
00000000
00000000
;

//--------------- dance-double - Pandemonium X ----------------
#NOTES:
     dance-double:
     Pandemonium X:
     Hard:
     15:
     0.750101,1.015861,0.535104,0.426411,0.288454,628,564,64,51,0,0,0,0,0,0.750101,1.015861,0.535104,0.426411,0.288454,628,564,64,51,0,0,0,0,0:
00000000
00000000
00000000
00000000
,
00000000
00000000
00000000
00000000
,
00000000
00000000
00000000
00000000
,
00000000
00000000
00000000
00000000
,
00100000
00001000
00010000
00000010
,
00000100
00000001
00000010
00000000
00001100
00000000
00000000
00000000
,
00010000
00000000
00001000
00000000
01000000
00000000
00100000
10000000
01000000
00000000
00100000
00000000
00001000
00000000
00010000
00000100
,
00001000
00000010
00000100
00000000
00000101
00000000
00000000
00000000
00001010
00000000
00000000
00000000
00010100
00000000
00000000
00000000
,
00012000
00000000
01003000
02100000
00000000
03010000
00210000
00000000
,
00301000
00000000
00000000
00000000
00010000
00000010
00000200
00000000
00000000
00000000
00000000
00000000
00000001
00000000
00000000
00000000
,
00000320
00000000
00000130
00000102
00000000
00000013
00000210
00000000
,
00010300
00001000
00010000
00000100
00010000
00001000
01000000
01000000
,
02010000
00000000
03010000
00210000
00000000
00301000
00012000
00000000
,
00013000
00000000
00000000
00000000
00000010
00000100
00000002
00000000
00000000
00000000
00000000
00000000
00000010
00000000
00000000
00000000
,
00002003
00000000
00003010
00000210
00000000
00000301
00002001
00000000
,
00003200
00000000
00000000
00000000
00000000
00000000
00020300
00032000
00023000
00032000
00000000
00000000
,
01003000
00000000
00100000
01000000
00010000
10000000
11000000
00000000
,
00010000
00000000
00100000
00001000
00010000
00000100
00001100
00000000
,
00000100
00000000
00001000
00000010
00000100
00000001
00000011
00000000
,
00000001
00000000
00001000
00000100
00010000
00001000
01000000
01000000
,
01100000
00000000
01000000
10000000
01000000
00010000
00110000
00000000
,
00100000
00000000
00100000
00001000
00010000
00000100
00001010
00000000
,
00001000
00000000
00000001
00000100
00001000
00000100
00000110
00000000
,
00000010
00010000
00001000
01000000
00100000
00100000
10000000
00000000
,
00010000
00000000
00100000
00000000
00001000
00000000
00010000
00000000
00000100
00000000
00001000
00000010
00000000
00000100
00000010
00000000
,
00000100
00000000
00000001
00000000
00001000
00000000
00000100
00000000
00010000
00000000
00001000
01000000
00000000
00100000
01000000
00000000
,
00100000
00000000
10000000
00000000
00010000
00000000
00100000
00000000
01000000
00000000
00100000
00010000
00000000
00100000
01000000
00000000
,
10000000
00000000
00010000
00100000
00000000
00001000
00010000
00000000
00000100
00001000
00000100
00001000
00000100
00000000
00001000
00000000
,
00000010
00000000
00000100
00000000
00000001
00000000
00001000
00000000
00000100
00000000
00010000
00001000
00000000
00010000
00000010
00000000
,
00000100
00000000
00000010
00000000
00010000
00000000
00001000
00000000
01000000
00000000
00100000
10000000
00000000
01000000
00100000
00000000
,
01000000
00000000
00100000
00000000
01000000
00000000
10000000
00000000
00010000
00100000
00010000
00000000
00100000
00001000
00100000
00000000
,
00001000
00010000
00001000
00000000
00010000
00000010
00010000
00000000
00000100
00000010
00000100
00000000
00000001
00000100
00000001
00000000
,
00002000
00000000
00003100
00010000
00001000
00010000
00000000
00201000
,
00000000
00000000
00310000
00100000
00010000
10000000
00100000
02000000
,
00000000
00000000
03010000
01000000
10000000
01000000
00000000
01020000
,
00000000
00000000
00130000
00001000
00010000
00010000
00000010
00000100
,
00000002
00000000
00000013
00001000
00000010
00000001
00000000
00000201
,
00000000
00000000
00000310
00000100
00000001
00001000
00000100
00020000
,
00000000
00000000
00031000
01000000
00100000
10000000
00000000
00120000
,
00000000
00000000
01030000
00001000
00010000
00000100
00001000
00000010
,
00000110
00000000
00000001
00000100
00001000
00000100
00000000
00000201
,
00000000
00000000
00000301
00000010
00001000
00000010
00000001
00002000
,
00000000
00000000
00003100
00010000
00001000
01000000
00000000
10200000
,
00000000
00000000
01300000
10000000
01000000
00010000
10000000
01000000
,
00100000
00000000
00010000
00100000
10000000
00100000
00000000
12000000
,
00000000
00000000
03100000
00001000
00010000
00001000
01000000
00100000
,
10000000
01000000
00010000
00001000
00000010
00000001
00000100
00001000
,
00010000
00100000
10000000
00010000
00200000
00000000
00300000
00000000
,
01000000
00000000
01000000
10000000
00000000
10000000
00100000
00000000
01000000
00000000
00010000
00000000
00100000
00000000
00000000
00000000
,
00001000
00000000
00010000
00000100
00000000
00000100
00001000
00000000
00000010
00000000
00000200
00000000
00000301
00000000
00001000
00000000
,
00000100
00000000
00000100
00000010
00000000
00000010
00000001
00000000
00001000
00000000
00000010
00000000
00010000
00000000
00000000
00000000
,
00001000
00000000
00010000
00001000
00000000
00001000
01000000
00000000
00100000
00000000
10000000
00000000
00010000
00000000
00010000
00000000
,
10010000
00000000
00000000
11000000
00000000
00000000
00110000
00000000
00000000
00000000
00100000
00000000
00001000
00010000
00001000
00010000
,
00000010
00000000
00000000
00000110
00000000
00000000
00000101
00000000
00000100
00000000
00000010
00000000
00001000
00000100
00001000
00000100
,
00010000
00000000
00012000
00000000
00000000
01003000
00000000
00000000
00001000
00000000
00021000
00000000
00000000
00000000
00030100
00000000
,
00010000
00010000
00010000
00001000
00001000
00001000
00020000
00000000
00000000
00031000
00000000
00000000
,
00010200
00010300
00012000
00013000
,
00001000
00100000
00010000
00000000
11000000
00000000
01000000
00000000
,
11000000
00000000
01010000
00000000
00010000
00100000
00101000
00000000
,
00100000
00001000
00011000
00000000
00001100
00000000
00001010
00000000
,
00000201
00000310
00002010
00003100
,
00010000
00001000
01000000
00000000
01100000
00000000
01000000
00000000
,
10100000
00000000
01010000
00000000
00010000
00100000
00001000
00000000
,
00010000
00000100
00001000
00000000
00001100
00000000
00011000
00000000
,
00001000
01000000
00100000
10000000
00010000
00100000
01000000
00100000
,
00001000
00001000
00010000
00000000
00010100
00000000
00000000
00000000
,
00001000
00000010
00000100
00000001
00000010
00000100
00001000
00000100
,
00010000
00001000
01000000
00000000
01100000
00000000
00000000
00000000
,
01000000
00100000
10000000
00010000
00100000
00001000
00010000
00000100
,
00001000
00000010
00000100
00000001
00000010
00000100
00001100
00000000
,
00010000
00000100
00010000
00001000
01000000
00100000
10000000
00010000
,
00100000
01000000
00100000
00000000
10010000
00000000
00011000
00000000
,
00010000
00000000
00000100
00000000
00001100
00000000
00000100
00001000
00000010
00000000
00000100
00000010
00001000
00000000
00000001
00000000
,
00001000
00000010
00000100
00001000
00000100
00000001
00001000
00000200
,
00000000
00000000
00010300
00001000
00010000
00000000
00001000
01000000
00001000
00000000
01000000
00000000
00100000
10000000
02000000
00000000
,
00000000
03100000
00010000
00100000
10000000
00100000
00001000
00010000
,
00000100
00000000
00001000
00000010
00000100
00000000
00000010
00001000
00000001
00000000
00001000
00000000
00000100
00010000
00002000
00000000
,
00000000
00000000
01003000
10000000
01000000
00010000
10000000
02000000
,
00000000
00000000
03100000
01000000
10000000
00000000
00010000
00100000
01000000
00000000
10000000
00000000
00010000
00000000
02000000
00000000
,
00000000
00000000
03001000
00010000
00000010
00000100
00000001
00000010
,
00001200
00000000
00000000
00000000
00010300
00001000
00100000
00000000
00001000
01000000
00100000
00000000
00000000
00000000
10200000
00000000
,
00000000
00000000
00000000
00000000
01300000
00010000
10000000
00000000
00010000
00100000
00001000
00000000
00010000
00000000
00000200
00000000
,
00000000
00000000
00000000
00000000
00010300
00000010
00000100
00000000
00000010
00001000
00000001
00000000
00000010
00000100
00002000
00000000
,
00000000
00000000
00003001
00000100
00001000
00010000
00100000
10000000
,
10010000
00000000
00010000
01000000
00010000
00000000
00110000
00000000
00100000
00001000
00100000
00000000
00011000
00000000
00010000
00000100
,
00010000
00000000
00001100
00000000
00001000
00000010
00000100
00000000
00000010
00000000
00010000
00001000
00100000
00002000
00020000
00000000
,
00000000
00000000
00000000
00000000
,
00000000
00000000
00000000
00000000
,
00000000
00000000
00000000
00000000
,
00000000
00000000
00000000
00000000
,
00033000
00000000
00000000
00000000
;

//--------------- dance-double - Pandemonium X ----------------
#NOTES:
     dance-double:
     Pandemonium X:
     Challenge:
     17:
     0.895821,1.059338,0.735768,0.443133,0.647977,750,662,88,53,0,0,0,0,0,0.895821,1.059338,0.735768,0.443133,0.647977,750,662,88,53,0,0,0,0,0:
00000000
00000000
00000000
00000000
,
00000000
00000000
00000000
00000000
,
00000000
00000000
00000000
00000000
,
00000000
00000000
00000000
00000000
,
21000000
30100000
01020000
00130000
,
00001000
00010000
00000100
00000000
00001100
00000000
00001000
00000000
,
00001100
00000000
00001000
00000000
00000010
00000000
00000100
00000001
00000010
00000000
00000100
00000000
00001000
00000000
00000100
00010000
,
00001000
01000000
00100000
10000000
01000000
00100000
00010000
00100000
00001000
00000000
00000000
00000000
00000110
00000000
00000000
00000000
,
00002001
00000000
00000000
00000000
00003100
00010000
00002000
00000000
00000000
00000000
01003000
00100000
20000000
00000000
00000000
00000000
,
31000000
00000000
00100000
00000000
00001000
00010000
00000020
00000000
00000000
00000000
00000130
00000000
00000001
00000000
00000010
00000000
,
00000021
00000000
00000000
00000000
00000031
00001000
00000200
00000000
00000000
00000000
00010300
00001000
02000000
00000000
00000000
00000000
,
03100000
10000000
00100000
01000000
00100000
10000000
00100000
01000000
00100000
10000000
00100000
01000000
00100000
10000000
00100000
01000000
,
00200000
00000000
00000000
00000000
10300000
00010000
00200000
00000000
00000000
00000000
00301000
00010000
00000020
00000000
00000000
00000000
,
00000130
00000000
00000000
00000000
00000010
00000100
00000002
00000000
00000000
00000000
00001003
00000000
00000001
00000000
00001000
00000000
,
00000200
00000000
00000000
00000000
00010300
00001000
02000000
00000000
00000000
00000000
03100000
10000000
02000000
00000000
00000000
00000000
,
03200000
00000000
00000000
00000000
00000000
00000000
01300000
01000000
01000000
02000000
00000000
00000000
,
13000000
00000000
11000000
01100000
00110000
00101000
00011000
00000000
,
00010100
00000000
00001100
00001010
00000110
00000101
00001001
00000000
,
00000101
00000000
00000101
00000110
00001010
00001100
00010100
00000000
,
00011000
00000000
00000000
00000000
00011000
00000000
01001000
00000000
01100000
00000000
10100000
00000000
10010000
00000000
10000000
01000000
,
00100000
00000000
00010000
01000000
00100000
00000000
10000000
00010000
00100000
00000000
00001000
00010000
00000100
00000000
00000000
00000000
,
00011000
00000000
00010000
00000010
00000100
00000000
00000010
00001000
00000001
00000000
00000010
00000100
00001000
00000000
00000000
00000000
,
00001100
00000000
00000100
00010000
00001000
00000000
00100000
00010000
01000000
00000000
00100000
10000000
00010000
00000000
00000000
00000000
,
10010000
00000000
10000000
00010000
00100000
00000000
00001000
00010000
00000010
00000000
00000100
00000001
00000010
00000000
00000010
00000000
,
00000100
00000000
00010000
00000000
00001000
00000000
01000000
00000000
00100000
00000000
10000000
00010000
00000000
00100000
01000000
00000000
,
10000000
00000000
00010000
00000000
00100000
00000000
00001000
00000000
00010000
00000000
00000010
00000100
00000000
00000001
00000010
00000000
,
00000100
00000000
00000010
00000000
00000001
00000000
00001000
00000000
00000100
00000000
00010000
00001000
00000000
00010000
00000100
00000000
,
00001000
00000000
00000010
00000100
00000000
00000001
00000010
00000000
00000100
00000001
00000100
00001000
00000010
00000000
00000100
00000000
,
00000001
00000000
00001000
00000000
00000100
00000000
00010000
00000000
00001000
00000000
01000000
00100000
00000000
10000000
01000000
00000000
,
00100000
00000000
01000000
00000000
10000000
00000000
00010000
00000000
01000000
00000000
00100000
10000000
00000000
00010000
00100000
00000000
,
00001000
00000000
00010000
00000000
00000100
00000000
00001000
00000000
00000010
00000100
00000002
00000000
00000013
00000100
00002000
00000000
,
00003100
00010000
00002000
00000000
00013000
00001000
02000000
00000000
03100000
00000000
00000000
00000000
00011000
00000000
00000000
00000000
,
00001001
00000000
00000001
00000100
00001000
00010000
00000000
01200000
,
00000000
00000000
01300000
00010000
10000000
01000000
00100000
00000000
,
00000000
00000000
10000000
01000000
00010000
00001000
00000000
00000120
,
00000000
00000000
00000031
00000010
00000001
00000100
00010000
01000000
,
00020000
00000000
10030000
01000000
00010000
00001000
00000000
00000210
,
00000000
00000000
00000301
00000100
00001000
00010000
01000000
00000000
,
00000000
00000000
00100000
10000000
01000000
00010000
00000000
00021000
,
00000000
00000000
00031000
00010000
00001000
00000100
00000010
00000001
,
00001000
00000000
00000001
00000100
00001000
00010000
00000000
20200000
,
00000000
30300000
01000000
00010000
00100000
00010000
10000000
00000000
,
00000000
00000000
10000000
01000000
00010000
00001000
00000000
00000022
,
00000000
00000033
00000001
00000010
00001000
00000010
00000001
00001000
,
00000000
00000000
00000001
00000100
00001000
00010000
00000000
10200000
,
00000000
01300000
10000000
01000000
00010000
10000000
01000000
00200000
,
00301000
00000000
00010000
00000100
00002000
00000000
00003010
00000000
00000100
00000001
00002000
00000000
00003100
00000000
00010000
00001000
,
02000000
00000000
03100000
00000000
01000000
00010000
00200000
00000000
01300000
20000000
00020000
00000000
00000000
00000000
30030000
00000000
,
10010000
00000000
00010000
00100000
00000000
00001000
00010000
00000000
00010100
00000000
00001100
00000000
00001010
00000000
00001000
00000000
,
00001010
00000000
00000010
00000100
00000000
00000001
00000010
00000000
00000110
00000000
00001200
00000000
00020300
00000000
00031000
00010000
,
00001000
00000000
00001000
01000000
00000000
01000000
00010000
00000000
00110000
00000000
11000000
00000000
00110000
00000000
10000000
00000000
,
10010000
00000000
00010000
00100000
00000000
00001000
00010000
00000000
00010100
00000000
00001100
00000000
00001010
00000000
00000101
00000000
,
00001001
00000000
00000000
00000000
00000000
00000000
00000000
00000000
00000000
00000000
00000000
00000000
00000000
00000000
00000000
00000000
00000000
00000000
00000000
00000000
00000000
00000000
00000000
00000000
00001000
00000000
00000000
00000000
00000000
00000000
00000000
00000000
00000000
00000000
00000000
00000000
00000010
00000000
00000000
00000000
00000000
00000000
00000000
00000000
00000000
00000000
00000000
00000000
00000000
00000000
00000000
00000000
00000000
00000000
00000000
00000000
00000000
00000000
00000000
00000000
00000100
00000000
00000000
00000000
00000000
00000000
00000000
00000000
00000000
00000000
00000000
00000000
00000001
00000000
00000000
00000000
00000000
00000000
00000000
00000000
00000000
00000000
00000000
00000000
00000000
00000000
00000000
00000000
00000000
00000000
00000000
00000000
00000000
00000000
00000000
00000000
00001000
00000000
00000000
00000000
00000000
00000000
00000000
00000000
00000000
00000000
00000000
00000000
00000010
00000000
00000000
00000000
00000000
00000000
00000000
00000000
00000000
00000000
00000000
00000000
00000000
00000000
00000000
00000000
00000000
00000000
00000000
00000000
00000000
00000000
00000000
00000000
00000000
00000000
00000000
00000000
00000000
00000000
00000000
00000000
00000000
00000000
00000000
00000000
00010000
00000000
00000000
00000000
00000000
00000000
00000000
00000000
00000000
00000000
00001000
00000000
00000000
00000000
00000000
00000000
00000000
00000000
00000000
00010000
00000000
00000000
00000000
00000000
00000000
00000000
00000000
00000000
00000000
00001000
00000000
00000000
00000000
00000000
00000000
00000000
00000000
00000000
00010000
00000000
00000000
00000000
00000000
00000000
00000000
00000000
00000000
00000000
,
00001000
00000000
00000000
00000000
00000000
00000000
00000000
00000000
00000000
00000000
00000000
00000000
00010000
00000000
00000000
00000000
00000000
00000000
00001000
00000000
00000000
00000000
00000000
00000000
00000000
00000000
00000000
00000000
00000000
00000000
00001000
00000000
00000000
00000000
00000000
00000000
01000000
00000000
00000000
00000000
00000000
00000000
00000000
00000000
00000000
00000000
00000000
00000000
00100000
00000000
00000000
00000000
00000000
00000000
10000000
00000000
00000000
00000000
00000000
00000000
00000000
00000000
00000000
00000000
00000000
00000000
00000000
00000000
00000000
00000000
00000000
00000000
00010000
00000000
00000000
00000000
00000000
00000000
00100000
00000000
00000000
00000000
00000000
00000000
00010000
00000000
00000000
00000000
00000000
00000000
00000000
00100000
00000000
00000000
00000000
00000000
,
00010000
00000000
21000000
00000000
00000000
30010000
00000000
00000000
00100000
00000000
00102000
00000000
00000000
00013000
00000000
00000000
,
00011000
00011000
00011000
00011000
00011000
00011000
00020000
00000000
00000000
00030020
00000000
00000000
,
00000130
00000000
00000000
00000100
00000001
00000000
00000000
00000001
00000010
00000000
00000000
00000010
00000100
00000000
00000000
00000100
,
00001000
00000100
00020000
00000000
00032000
00000000
01003000
00000000
,
01100000
00000000
00000000
01000000
00010000
00000000
00000000
00010000
00100000
00000000
10000000
00000000
00100000
00000000
00000000
00100000
,
01000000
00100000
00010000
00000000
10010000
00000000
10000000
00000000
,
10010000
00000000
00000000
10000000
01000000
00000000
00000000
01000000
00100000
00000000
00000000
00100000
00001000
00000000
00000000
00001000
,
00010000
00000010
00000100
00000000
00001001
00000000
00001000
00000000
,
00001001
00000000
00000000
00000001
00000010
00000000
00000000
00000010
00000100
00000000
00000100
00000000
00010000
00000000
00000000
00010000
,
00001000
01000000
00100000
00000000
10100000
00000000
01010000
00000000
,
10000000
00000000
00010000
00000000
00100000
00000000
00001000
00000000
00010000
00000000
00000010
00000000
00000100
00000001
00000100
00000001
,
00000100
00000000
00000001
00000000
00000010
00000000
00000100
00000000
00001000
00000000
00000100
00000000
00010000
00001000
00010000
00001000
,
00010000
00000000
00001000
00000000
01000000
00000000
00100000
00000000
10000000
00000000
00010000
00000000
00100000
01000000
00100000
01000000
,
00100000
00000000
00001000
00000000
00010000
00000000
00000100
00000000
00001000
00000000
00000010
00000000
00000100
00000010
00000100
00000010
,
00000100
00000000
00000000
00000010
00010000
00000000
00000000
00010000
00001000
00000000
00000000
00001000
01000000
00000000
00000000
01000000
,
00100000
00000000
10000000
00000000
01000000
00000000
00000000
00000000
00110000
00000000
00000000
00000000
00011000
00000000
00000000
00010000
,
00000010
00000000
00000000
00000010
00000100
00000000
00000000
00000001
00001000
00000000
00000100
00000000
00010000
00000000
00000000
00000000
,
00001000
01000000
00100000
00000000
10010000
00000000
00011000
00000000
,
00001001
00000000
00001000
00000000
00001010
00000000
00000010
00000100
00000001
00000000
00000010
00000100
00001000
00000000
00000100
00000000
,
00010000
00000000
00011000
00000000
00011000
00000000
00001000
01000000
00100000
00000000
01000000
00010000
10000000
00000000
02000000
00000000
,
03100000
00000000
01000000
00000000
10000000
00000000
10000000
00100000
01000000
00000000
00100000
01000000
00010000
00000000
00100000
00000000
,
00001000
00010000
00000010
00000000
00000100
00000001
00000010
00000000
00000100
00000010
00000001
00000000
00001000
00000000
00000100
00000000
,
00020100
00000000
00000000
00000000
00031000
01000000
00100000
00000000
10000000
00000000
00010000
00100000
01000000
00000000
00100000
00000000
,
00010000
00000000
10000000
00010000
00100000
00000000
00001000
00010000
00000100
00000000
00001000
00000000
00000010
00000000
00000200
00000000
,
00000310
00000000
00001000
00000000
00000001
00000000
00000010
00000100
00001000
00000000
00000100
00010000
00001000
00000000
00010000
00000000
,
00000100
00001000
00000010
00000000
00000100
00000001
00000010
00000000
00000100
00001000
00000100
00000000
00010000
00000000
00001000
00000000
,
01000000
00000000
00000000
00000000
00100000
01000000
00010000
10000000
01000000
00100000
00010000
00000000
00000000
00000000
00021000
00000000
,
00000000
00000000
00000000
00000000
00030100
00001000
00000010
00000100
00000001
00000010
00000100
00001000
00000001
00000000
00000000
00000000
,
00000000
00000000
00000000
00000000
00000001
00000100
00000010
00010000
00001000
00100000
00010000
10000000
01000000
00000000
10020000
00000000
,
00000000
00000000
00000000
00000000
10030000
00000000
10000000
01000000
00100000
00000000
00100000
01000000
10000000
00000000
00010000
00000000
,
10010000
00000000
00010000
00100000
00001000
00000000
00011000
00000000
00010000
00000100
00001000
00000000
00001010
00000000
00000010
00000100
,
00000001
00000000
00000101
00000000
00000001
00000010
00000100
00000000
00010000
00000000
00001000
00100000
00001000
00010000
00000020
00000000
,
00000000
00000000
00000000
00000000
,
00000000
00000000
00000000
00000000
,
00000000
00000000
00000000
00000000
,
00000000
00000000
00000000
00000000
,
00000000
00000000
00000030
00000000
;
