#TITLE:MAX301;
#SUBTITLE:;
#ARTIST:NAOKI underground -Ω-;
#TITLETRANSLIT:;
#SUBTITLETRANSLIT:;
#ARTISTTRANSLIT:;
#GENRE:;
#CREDIT:;
#MUSIC:MAX301.ogg;
#BANNER:MAX301.png;
#BACKGROUND:bg.png;
#CDTITLE:cdtitle.png;
#SAMPLESTART:0.134;
#SAMPLELENGTH:12.753;
#SELECTABLE:YES;
#OFFSET:0.667;
#BPMS:0.000=301.000;
#STOPS:68.000=0.598
,467.000=0.215
,468.000=0.199
,481.000=0.209
,482.000=0.199
,509.000=0.413
,511.000=0.210
;
#ORIGIN:;
#TAGS:;
#PREVIEWVID:;
#JACKET:MAX301-jacket.png;
#CDIMAGE:;
#DISCIMAGE:;
#BGCHANGES:;
#FGCHANGES:;

//--------------- dance-single - Pandemonium X ----------------
#NOTES:
     dance-single:
     Pandemonium X:
     Beginner:
     8:
     0,0,0,0,0,0,0,0,0,0,0,0,0,0,0,0,0,0,0,0,0,0,0,0,0,0,0,0:
0000
0000
0000
0000
,
0000
0000
0000
0000
,
0000
0000
0000
0000
,
0000
0000
0000
0000
,
0000
0000
0000
0000
,
0000
0000
0000
0000
,
0000
0000
0000
0000
,
0000
0000
0000
0000
,
0000
0000
0000
0000
,
0001
1000
0001
0000
,
0000
0000
0000
0000
,
1000
0001
1000
0000
,
0000
0000
0000
0000
,
0001
1000
0000
0000
,
0001
1000
0000
0000
,
0001
0000
1000
0000
,
0010
0100
0001
1000
,
0000
0001
0000
0010
,
0000
0100
0000
1000
,
0000
0100
0000
1000
,
0000
0010
0000
0100
,
0000
0001
0000
0001
,
0000
1000
0000
1000
,
0000
0001
0000
0000
,
0000
0000
0110
0000
,
0000
1000
0000
0010
,
0000
0100
0000
0001
,
0000
0010
0000
0100
,
0000
0010
0000
0001
,
0000
1000
0000
0001
,
0000
0100
0000
0001
,
0000
0010
0000
0100
,
0000
0010
0000
0001
,
0000
1000
0001
0200
,
0000
0001
0000
0000
,
0000
0001
0000
0000
,
0000
0301
0000
0000
,
0000
1000
0001
0020
,
0000
0100
0000
0000
,
0000
0100
0000
0000
,
0000
0130
0000
0000
,
0000
0010
0001
0200
,
0000
0001
0000
0001
,
0000
0001
0000
0001
,
0000
0001
0000
0301
,
0000
0100
0001
2000
,
0000
0100
0000
0100
,
0000
0100
0000
0100
,
0000
3100
0000
1001
,
0000
0001
0000
1000
,
0000
0010
0000
1000
,
0000
0100
0000
0010
,
0000
0001
0010
0100
,
0000
0010
0000
0001
,
0000
1000
0000
0010
,
0000
0100
0000
0010
,
0000
0100
0001
1000
,
0000
0001
0000
1000
,
0000
0100
0000
0010
,
0000
0100
0000
1000
,
0000
0001
1000
0010
,
0000
1000
0000
0001
,
0000
0010
0000
0100
,
0000
0010
0000
0001
,
0000
1000
1000
0001
,
0000
1000
0000
0000
,
0000
0000
0000
0000
,
0100
1000
0000
0010
,
0000
0100
0000
0001
,
0000
0010
0000
0000
,
0000
0000
0000
0000
,
0000
0100
0000
0000
,
0000
0010
0000
0000
,
0000
0000
1001
0000
,
0000
0000
0000
0000
,
0001
0100
0000
0001
,
0000
1000
0000
0100
,
0000
0010
0000
0000
,
0000
0000
0000
0000
,
0000
0100
0000
0000
,
0000
0010
0000
0000
,
0000
0000
0001
0000
0000
0001
0000
0000
,
0000
0000
0000
0000
,
0000
0000
0000
0000
,
0000
0000
0000
0000
,
1000
0000
0010
0000
0000
0100
0000
0000
,
0000
0000
0000
0000
,
0000
0000
0000
0000
,
0000
0000
0000
0000
,
0010
0000
0100
0000
0000
0001
0000
0000
,
0000
0000
0000
0000
,
0000
0000
0000
0000
,
0000
0000
0000
0000
,
1000
0000
0100
0000
0000
0010
0000
0000
,
0000
0000
0000
0000
,
0000
0000
0000
0000
,
0000
0000
0000
0000
,
0000
1001
0000
0010
,
0000
1001
0000
0100
,
0000
0101
0000
1100
,
0000
0101
0000
1100
,
0000
1001
0000
0001
,
0000
1000
0000
0010
,
0000
1000
0000
0001
,
0000
0010
0000
0100
,
0000
1000
0000
0200
,
0000
0000
0000
0000
,
0000
0310
0000
0000
,
0000
0100
0000
1000
,
0001
0100
0000
0001
,
0000
1000
0000
0001
,
0000
1000
0100
0010
,
0001
1000
0100
0010
,
0001
1000
0000
0001
,
0000
0100
0000
0001
,
0000
0010
0000
0100
,
0000
1000
0000
1001
,
0001
1000
0000
0010
,
0000
1000
0000
0001
,
0000
0010
0000
0100
,
0000
1001
0001
1000
,
0000
0010
0000
1000
,
0000
0001
0000
0010
,
0000
0100
0000
0010
,
0000
0001
0000
0100
,
0000
0010
0000
1000
,
0000
0001
0000
0010
,
0000
0100
0000
0000
,
0001
0000
1000
0000
,
0010
0000
1000
0000
,
0001
0000
0010
0000
,
0001
0000
1000
0000
,
0010
0000
1000
0000
,
0001
0000
0010
0000
,
0001
0000
1001
0000
,
0110
0000
0001
0100
,
0010
0000
1000
0000
0001
0000
0000
0001
,
0000
0001
0000
0000
,
0000
0000
0000
0000
,
0000
0000
1000
0100
,
0010
0000
0001
0000
1000
0000
0000
1000
,
0000
1000
0000
0000
,
0000
0000
0020
0000
,
0230
0000
0301
0000
,
0100
0000
0010
0000
,
1000
0000
0001
0000
,
0010
0000
0100
0000
,
1000
0000
0001
0100
,
0001
0100
0010
1000
,
0010
1000
0000
0001
,
1000
0000
1000
0000
,
0100
0000
0000
0000
0010
0000
0000
0001
,
0000
0000
1000
0000
,
0010
0000
0000
0100
0000
0000
0000
0000
,
0001
1000
0000
0000
,
0110
0000
0000
0000
;

//--------------- dance-single - Pandemonium X ----------------
#NOTES:
     dance-single:
     Pandemonium X:
     Easy:
     13:
     0,0,0,0,0,0,0,0,0,0,0,0,0,0,0,0,0,0,0,0,0,0,0,0,0,0,0,0:
0000
0000
0000
0000
,
0000
0000
0000
0000
,
0000
0000
0000
0000
,
0000
0000
0000
0000
,
0000
0000
0000
0000
,
0000
0000
0000
0000
,
0000
0000
0000
0000
,
0000
0000
0000
0000
,
0000
0000
0000
0000
,
1000
0001
0100
0200
,
0000
0300
0000
0000
,
0001
1000
0100
0200
,
0000
0300
0000
0000
,
1000
0020
0000
1030
,
0001
0020
0000
0031
,
2000
3002
2003
3002
,
0203
0320
2030
3002
,
0003
1000
0010
1000
,
0010
0100
0010
0100
,
0010
0100
0001
0100
,
0001
0010
0001
0010
,
0001
0010
0100
1000
,
0001
0100
0010
1000
,
0001
0010
0100
0010
,
0001
0000
1001
0000
,
0000
0000
0001
0000
0000
0100
0000
0000
,
0010
0000
1000
0000
0000
0100
0000
0000
,
1000
0000
0001
0000
0000
1000
0000
0000
,
0010
0000
1000
0000
0000
0001
0000
0000
,
0010
0000
0000
0100
0000
0010
0000
0001
,
0000
1000
0000
0100
0000
0010
0000
0100
,
0000
1000
0000
0010
0000
0100
0000
0001
,
0000
1000
0000
0001
0000
1000
0000
0000
,
0000
0001
0100
0020
,
0000
1000
0000
1000
,
0000
0100
0000
0100
,
0000
1000
0000
1030
,
0000
0100
0010
0002
,
0000
0010
0000
0010
,
0000
0100
0000
0100
,
0000
0010
0000
0013
,
0000
0001
1000
0200
,
0000
1000
0000
1000
,
0000
0010
0000
0010
,
0000
1000
0000
1300
,
0000
0100
1000
0020
,
0000
0100
0000
0100
,
0000
1030
0001
0100
,
0001
1000
0010
1001
,
0000
1000
0100
1000
,
0010
0000
0100
0000
0000
0100
0000
0000
,
0100
0010
1000
0001
,
0010
0000
0100
0010
0000
0100
0010
0000
,
1001
0001
0010
0001
,
0100
0000
0010
0000
0000
0010
0000
0000
,
0010
0100
0001
1000
,
0100
0000
0010
0001
0010
0001
0000
0000
,
0000
1000
0001
0100
,
0001
0000
0010
0000
0000
0100
0000
0000
,
1000
0010
0100
0001
,
1000
0000
0001
1000
0000
0001
1000
0000
,
0001
0010
0100
0010
,
0001
0000
1000
0000
0000
0100
0000
0000
,
0010
0100
1000
0001
,
0100
0000
0001
1000
0001
1000
0000
0000
,
0000
0001
0100
0001
,
1000
0100
0010
0100
,
1000
0100
0100
1000
,
0010
0000
0100
0000
0001
0000
0010
0100
,
0000
0010
0001
0100
,
0010
1000
0001
0010
,
0100
0010
0010
0100
,
0010
0010
0100
0010
,
0001
1000
1010
1000
,
0001
0010
0100
0010
,
0001
1001
0000
0101
,
0000
1001
0000
1010
,
0000
1001
1000
0010
,
1000
0100
0100
0010
,
0001
0100
0100
0001
,
1000
1000
0100
0010
,
0001
1000
0100
1000
,
0010
0000
0100
0000
0000
0001
0000
0001
,
0000
0001
1000
0000
0001
0000
0010
0000
,
0100
0010
0000
0100
,
1000
0001
0100
0001
,
1000
0000
0010
0000
0000
0100
0000
0100
,
0000
0100
0010
0000
0100
0000
0001
0000
,
1000
1001
0000
0110
,
0010
1001
1000
0001
,
0100
0000
0010
0000
0000
1000
0000
1000
,
0000
1000
0100
0000
0100
0000
0010
0000
,
0001
1000
0000
0001
,
1000
0100
0100
1000
,
1000
0000
0010
0000
0000
0100
0000
0100
,
0000
0100
0010
0000
0100
0000
0001
0000
,
1000
1001
0000
0110
,
0000
0000
0000
1000
0000
0000
0000
1000
0000
0100
0000
0000
,
0000
0100
0000
0010
0000
0000
0000
0010
0000
0001
0000
0000
,
0000
0001
0000
2000
0000
0000
0000
0000
0000
3020
0000
0000
,
0000
0230
0000
0302
,
0000
0013
0010
0100
,
1000
0001
0001
1000
,
0100
0010
0010
0100
,
1000
0100
0100
0010
,
0001
1000
0100
0010
,
0100
0000
0010
0001
,
0100
0010
1000
0001
,
0010
0100
0100
0010
,
0010
0001
1000
0010
,
1000
0001
0010
0001
,
1000
0010
0010
1000
,
1000
0001
0001
0100
,
0100
1001
0000
0001
,
0100
0010
0000
0100
,
0010
1000
0000
0001
,
1000
0100
0000
1001
,
0001
1000
0001
0100
,
0000
0010
1000
0001
,
0000
0010
0100
1000
,
0000
0011
1100
0100
,
1000
0010
0000
0100
,
0001
0010
0000
0100
,
0010
0001
0000
0010
,
0100
1000
0000
0100
,
1000
0001
0000
0100
,
0010
1000
0000
0001
,
1000
0010
1001
0000
,
0001
0100
0010
0000
,
0100
0010
1000
0000
,
0001
0010
0100
0000
,
0010
0001
1000
0000
,
0100
1000
0010
0000
,
0100
0010
1000
0000
,
0001
0100
0010
0000
,
1001
0000
0001
0001
,
1000
0000
1000
0000
0010
0000
0000
0010
,
0000
0010
0000
0000
,
0000
0000
0200
0000
,
0320
0000
1030
0001
,
0010
0000
0001
0000
0100
0000
0000
0100
,
0000
0100
0000
0000
,
0000
0000
0020
0230
,
0302
2003
3001
0001
,
0010
0100
1000
1000
,
0100
0010
0001
0001
,
1001
1001
1000
1000
,
1001
1001
0001
0100
,
0010
1000
0001
0100
,
0010
1000
0000
0100
,
1000
0000
0010
0000
0100
0010
0000
0100
,
0010
0000
0100
0000
0001
0000
1000
0001
,
0000
0010
0100
0000
0010
0001
0000
0100
,
0010
0000
0100
0001
0000
1000
0100
0000
,
0010
0000
0100
1000
0000
0000
0000
0000
,
2002
0000
0000
0000
,
0000
0000
0000
0000
,
0000
0000
0000
0000
,
0000
0000
0000
0000
,
3003
0000
0000
0000
;

//--------------- dance-single - Pandemonium X ----------------
#NOTES:
     dance-single:
     Pandemonium X:
     Medium:
     15:
     0,0,0,0,0,0,0,0,0,0,0,0,0,0,0,0,0,0,0,0,0,0,0,0,0,0,0,0:
0000
0000
0000
0000
,
0000
0000
0000
0000
,
0000
0000
0000
0000
,
0000
0000
0000
0000
,
0000
0000
0000
0000
,
0000
0000
0000
0000
,
0000
0000
0000
0000
,
0000
0000
0000
0000
,
0000
0000
0000
0000
,
0001
0100
0020
0000
,
0130
0000
0110
0000
,
1000
0100
0020
0000
,
0130
0000
1001
0000
,
0001
0200
0000
0310
,
1000
0002
0000
0103
,
0010
1000
0001
0100
,
0010
0010
0010
0110
,
0000
1000
0100
1000
,
0100
0010
0001
0010
,
0001
0010
0100
0010
,
0100
1000
0001
1000
,
0001
0000
1000
0010
1000
0010
1000
0010
,
1000
0010
0100
0001
0100
0001
0100
0001
,
0100
0001
0100
0001
1000
0100
0000
0010
,
0001
0100
0000
0000
2020
0000
0000
0000
,
3030
0000
1000
0000
0001
0100
0000
0001
,
0010
0000
0100
0000
1000
0100
0000
0010
,
0100
0000
0010
0000
0001
1000
0000
0010
,
1000
0000
0001
0000
1000
0001
0000
0010
,
0001
0000
1000
0000
0001
0010
0000
0100
,
1000
0000
0001
0000
1000
0010
0000
0100
,
0001
0000
1000
0000
0001
1000
0000
0010
,
0100
0000
0010
0000
0100
0010
0000
1000
,
0001
0000
1000
0000
0100
1000
0020
0000
,
0000
1000
0000
0100
,
0000
1000
0000
1000
,
0000
1030
0000
1001
,
0000
0000
0001
0000
1000
0001
0020
0000
,
0000
0100
0000
0100
,
0000
0001
0000
0001
,
0000
0100
0000
0130
,
0000
0000
1001
0000
0001
0100
0001
0000
,
0010
0100
1000
0001
,
1000
0010
1000
0001
,
0010
0100
0010
0011
,
0000
0000
0001
0100
0001
0100
0001
0100
,
0001
0000
1000
0010
1000
0010
1000
0010
,
1000
0000
0001
1000
0001
1000
0010
0100
,
0010
0100
0001
0100
0001
0000
1001
0000
,
0000
1000
0010
0100
,
0001
0000
0010
0000
0000
0100
0000
0100
,
1000
0100
1000
0010
,
0100
0000
0001
1000
0000
0001
1000
0000
,
1001
0001
0010
0001
,
1000
0000
0010
0000
0000
0100
0000
0100
,
0001
0010
0001
1000
,
0100
0000
0010
0100
1000
0001
0000
0000
,
0000
1000
0010
0100
,
0001
0000
0010
0000
0000
0100
0000
0100
,
0010
0100
1000
0001
,
0100
0000
0001
0010
0000
0001
0010
0000
,
0100
1000
0001
0100
,
0001
0000
0010
0000
0000
0100
0000
0100
,
1000
0001
1000
0010
,
0100
0000
0001
0010
0100
1000
0000
0000
,
0000
1001
0001
1000
,
0010
1000
0001
1000
,
0100
1000
0001
0000
0000
0000
0011
0000
,
0000
1100
0000
1001
,
0000
1010
0010
0100
,
0001
0010
0100
0010
,
0001
0000
1000
0100
0010
0001
1000
0000
,
0001
0010
0100
1000
0001
0000
1000
0100
,
0010
0001
1000
0001
1000
0000
0010
0000
,
0100
0001
0010
0100
,
1000
0100
0010
0000
0000
0000
0110
0000
,
0000
0011
0000
1100
,
0000
1001
0001
1000
,
0010
1000
0001
0010
,
0100
0000
0010
0001
1000
0100
0010
0001
,
1000
0000
0001
0010
0100
0000
1000
0100
,
0010
0001
0010
0001
,
0100
0000
0110
0000
0000
0101
0000
0101
,
0000
0001
1000
0000
0100
0000
1000
0000
,
0010
0000
0100
0000
0000
1010
0000
1010
,
0000
1000
0001
0000
0010
0000
0100
0000
,
0010
0000
0001
0000
0000
1100
0000
1100
,
0000
1000
0001
0000
0100
0000
0010
0000
,
1000
1001
0000
0110
,
1010
0000
0101
0000
0000
0021
0000
0000
,
0130
0000
0010
0000
0000
0011
0000
0010
,
0000
0010
0100
0000
1000
0000
0100
0000
,
1000
1001
0000
1010
,
0101
0000
2001
0000
0000
3020
0000
0000
,
0100
0000
0130
0000
0000
0110
0000
0110
,
0000
0001
1000
0000
0001
0000
0010
0000
,
0100
1100
0000
1001
,
0000
0000
0000
1001
0000
1000
0000
0100
0000
0010
0000
0001
,
0000
0010
0000
0100
0000
1000
0000
0100
0000
0010
0000
0001
,
0000
0010
0000
0001
0000
0100
0000
1000
0000
0100
0000
0001
,
0000
0100
0000
0010
0000
1000
0000
0001
0000
0010
0000
0100
,
0000
1000
0000
0001
0000
0000
0001
0000
0000
1000
0000
0000
,
0010
0000
0100
0010
0100
0000
0010
0000
,
1000
0001
0001
0010
,
0100
0000
1000
0100
1000
0000
0100
0000
,
1000
0000
0001
0000
0100
0000
0010
0100
,
0001
0000
1000
0100
,
0010
0100
1000
0001
,
0100
0000
0001
0010
0100
0000
0010
0000
,
1001
1000
0001
0100
,
0001
0000
1000
0100
1000
0000
0001
0000
,
0010
0000
0100
1000
0100
0000
1000
0000
,
0010
0000
0100
0001
0100
0000
0001
0000
,
1000
0000
0100
0000
0000
1000
0010
0000
,
0100
0000
0001
0000
0000
0010
0100
0000
,
0010
0000
0001
0000
0000
1000
0001
0000
,
0100
1010
0000
0101
,
1001
0001
0010
0000
0100
0000
0010
0000
,
0000
0100
1000
0000
0010
0000
0100
0000
,
0000
0010
0100
0000
0001
0000
1001
0000
,
0000
0000
1010
0000
1001
1000
0100
0000
,
0010
0000
0100
0000
0000
0010
0001
0000
,
0100
0000
0010
0000
0000
0100
0001
0000
,
1000
0000
0100
0000
0000
0010
0100
0000
,
1000
0000
0001
0000
1000
0010
1000
0000
,
0001
0000
0010
0000
0100
1000
0100
0000
,
1000
0000
0001
0000
0010
0100
1000
0000
,
0100
0000
0110
0000
1001
0000
0000
0001
,
0100
0000
0010
0000
1100
0000
0000
0100
,
0010
0000
0001
0000
0101
0000
0000
0001
,
1000
0000
0100
0000
0110
0000
0000
0010
,
0001
0000
1000
0000
1001
0000
0000
0001
,
0100
0000
0010
0000
1010
0000
0000
1000
,
0100
0000
0010
0000
0011
0000
0000
0001
,
0010
0000
0100
1000
0010
0000
0100
0001
,
0010
0000
0100
0100
,
0010
0000
0001
0000
1000
0000
0000
1000
,
0000
1000
0000
0000
,
0000
0000
0000
0000
0000
0000
0001
0000
0100
0000
0010
0000
,
1000
0000
0100
0000
0010
0000
0001
0000
0000
0001
0000
0000
,
0010
0000
0100
0000
1000
0000
0000
1000
,
0000
1000
0000
0000
,
0000
0000
0000
0000
0001
0100
0010
1000
,
0001
0100
0010
1000
0001
0000
0010
0000
,
0100
1000
0100
0010
,
0001
0100
1001
1001
,
1010
0101
1001
1001
,
1010
0000
0101
0000
0001
0100
0001
0000
,
0100
0010
0100
0000
0010
1000
0010
0000
,
1000
0001
1000
0000
0000
0100
1000
0010
,
0100
0001
0010
0100
1000
0100
0000
0010
,
0100
1000
0001
0000
0100
0000
0010
0100
,
0000
0010
1000
0001
0010
0100
0000
0010
,
0001
1000
0100
0010
0000
0100
1000
0010
,
0100
0001
0010
0100
0000
0000
0000
0000
,
2002
0000
0000
0000
,
0000
0000
0000
0000
,
0000
0000
0000
0000
,
0000
0000
0000
0000
,
3003
0000
0000
0000
;

//--------------- dance-single - Pandemonium X ----------------
#NOTES:
     dance-single:
     Pandemonium X:
     Hard:
     17:
     0,0,0,0,0,0,0,0,0,0,0,0,0,0,0,0,0,0,0,0,0,0,0,0,0,0,0,0:
0000
0000
0000
0000
,
0000
0000
0000
0000
,
0000
0000
0000
0000
,
0000
0000
0000
0000
,
0000
0000
0000
0000
,
0000
0000
0000
0000
,
0000
0000
0000
0000
,
0000
0000
0000
0000
,
0000
0000
0000
0000
,
0001
0100
0010
1000
,
0001
0000
0001
0000
1000
0000
0001
0000
0001
0000
1000
0000
,
0100
0010
0001
1000
,
0010
0000
0010
0000
0100
0000
0010
0000
0010
0000
1000
0000
,
0001
0000
0001
0000
0001
0000
0000
0000
0000
0000
0000
0000
,
1000
0000
1000
0000
1000
0000
0000
0000
0000
0000
0000
0000
,
0010
0000
0010
0000
0010
0000
0100
0000
0100
0000
0100
0000
,
2002
0000
0000
0000
,
3003
0001
0100
0010
,
1000
0001
0010
0100
,
1000
0100
1000
0010
,
0100
0001
0010
0001
,
1000
0000
0001
0010
0001
0010
0001
0010
,
0001
0010
0100
1000
0100
1000
0100
1000
,
0100
1000
0100
1000
0001
0100
0000
0001
,
1000
0100
0000
0000
2002
0000
0000
0000
,
3003
0000
0001
0000
0100
0001
0000
0010
,
0100
0000
0110
0000
0100
1000
0000
0010
,
0100
0000
0101
0000
0001
1000
0000
0100
,
0010
0000
0011
0000
0010
0100
0000
0100
,
1000
0000
0000
0001
0000
0100
0000
1000
,
0000
0100
0000
0001
0000
0010
0000
1000
,
0000
0010
0000
0001
0000
0010
0000
0100
,
1000
0000
0001
0000
1000
0100
0000
0010
,
0001
0010
0001
0100
,
0001
0010
0010
0100
,
0100
1000
0010
0100
,
0010
1000
1000
1001
,
0000
0001
1000
0100
,
0010
0100
0100
0010
,
0010
0100
1000
0100
,
1000
0001
0001
1001
,
0000
0001
0100
0010
,
0001
0010
0100
0001
,
1000
0100
0010
1000
,
0010
0100
1000
1001
,
0000
0000
0001
0100
0001
0100
0001
0100
,
0001
0000
1000
0010
1000
0010
1000
0010
,
1000
0000
0001
0100
0001
1000
0010
1000
,
0100
1000
0100
0010
0001
0010
0100
0000
,
0000
0000
1000
0100
1000
0000
0001
0100
,
0001
0000
1000
0010
1000
0000
0001
0010
,
0001
0000
0010
0100
0010
0000
0100
1000
,
0100
0000
1000
0001
0000
1000
0001
0000
,
0100
0000
0010
1000
0010
0000
0100
0001
,
0100
0000
0001
0010
0001
0000
0010
0100
,
0010
0000
0100
1000
0100
0000
1000
0010
,
1000
0000
1000
0100
0010
0001
0000
0000
,
0000
0000
1000
0100
0010
0000
0100
1000
,
0010
0000
0100
0001
0010
0000
0100
0010
,
0001
0000
0010
0100
1000
0000
0100
1000
,
0010
0000
0100
0001
0000
0100
0001
0000
,
0010
0000
0100
0010
0001
0000
0010
0001
,
0100
0000
0010
1000
0100
0000
0010
0100
,
1000
0000
0100
1000
0010
0000
0100
0001
,
0010
0000
0100
1000
0000
0100
0010
0000
,
0001
1000
0010
0100
,
0001
0000
1000
0010
1000
0001
0010
0001
,
1000
0100
0010
0000
0100
0000
1000
0000
,
0001
0000
0100
0001
0010
0100
0010
0001
,
0000
1000
0001
0010
,
0001
0100
0010
1000
,
0100
0000
0010
0100
1000
0010
0100
0000
,
0001
0010
0001
1000
0001
0000
1000
0100
,
0010
0001
1000
0100
0010
0100
1000
0000
,
0001
0100
0010
1000
,
0100
0010
0001
0000
0010
0000
0100
0000
,
0010
0001
1000
0010
,
0100
0000
0001
1000
0001
0000
0100
0010
,
0100
0000
0010
1000
0010
0100
0010
1000
,
0001
0010
0100
0010
0100
0000
0010
0001
,
0010
0000
0001
0100
0001
1000
0001
0010
,
0100
1000
0001
0000
1000
0000
0010
0000
,
1000
0000
0001
0000
0000
1100
0000
1010
,
0000
0010
1000
0000
0001
0000
0010
0000
,
0100
0000
0010
0000
0000
0011
0000
0101
,
0000
0001
0100
0000
0010
0000
1000
0000
,
0001
0000
0010
0000
0000
0110
0000
0011
,
0000
0001
0010
0000
0100
0000
1000
0000
,
0010
0100
0000
1001
,
0110
0000
1002
0000
0000
0010
0000
0000
,
1003
0100
0010
0011
,
0010
0001
1000
0010
,
0100
0001
0001
1000
,
1010
0000
1200
0000
0000
0320
0000
0000
,
0031
0100
0010
0001
,
0100
0000
0010
0000
0100
0001
0000
1000
,
0100
0110
0100
1001
,
0010
0000
0000
1001
0000
1000
0000
0001
0000
0010
0000
0001
,
0000
1000
0000
0010
0000
1000
0000
0001
0000
1000
0000
0100
,
0000
1000
0000
0100
0000
0010
0000
0100
0000
1000
0000
0001
,
0000
0010
0000
0100
0000
0010
0000
0001
0000
0100
0000
0010
,
0000
0000
1000
0000
0000
0000
0001
0000
0000
0100
0000
0000
0001
0000
0000
0000
0000
0000
0100
0000
0000
0000
0000
0000
,
0001
0000
1000
0100
1000
0000
0100
0000
,
1000
0001
0001
1000
,
0100
0000
0010
0100
0010
0000
0100
0000
,
1000
0000
0010
0000
0100
0000
0010
1000
,
0001
0000
0010
0001
,
1000
0010
0100
0000
0001
0000
1000
0000
,
0100
0010
0001
0010
0100
1000
0001
0000
,
1001
0001
0100
0010
,
1000
0100
0010
0001
,
0010
0000
0100
0010
0001
0010
0100
0010
,
0001
1000
0100
0010
0100
1000
0100
0010
,
0100
1000
0001
0000
0000
0100
0010
1000
,
0001
0010
0100
0000
0000
0010
0001
0100
,
0001
1000
0100
0000
0000
0010
0100
1000
,
0010
0100
0010
0000
0000
0000
0110
0000
,
1001
1000
0001
0010
0001
1000
0100
0000
,
0000
0010
0001
0100
0001
1000
0100
0000
,
0000
1000
0100
1000
0001
0100
0010
0000
,
0000
0000
0110
0000
1001
0001
1000
0100
,
0010
0001
1000
0000
0000
0010
1000
0010
,
0100
0010
1000
0000
0000
0100
0010
0001
,
1000
0001
0010
0000
0000
0010
0100
0010
,
0001
1000
0010
0000
0100
0001
0010
0100
,
0010
0001
1000
0000
0001
1000
0100
0010
,
0001
1000
0010
0000
0100
0010
1000
0001
,
0010
0100
1000
0000
1001
0000
0000
1000
,
0100
0010
0001
1000
0010
0000
0000
0100
,
0010
1000
0001
0010
0100
0000
0000
0010
,
0001
0100
0010
1000
0100
0000
0000
0100
,
0010
0001
0100
0001
1000
0000
0000
0100
,
0010
0001
0100
0001
1000
0000
0000
0100
,
0010
0100
1000
0001
0100
0000
0000
0100
,
0010
0100
0001
1000
0100
0000
0010
0100
,
1000
0000
0000
1000
1001
0000
0101
0000
,
1001
0000
1100
0000
0110
0000
0000
1001
,
0000
0110
0000
0000
,
0000
0000
0000
0000
0000
0000
1000
0000
0100
0000
0010
0000
,
0001
0000
0010
0000
0100
0000
0110
0000
0000
0011
0000
0000
,
0110
0000
1100
0000
1001
0000
0000
0110
,
0000
1001
0000
0000
,
0000
0000
0000
0000
0000
0000
0000
0000
0000
0000
0000
0000
0001
0000
0100
0000
0001
0000
0100
0000
0000
0010
0000
0000
,
1000
0000
0010
0000
1000
0000
0010
0000
0000
1000
0000
0000
0001
0000
0000
0000
0000
0000
0010
0000
0000
0000
0000
0000
,
0100
1000
1100
1000
,
0010
0100
0101
0011
,
0101
0011
1001
1010
,
1001
0000
1100
0000
0001
0010
0001
0100
,
0001
1000
0100
0010
0100
1000
0010
0100
,
0001
0010
0100
1000
0000
0100
0010
0100
,
1000
0010
0100
0001
0010
0100
0000
0010
,
0001
0100
0010
0000
1001
0000
0100
0010
,
0000
1000
0001
0010
0100
1000
0000
0100
,
0010
0100
1000
0010
0000
0100
0010
1000
,
0001
0010
0100
0110
0000
0000
0000
0000
,
2002
0000
0000
0000
,
0000
0000
0000
0000
,
0000
0000
0000
0000
,
3003
0000
0000
0000
;

//--------------- dance-single - Pandemonium X ----------------
#NOTES:
     dance-single:
     Pandemonium X:
     Challenge:
     18:
     0,0,0,0,0,0,0,0,0,0,0,0,0,0,0,0,0,0,0,0,0,0,0,0,0,0,0,0:
0000
0000
0000
0000
,
0000
0000
0000
0000
,
0000
0000
0000
0000
,
0000
0000
0000
0000
,
0000
0000
0000
0000
,
0000
0000
0000
0000
,
0000
0000
0000
0000
,
0000
0000
0000
0000
,
0000
0000
0000
0000
,
0201
0320
0032
0023
,
1030
0000
0010
0000
0001
0000
1000
0000
0100
0000
0010
0000
,
0002
0023
2030
3020
,
0130
0000
0001
0000
0100
0000
1000
0000
0010
0000
0100
0000
,
0001
0100
2000
0000
3100
0000
1100
0000
,
1000
0100
0002
0000
0103
0000
0101
0000
,
0001
0010
0200
0000
0310
0100
2000
0000
,
3100
0010
0001
0100
0020
0000
0200
0000
,
0000
0330
0000
0000
0010
0000
0000
0000
1000
0000
0000
0000
0010
0000
0000
0000
,
1000
0001
0100
0001
,
0100
0010
1000
0100
,
0010
0001
1000
0100
,
0010
0000
0001
0010
0001
0010
0001
0010
,
0001
0010
0100
1000
0100
1000
0100
1000
,
0100
1000
0001
0010
0100
1000
0010
0100
,
0001
1000
0100
0010
0001
0100
0010
1000
,
0001
0100
0010
0000
0100
0000
0010
0000
,
1000
0100
0010
0001
,
0100
0001
1000
0010
,
0100
0010
1000
0100
,
0010
0000
0001
0100
0001
0100
0001
1000
,
0001
1000
0001
0010
0001
0010
0001
1000
,
0001
1000
0001
0000
0000
0101
0000
0000
,
1100
0010
0001
1000
,
0100
0000
0010
0000
0010
0001
0100
0000
,
0010
1000
0100
0000
0010
0001
0100
0000
,
0010
1000
0100
0000
0010
0001
0100
0000
,
0010
1000
0100
0000
0010
0001
0100
0000
,
0000
0000
1001
0000
1000
0001
0010
0000
,
0001
1000
0010
0000
1000
0001
0010
0000
,
0001
1000
0010
0000
1000
0001
0010
0000
,
0001
1000
0010
0000
1000
0001
0010
0000
,
0000
0000
1001
0000
0001
0100
0010
0000
,
0100
0001
0010
0000
0100
1000
0010
0000
,
1000
0001
0100
0000
0001
1000
0100
0000
,
0010
0100
1000
0000
0001
1000
0001
0000
,
0000
0000
1000
0010
1000
0010
0100
0001
,
0100
0001
1000
0001
1000
0001
1000
0100
,
1000
0100
0010
0001
0010
0100
1000
0100
,
0010
0001
0100
0010
1000
0001
1001
0000
,
0000
0101
0100
0110
,
0010
0000
1010
0000
1000
0100
0000
0100
,
0010
0011
0010
0110
,
0100
0000
1000
1001
0000
0001
1001
0000
,
0110
0001
0101
1000
,
0110
0000
0001
0000
1000
0100
0000
0100
,
0010
0110
0100
1100
,
0100
0000
1100
0100
0010
0011
0000
0000
,
0000
0101
0010
1001
,
0100
0000
0011
0000
0010
0100
0000
0100
,
1000
1100
0010
0101
,
0010
0000
0001
1001
0000
1000
1001
0000
,
0110
0001
0011
0010
,
1100
0000
0100
0000
0010
0001
0000
0001
,
0100
0010
1001
0100
,
1001
0000
1001
1001
0000
1001
0000
1001
,
1001
0000
0001
0100
0010
1000
0001
0010
,
0100
0010
0001
1000
0100
1000
0010
0100
,
0001
0010
0100
1000
0100
1000
0001
1000
,
0001
1000
0001
1000
0010
0100
0010
1000
,
0000
0000
0100
0010
0001
0010
0100
1000
,
0001
1000
0100
0010
0001
0010
0100
1000
,
0001
0100
0001
0010
1000
0010
0001
0000
,
1000
0010
0001
0010
0100
0000
0010
0100
,
0001
1000
0100
0010
0110
0100
0010
0001
,
0100
0010
1000
0001
0010
0100
0010
0001
,
1000
0001
1001
0000
0100
0000
1001
0000
,
0010
0110
0001
0110
,
1000
0000
0101
0100
0010
1000
0001
0010
,
0100
1000
0001
0010
0001
0100
0010
1000
,
0001
0010
0100
0010
0001
1000
0010
0100
,
0001
0000
1100
0100
0010
0000
0011
0010
,
0100
1001
0101
1001
,
1100
0000
1001
0000
0000
0110
0000
0110
,
0000
0010
0110
0000
0101
0000
0110
0000
,
1010
1001
0000
0110
,
0100
1001
0011
1001
,
1010
0000
1001
0000
0000
1100
0000
0011
,
0000
0001
0011
0000
0110
0000
1100
0000
,
1001
0110
0000
1001
,
0000
0010
1000
0010
,
1000
0000
0010
0000
0100
0001
0010
0000
,
0001
0010
0001
0010
,
0001
0000
0010
0000
0100
1000
0010
1000
,
0010
1000
0001
0100
,
0010
0000
1000
0000
0001
1000
0100
0000
,
0010
0001
1000
0100
,
0010
0001
0010
0001
1000
0100
1000
0100
,
1000
0000
0000
0100
0000
0010
0000
0100
0000
1000
0000
0010
,
0000
0100
0000
0010
0000
1000
0000
0001
0000
0010
0000
0100
,
0000
1000
0000
0001
0000
0100
0000
0010
0000
0100
0000
0001
,
0000
0010
0000
0001
0000
1000
0000
0100
0000
1000
0000
0100
,
0000
0000
0010
0000
0000
0000
0001
0000
0000
0010
0000
0000
0100
0000
0000
0000
0000
0000
0010
0000
0000
0000
0000
0000
,
0001
0000
1000
0100
0010
0000
0100
0000
,
1000
0001
0010
0100
,
0010
0000
0001
0010
0100
0000
0010
0000
,
0001
0000
1000
0000
0101
0000
0001
1000
,
0020
0000
0100
1000
,
0130
0001
1000
0000
0100
1000
0001
0000
,
0100
0001
1000
0001
1001
0000
0011
0000
,
1100
0001
0100
1000
,
0100
0000
0001
0100
1000
0100
0010
1000
,
0001
0010
0100
0010
0001
0010
0100
0010
,
0001
1000
0100
0010
0100
1000
0100
0010
,
0100
0000
0000
1000
0000
0000
1001
0000
0000
0000
0000
0000
0000
0000
0000
0000
0001
0000
0100
0000
0000
0010
0000
0000
,
0100
0000
0000
0001
0000
0000
1000
0000
0000
0000
0000
0000
0000
0000
0000
0000
0100
0000
0010
0000
0000
0100
0000
0000
,
1000
0000
0000
0001
0000
0000
1000
0000
0000
0000
0000
0000
0000
0000
0000
0000
0001
0000
0100
0000
0000
0010
0000
0000
,
0100
0000
0000
0001
0000
0000
1000
0000
0000
0000
0000
0000
0000
0000
0000
0000
0001
0000
1000
0000
0000
0000
0000
0000
,
0100
0000
0000
0000
0010
0000
0100
0000
0000
0010
0000
0000
0001
0000
0000
1000
0000
0000
0010
0000
0000
0000
0000
0000
,
0000
0000
0000
0000
0100
0000
0010
0000
0000
0100
0000
0000
0001
0000
0000
1000
0000
0000
0100
0000
0000
0000
0000
0000
,
0000
0000
0000
0000
0010
0000
0001
0000
0000
0010
0000
0000
0100
0000
0000
0010
0000
0000
0001
0000
0000
0000
0000
0000
,
0000
0000
0000
0000
1000
0000
0001
0000
0000
0000
0000
0000
0110
0000
1000
0000
0001
0000
1000
0000
0000
0100
0000
0000
,
0010
0000
0000
0100
0000
0000
1000
0000
0000
0000
0000
0000
0000
0000
0001
0000
1000
0000
0001
0000
0000
0010
0000
0000
,
0100
0000
0000
0010
0000
0000
0001
0000
0000
0000
0000
0000
0000
0000
1000
0000
0010
0000
1000
0000
0000
0100
0000
0000
,
1000
0000
0000
0001
0000
0000
0010
0000
0000
0000
0000
0000
0000
0000
0100
0000
0010
0000
0100
0000
0000
0010
0000
0000
,
0001
0000
0000
0100
0000
0000
0010
0000
0000
0000
0000
0000
0100
0000
0010
0000
0100
0000
0010
0000
0000
1000
0000
0000
,
0001
0000
0000
0010
0000
0000
0100
0000
0000
0000
0000
0000
1000
0000
0100
0000
1000
0000
0100
0000
0000
0010
0000
0000
,
0001
0000
0000
0100
0000
0000
0001
0000
0000
0000
0000
0000
1000
0000
0010
0000
1000
0000
0010
0000
0000
0100
0000
0000
,
0001
0000
0000
0010
0000
0000
0100
0000
0000
0000
0000
0000
0110
0000
0000
0000
0000
0000
0000
0000
0001
0000
0100
0000
,
0010
0000
0000
1000
0000
0000
0010
0000
0000
0100
0000
0000
0001
0000
0000
0000
0000
0000
0000
0000
1000
0000
0100
0000
,
0010
0000
0000
0100
0000
0000
1000
0000
0000
0001
0000
0000
0100
0000
0000
0000
0000
0000
0000
0000
0010
0000
1000
0000
,
0100
0000
0000
0010
0000
0000
0001
0000
0000
0010
0000
0000
0100
0000
0000
0000
0000
0000
0000
0000
0010
0000
0001
0000
,
0100
0000
0000
0010
0000
0000
1000
0000
0000
0001
0000
0000
1000
0000
0000
0000
0000
0000
0000
0000
0001
0000
0100
0000
,
0010
0000
0000
1000
0000
0000
0001
0000
0000
0100
0000
0000
0001
0000
0000
0000
0000
0000
0000
0000
0001
0000
0010
0000
,
0100
0000
0000
1000
0000
0000
0001
0000
0000
1000
0000
0000
1001
0000
0000
0000
0000
0000
0000
0000
0001
0000
0100
0000
,
0010
0000
0100
0000
0001
0000
1000
0000
1001
0000
0000
0000
0000
0000
1000
0001
,
1000
0000
0000
0000
0001
0000
1000
0100
,
1000
0000
1000
0100
1000
0000
0001
0100
,
0001
0000
0001
0100
0001
0000
1000
0001
,
1000
0000
1000
0100
1000
0000
0001
1000
,
0001
0000
0001
0100
0010
0000
0100
0001
,
0100
0000
0010
1000
0010
0000
0100
0001
,
0100
0000
0010
1000
0001
0000
0010
0001
,
0010
0000
0000
0000
0000
0000
0001
0000
0000
0100
0000
0000
0001
0000
1000
0000
0100
0000
0010
0000
0001
0000
0000
0000
,
1000
0100
0010
0001
1000
0000
1020
0000
0000
0130
0000
0000
,
0201
0310
1002
0103
,
2001
3010
0120
0001
,
0100
1030
0210
1000
,
0010
0000
0301
0000
1001
0001
0100
0010
,
1000
0010
0100
0001
0011
0010
0100
0010
,
0001
1000
0001
1001
0000
0101
0010
1000
,
0001
0010
0100
1000
0001
1001
0000
1001
,
0001
0100
0110
0000
0110
0000
0100
0110
,
0000
1001
0001
0010
0110
0110
0000
0011
,
0010
0100
1100
0011
0000
0110
0100
1000
,
0101
1010
0101
1001
0000
0000
0000
0000
,
1002
0000
1000
0000
,
1000
0000
0000
0000
,
1000
0000
0000
0000
,
1003
0000
0000
0000
;

//--------------- dance-double - Pandemonium X ----------------
#NOTES:
     dance-double:
     Pandemonium X:
     Easy:
     13:
     0,0,0,0,0,0,0,0,0,0,0,0,0,0,0,0,0,0,0,0,0,0,0,0,0,0,0,0:
00000000
00000000
00000000
00000000
,
00000000
00000000
00000000
00000000
,
00000000
00000000
00000000
00000000
,
00000000
00000000
00000000
00000000
,
00000000
00000000
00000000
00000000
,
00000000
00000000
00000000
00000000
,
00000000
00000000
00000000
00000000
,
00000000
00000000
00000000
00000000
,
00000000
00000000
00000000
00000000
,
00100000
00010000
01000000
00100000
,
00000000
00000000
00000000
00000000
,
01000000
00001000
00010000
00000100
,
00000000
00000000
00000000
00000000
,
00001000
00000010
00000000
00000100
,
00000001
00000010
00000000
00000001
,
00000100
00000100
00000010
00000010
,
00001000
00000100
00010000
00001000
,
00000000
00010000
00001000
01000000
,
00100000
10000000
00010000
00100000
,
01000000
10000000
00010000
00100000
,
00001000
00010000
00000100
00001000
,
00000010
00000100
00000100
00000001
,
00000001
00001000
00001000
00000100
,
00010000
00000000
00000000
00001000
00000000
00000000
00000000
00001000
,
00000000
00000000
00022000
00033000
,
00000000
00000000
00010000
00000000
00000000
00010000
00000000
00000000
,
00001000
00000000
01000000
00000000
00000000
01000000
00000000
00000000
,
00100000
00000000
10000000
00000000
00000000
10000000
00000000
00000000
,
01000000
00000000
10000000
00000000
00000000
00010000
00000000
00000000
,
00100000
00000000
00001000
00000000
00000000
00001000
00000000
00000000
,
00010000
00000000
00000100
00000000
00000000
00000100
00000000
00000000
,
00001000
00000000
00000010
00000000
00000000
00000010
00000000
00000000
,
00000100
00000000
00000001
00000000
00000000
00000010
00000000
00000000
,
00000100
00001000
00000100
00020000
,
00000000
00030200
00000000
00002300
,
00000000
00003020
00000000
00000230
,
00000000
00002300
00000000
00003200
,
00000000
00000310
00010000
00002000
,
00000000
02003000
00000000
03200000
,
00000000
20300000
00000000
30020000
,
00000000
00230000
00000000
02300000
,
00000000
03100000
00001000
00010000
,
00000100
00001000
00000010
00000100
,
00000000
00000010
00001000
00000100
,
00010000
00001000
00100000
00010000
,
00000000
10000000
00010000
00100000
,
00001000
00010000
00000100
00001000
,
00000010
00000100
00000001
00000010
,
00000100
00001000
00000000
00011000
,
00000000
00010000
00000100
00001000
,
00000010
00000000
00000100
00000000
00000000
00000100
00000000
00000000
,
00000100
00000010
00010000
00001000
,
00100000
00000000
00001000
00000000
00000000
00001000
00000000
00000000
,
00001000
00010000
00001000
01000000
,
00100000
00000000
10000000
00000000
00000000
10000000
00000000
00000000
,
10000000
00010000
00100000
01000000
,
10000000
00000000
00010000
00000000
00000000
01100000
00000000
00000000
,
00000000
01000000
00010000
00100000
,
00001000
00000000
00010000
00000000
00000000
00010000
00000000
00000000
,
00000100
00001000
00000010
00000100
,
00000010
00000000
00001000
00000000
00000000
00001000
00000000
00000000
,
00000001
00000010
00000001
00000100
,
00000001
00000000
00001000
00000000
00000000
00001000
00000000
00000000
,
00001000
00000100
00010000
00001000
,
00010000
00000000
00001000
01000000
00000000
01000000
00000000
00000000
,
00000000
01100000
00000000
01000000
,
00000000
00100000
00000000
10000000
,
00010000
00110000
00000000
11000000
,
00000000
10010000
00000000
00110000
,
00000000
00101000
00000000
00001000
,
00000000
00010000
00000000
00000100
,
00000000
00001100
00000000
00001000
,
00000000
00000010
00000000
00000100
,
00000000
00000001
00001001
00000000
,
00001000
00000000
00000100
00000000
,
00000010
00000011
00000000
00001100
,
00000000
00010100
00000000
00011000
,
00000000
01001000
00000000
01000000
,
00000000
00100000
10000000
00010000
,
00000000
00100000
01000000
10000000
,
00000000
01000000
00001000
00010000
,
00000000
00000100
00001000
00000010
,
00000100
00000000
00000001
00000000
00000000
00001000
00000000
00001000
,
00000000
00000100
00010000
00001000
,
01000000
00000000
00100000
00000000
00000000
10000000
00000000
10000000
,
00000000
00010000
00100000
01000000
,
10000000
00000000
00010000
00000000
00000000
01000000
00000000
01000000
,
00000000
00010000
00100000
00001000
,
00010000
00010100
00000000
00011000
,
00010000
00000100
00001000
00000010
,
00000100
00000000
00000001
00000000
00000000
00000010
00000000
00000010
,
00000000
00000100
00001000
00000010
,
00001000
00000000
00000001
00000000
00000000
00001000
00000000
00001000
,
00000000
00000100
00010000
00001000
,
00010000
00000000
00001000
00000000
00000000
01000000
00000000
01000000
,
00000000
00100000
01000000
00010000
,
10000000
00110000
00000000
01010000
,
00000000
01002000
00000000
00023000
,
00000000
00030200
00000000
00002300
,
00000000
00003020
00000000
00000032
,
00000000
00000023
00000000
00002030
,
00000000
00003100
00000100
00010000
,
00001000
00100000
00100000
00010000
,
01000000
00100000
00100000
01000000
,
00010000
10000000
10000000
00010000
,
01000000
00010000
00100000
01000000
,
10000000
00000000
01000000
01000000
,
10000000
00010000
00100000
00001000
,
00010000
00000100
00001000
00000010
,
00001010
00000010
00000100
00000001
,
00000010
00000100
00000010
00000001
,
00001000
00000010
00000010
00010000
,
00010000
00001000
00001000
01000000
,
01000000
10010000
00000000
10000000
,
00010000
00100000
00000000
00001000
,
00010000
00000100
00000000
00001000
,
00000010
00001010
00000000
00000101
,
00000001
00000010
00000100
00001000
,
00000000
00000100
00010000
00001000
,
00000000
00010000
00001000
01000000
,
00000000
01100000
10010000
10000000
,
00010000
00100000
00000000
10000000
,
00100000
00010000
00000000
00100000
,
00001000
00010000
00000000
00000100
,
00001000
00000010
00000000
00000001
,
00000010
00001000
00000000
00001000
,
00000010
00000100
00000000
00000100
,
00000010
00001010
00001001
00000000
,
00001000
00000010
00010000
00000000
,
00001000
01000000
00100000
00000000
,
01000000
00001000
00010000
00000000
,
00001000
00010000
00000010
00000000
,
00000100
00000001
00000010
00000000
,
00000100
00010000
00001000
00000000
,
00010000
00001000
01000000
00000000
,
10010000
00000000
10000000
10000000
,
01000000
00000000
01000000
00000000
00100000
00000000
00000000
00001000
,
00000000
00011000
00000000
00000000
,
00000000
00000000
00020000
00000000
,
00030020
00000000
00000130
00000010
,
00001000
00000000
00000100
00000000
00010000
00000000
00000000
00010000
,
00000000
00011000
00000000
00000000
,
00000000
00000000
00020000
00032000
,
00023000
00032000
01003000
00100000
,
10000000
10000000
00010000
00100000
,
00001000
00001000
00011000
00010000
,
00000100
00001000
00001010
00000010
,
00000100
00000001
00000010
00001000
,
00000010
00000001
00000100
00000010
,
00010000
00000000
00001000
00000000
00000000
00010000
00000100
00000000
,
00001000
00000000
00000010
00000000
00000100
00000001
00000000
00000100
,
00000001
00000000
00001000
00000000
00000100
00000000
00000000
00010100
,
00000000
00010000
00001000
00000000
,
01001000
00000000
01000000
00100000
00000000
00100000
01000000
00000000
,
00010000
00000000
10000000
00010000
00000000
00000000
00000000
00000000
,
02200000
00000000
00000000
00000000
,
00000000
00000000
00000000
00000000
,
00000000
00000000
00000000
00000000
,
00000000
00000000
00000000
00000000
,
03300000
00000000
00000000
00000000
;

//--------------- dance-double - Pandemonium X ----------------
#NOTES:
     dance-double:
     Pandemonium X:
     Medium:
     16:
     0,0,0,0,0,0,0,0,0,0,0,0,0,0,0,0,0,0,0,0,0,0,0,0,0,0,0,0:
00000000
00000000
00000000
00000000
,
00000000
00000000
00000000
00000000
,
00000000
00000000
00000000
00000000
,
00000000
00000000
00000000
00000000
,
00000000
00000000
00000000
00000000
,
00000000
00000000
00000000
00000000
,
00000000
00000000
00000000
00000000
,
00000000
00000000
00000000
00000000
,
00000000
00000000
00000000
00000000
,
00100000
00100000
00001000
00010000
,
00000100
00000000
00011000
00000000
,
00001000
00001000
01000000
00100000
,
10000000
00000000
10010000
00000000
,
10000000
01000000
00000000
00100000
,
00010000
00001000
00000000
00010000
,
00001000
00000100
00000010
00000001
,
00000100
00000100
00000010
00000100
,
00000000
00010010
00000010
00001000
,
00000100
00010000
00001000
01000000
,
00100000
10000000
00010000
00100000
,
01000000
10000000
00100000
01000000
,
00010000
00000000
00100000
00001000
00100000
00001000
00100000
00001000
,
00100000
00001000
00010000
00001000
00010000
00001000
00010000
00001000
,
00010000
00001000
00000000
00010000
00000100
00001000
00000000
00000100
,
00010000
00001000
00000000
00000000
10010000
00000000
00000000
00000000
,
00000000
00000000
11000000
00000000
01000000
10000000
00000000
00100000
,
01000000
00000000
00010000
00000000
00100000
00001000
00000000
00010000
,
00000100
00000000
00001000
00000000
00000010
00000100
00000000
00000001
,
00000010
00000000
00000100
00000000
00000010
00000001
00000000
00000010
,
00000100
00000000
00000000
00000010
00000000
00000001
00000000
00000100
,
00000000
00000010
00000000
00010000
00000000
00001000
00000000
01000000
,
00000000
00100000
00000000
10000000
00000000
01000000
00000000
00100000
,
00000000
01000000
00000000
10000000
00000000
00010000
00000000
01000000
,
00100000
10000000
00010000
01000000
,
00000000
00010000
01000000
00000000
00000000
01000000
00100000
00000000
,
00000000
00100000
01000000
00000000
00000000
01000000
00010000
00000000
,
00000000
00010000
01000000
00000000
00000000
01000000
00100000
00000000
,
01000000
00100000
10000000
00010000
,
00000000
00100000
00001000
00000000
00000000
00001000
00010000
00000000
,
00000000
00010000
00001000
00000000
00000000
00001000
00100000
00000000
,
00000000
00100000
00001000
00000000
00000000
00001000
00010000
00000000
,
00000000
00000100
00001000
00000010
,
00000100
00000001
00000010
00000000
00000000
00000100
00001000
00000000
,
00000001
00000000
00001000
00000000
00000000
00000100
00010000
00000000
,
00001000
00000000
01000000
00000000
00000000
00100000
01000000
00000000
,
00010000
00000000
10000000
00000000
00010000
00100000
01000000
00000000
,
00100000
00000000
00001000
00000000
00000000
00010000
00000100
00000000
,
00001000
00000010
00000100
00000001
,
00001000
00000000
00000100
00010000
00001000
01000000
00010000
00000000
,
00000000
10000000
00010000
00100000
,
10000000
00000000
00100000
00000000
00001000
00010000
00000000
00000100
,
00001000
00000010
00000001
00000010
,
00000100
00000000
00000001
00000100
00000000
00000010
00001000
00000000
,
00001001
00000100
00010000
00001000
,
01000000
00000000
00100000
00000000
10000000
00010000
00000000
00100000
,
01000000
00100000
00001000
00010000
,
00000100
00000000
00001000
00000100
00010000
00001000
00000000
00000000
,
00000000
00100000
00010000
10000000
,
01000000
00000000
00010000
00000000
01000000
10000000
00000000
10000000
,
00100000
00010000
00100000
01000000
,
00001000
00000000
00010000
00000100
00000000
00001000
00000100
00000000
,
00000010
00000001
00000010
00001000
,
00000010
00000000
00000100
00000000
00000010
00000001
00000000
00000001
,
00000010
00000010
00000100
00010000
,
00001000
00000000
01000000
00000000
00100000
10000000
00000000
00010000
,
00100000
01000000
10000000
00100000
,
01000000
00001000
00010000
00000100
,
00001000
00000010
00000100
00000000
00001000
00000000
00000100
00000000
,
00000001
00000000
00001000
00000010
00010000
00000010
00000100
00000001
,
00000000
00000010
00000100
00001000
,
00000100
00000000
00010000
00001000
01000000
00100000
01000000
00010000
,
00100000
00000000
01000000
10000000
01000000
00100000
00010000
00000000
,
00100000
00001000
00010000
00000100
00001000
00000000
00000100
00001000
,
00000010
00000100
00000001
00000010
00000100
00001000
00000010
00000000
,
00000100
00000001
00001000
00000100
,
00010000
00000100
00001000
00000000
00000100
00010000
00001000
00000000
,
00010000
00001000
01000000
00000000
00100000
10000000
00010000
00000000
,
00100000
01000000
10000000
00000000
01000000
00000000
00010000
00000000
,
01000000
00010000
00100000
00001000
,
00010000
00000000
00000100
00001000
00000001
00001000
00000000
00000001
,
00000100
00000000
00000010
00000100
00000010
00000000
00000100
00000010
,
00001000
00000100
00010000
00001000
,
01000000
00000000
00100000
00000000
00000000
10010000
00000000
01010000
,
00000000
00010000
00100000
00000000
10000000
00000000
00100000
00000000
,
00001000
00000000
00010000
00000000
00000000
00011000
00000000
00010100
,
00000000
00000100
00001000
00000000
00000010
00000000
00000100
00000000
,
00000001
00000000
00000010
00000000
00000000
00000110
00000000
00001100
,
00000000
00000100
00010000
00000000
00001000
00000000
01000000
00000000
,
00100000
10010000
00000000
00101000
,
00001000
00011000
00001000
00010000
,
00000010
00000000
00000100
00000000
00000000
00000101
00000000
00001010
,
00000000
00000010
00000100
00000000
00000001
00000000
00000010
00000000
,
00000100
00010000
00000000
00001000
,
00001000
00010000
00001000
01000000
,
00100000
00000000
10000000
00000000
00000000
10100000
00000000
01010000
,
00000000
00010000
00100000
00000000
01000000
00000000
00100000
00000000
,
00010000
00100000
00001000
00010000
,
00001000
00000000
00000000
01000000
00000000
00001000
00000000
00010000
00000000
00000100
00000000
00010000
,
00000000
00001000
00000000
01000000
00000000
00001000
00000000
00010000
00000000
00000100
00000000
00010000
,
00000000
00001000
00000000
00100000
00000000
00010000
00000000
10000000
00000000
01000000
00000000
00100000
,
00000000
00010000
00000000
00100000
00000000
00001000
00000000
00010000
00000000
00000010
00000000
00000100
,
00000000
00000001
00000000
00000010
00000000
00000000
00000010
00000000
00000000
00000001
00000000
00000000
,
00001000
00000010
00000010
00010000
,
00001000
00010000
00010000
00001000
,
00100000
00000000
00010000
00100000
01000000
00000000
10000000
00000000
,
00100000
00000000
01000000
00000000
00010000
00000000
00100000
00001000
,
00010000
00000000
00001000
00010000
,
00000010
00000100
00000010
00000000
00000100
00000000
00001000
00000000
,
00000100
00000000
00000001
00000100
00000010
00000000
00001000
00000000
,
00001100
00000100
00010000
00001000
,
01000000
00100000
10000000
00010000
,
00100000
00000000
01000000
10000000
00100000
01000000
00100000
10000000
,
00100000
01000000
00100000
10000000
00100000
01000000
00100000
10000000
,
00100000
01000000
00010000
00000000
00000000
00100000
00001000
00000000
,
00010000
00000000
00000100
00000000
00000000
00000100
00001000
00000000
,
00000010
00000000
00000100
00000000
00000000
00000100
00000010
00000000
,
00001000
00001001
00000000
00010010
,
00010000
00001000
00010000
00000000
00000100
00000000
00001000
00000000
,
00000000
00000100
00010000
00000000
00001000
00000000
01000000
00000000
,
00000000
00100000
01000000
00000000
00010000
00000000
10000000
00000000
,
00000000
01000000
00100000
00000000
00110000
01000000
10000000
00000000
,
00010000
00000000
01000000
00000000
00000000
00010000
00100000
00000000
,
00001000
00000000
00010000
00000000
00000000
00000100
00001000
00000000
,
00000010
00000000
00000100
00000000
00000000
00000001
00000010
00000000
,
00000100
00000000
00001100
00000000
00000000
00001000
00010000
00000000
,
00001000
00000000
01001000
00000000
00000000
01000000
00100000
00000000
,
10000000
00000000
10010000
00000000
00000000
00010000
00100000
00000000
,
01000000
00000000
11000000
00000000
00110000
00000000
00000000
00100000
,
00001000
00000000
00010000
00000000
00000010
00000000
00000000
00000010
,
00010000
00000000
00001000
00000000
00100000
00000000
00000000
00100000
,
00001000
00000000
00010000
00000000
00000100
00000000
00000000
00000100
,
00010000
00000000
00001000
00000000
01000000
00000000
00000000
01000000
,
00001000
00000000
00010000
00000000
00000100
00000000
00000000
00010000
,
00001000
00000000
00100000
00000000
01000000
00000000
00000000
01000000
,
10000000
01000000
00100000
00010000
00100000
00000000
00001000
00010000
,
00001000
00000000
00011000
00011000
,
00010100
00000000
00010100
00000000
00001100
00000000
00000000
00000011
,
00000000
00001100
00000000
00000000
,
00000000
00000000
00000000
00000000
00000000
00000000
00000100
00000000
00000100
00000000
00000100
00000000
,
00010000
00000000
00010000
00000000
00010000
00000000
00011000
00000000
00000000
00011000
00000000
00000000
,
00101000
00000000
00101000
00000000
00110000
00000000
00000000
11000000
,
00000000
00110000
00000000
00000000
,
00000000
00000000
00000000
00000000
00010000
01000000
10000000
01000000
,
00010000
00100000
10000000
00100000
00010000
00000000
00010000
00000000
,
00100000
00100000
00001000
00001000
,
00010000
00010000
00010100
00010100
,
00001100
00001100
00000110
00000110
,
00000011
00000000
00000011
00000000
00000001
00000010
00000100
00000000
,
00000010
00000100
00001000
00000000
00000100
00010000
00001000
00000000
,
00010000
00001000
01000000
00100000
00000000
01000000
10000000
01000000
,
00010000
10000000
00010000
00100000
01000000
10000000
00000000
01000000
,
00001000
00010000
00000100
00000000
00001000
00000000
00001000
00000001
,
00000000
00000010
00000001
00000100
00000001
00001000
00000000
00000100
,
00010000
00001000
01000000
00100000
00000000
01000000
00001000
00010000
,
00000010
00000100
00000001
00000010
00000000
00000000
00000000
00000000
,
00011000
00000000
00000000
00000000
;

//--------------- dance-double - Pandemonium X ----------------
#NOTES:
     dance-double:
     Pandemonium X:
     Hard:
     17:
     0.833615,1.085868,0.379409,0.204881,0.08347,769,719,50,27,0,0,0,0,0,0.833615,1.085868,0.379409,0.204881,0.08347,769,719,50,27,0,0,0,0,0:
00000000
00000000
00000000
00000000
,
00000000
00000000
00000000
00000000
,
00000000
00000000
00000000
00000000
,
00000000
00000000
00000000
00000000
,
00000000
00000000
00000000
00000000
,
00000000
00000000
00000000
00000000
,
00000000
00000000
00000000
00000000
,
00000000
00000000
00000000
00000000
,
00000000
00000000
00000000
00000000
,
10000000
01000000
00200000
00320000
,
00130000
00001000
00010000
00000010
,
00000100
00000010
00002000
00003200
,
00010300
00001000
00010000
00000100
,
00010000
00002000
01000000
01003000
,
00100000
20000000
00010000
30010000
,
00200000
00301000
00020000
00030010
,
00000200
00000320
00020030
00002000
,
00033000
00011000
00010000
00000010
,
00000100
00001000
00000100
00000001
,
00001000
00000100
00010000
00001000
,
01000000
00100000
10000000
01000000
,
00100000
00000000
00010000
10000000
00010000
10000000
00010000
01000000
,
00010000
01000000
00010000
00100000
00010000
00100000
00001000
00100000
,
00001000
00100000
00000000
00001000
00010000
00000010
00000000
00000100
,
00000010
00010000
00000000
00000000
00022000
00000000
00000000
00000000
,
00033000
00000000
00010000
00000000
00000100
00010000
00000000
00001000
,
01000000
00000000
00100000
00000000
10000000
00010000
00000000
00100000
,
01000000
00000000
00100000
00000000
00001000
00010000
00000000
00000100
,
00001000
00000000
00000010
00000000
00000100
00000010
00000000
00001000
,
00000001
00000000
00000010
00000000
00000100
00010000
00000000
00001000
,
01000000
00000000
00100000
00000000
10000000
00010000
00000000
00100000
,
01000000
00000000
10000000
00000000
01000000
00100000
00000000
00001000
,
00010000
00000000
00001000
00000000
00010000
00000010
00000000
00000100
,
00000001
00000000
00001001
00000000
00000001
00000100
00000020
00000000
,
00000000
00010000
00000000
00001000
,
00000000
00010000
00000000
00001000
,
00000000
00010000
00000000
00001030
,
00000000
00000000
00011000
00000000
00001000
00100000
00020000
00000000
,
00000000
01000000
00000000
01000000
,
01000000
01000000
00000000
00100000
,
00000000
01000000
00000000
00130000
,
00000000
00000000
00100000
00000000
00001000
00010000
00000020
00000000
,
00000130
00000020
00001030
00000020
,
00000130
00000100
00000001
00000010
,
00000100
00001000
00000100
00010000
,
00001000
00000000
01000000
00000000
00100000
10000000
02000000
00000000
,
03100000
02000000
13000000
02000000
,
03100000
00000000
00010000
00100000
00010000
00100000
00001000
00100000
,
00001000
00100000
00001000
00010000
00001000
00000000
00011000
00000000
,
00000000
00010000
00000100
00001000
,
00000010
00000000
00000100
00000000
00000001
00000010
00000000
00000010
,
00000100
00000010
00000100
00010000
,
00001000
00000000
01000000
00100000
00000000
10000000
01000000
00000000
,
00110000
00100000
01000000
10000000
,
00010000
00000000
01000000
00000000
00001000
00010000
00000000
00000100
,
00001000
00000010
00000100
00000001
,
00000010
00000000
00000100
00000010
00000001
00001000
00000000
00000000
,
00000000
00000001
00000100
00000010
,
00010000
00000000
00001000
00000000
01000000
00100000
00000000
10000000
,
01000000
00100000
00001000
00010000
,
00000100
00000000
00001000
00000010
00000000
00000100
00000001
00000000
,
00001001
00000001
00000010
00000100
,
00001000
00000000
00000100
00000000
00010000
00001000
00000000
00010000
,
00000100
00010000
00001000
01000000
,
00100000
00000000
10000000
00200000
00000000
01000000
00000000
01300000
,
00020000
00000000
00130000
01000000
10000000
00000000
00010000
00000000
,
01000000
00000000
00001000
00000000
00010000
00000100
00001000
00000000
,
00000010
00000100
00000001
00000000
00000010
00000100
00001000
00000000
,
00000100
00000000
00010000
00001000
00100000
00001000
00010000
00000010
,
00000000
00000000
00000100
00000010
00000100
00000000
00000001
00000100
,
00000001
00000000
00001000
00000010
00001000
00000000
00000100
00001000
,
00000100
00000000
00010000
00000100
00010000
00001000
01000000
00000000
,
00100000
10000000
00010000
00100000
01000000
00000000
01000000
00100000
,
00001000
00010000
00000010
00000100
00000001
00000010
00000100
00000000
,
00000010
00000001
00001000
00000100
,
00010000
00001000
00011000
00000000
00010000
00000000
00010100
00000000
,
00000100
00001010
00000100
00000101
,
00000001
00000000
00001000
00000001
00000100
00000000
00000010
00010000
,
00001000
00000000
00010000
00001000
01000000
00000000
00100000
10000000
,
01000000
00000000
00100000
01000000
10000000
00010000
00000000
01000000
,
00010000
00000000
00100000
01000000
00100000
00000000
01000000
10000000
,
01000000
10000000
00010000
01000000
,
00001000
00000000
00010000
00000000
00000100
00001000
00000000
00001100
,
00000000
00000100
00000010
00000000
00000001
00000000
00000100
00000000
,
00000010
00000000
00001010
00000000
00000000
00001100
00000000
00001001
,
00000000
00001000
00000001
00000000
00000010
00000000
00000100
00000000
,
00001000
00000000
00000100
00000000
00010000
00001000
00000000
01000000
,
00000000
00100000
10000000
00000000
00010000
00000000
00100000
00000000
,
01000000
10000000
00000000
00110000
,
11000000
10010000
10000000
00100000
,
01000000
00000000
00010000
00000000
00100000
00001000
00010000
00000000
,
00000010
00000100
00000001
00000010
,
00000100
00000000
00001000
00000000
00000100
00010000
00000100
00010000
,
00001000
00010000
00001000
00000000
00100000
00000000
00010000
00000000
,
10000000
00000000
01000000
00000000
10000000
00010000
01000000
00000000
,
00100000
10000000
00010000
00100000
,
00001000
00000000
00010000
00000010
00000100
00000001
00001000
00000100
,
00010000
00000000
00000000
00001000
00000000
00000000
01000000
00000000
00000000
00000000
10000000
00000000
00000000
00000000
01000000
00000000
00000000
00000000
00010000
00000000
00000000
00000000
01000000
00000000
,
00000000
10000000
00000000
01000000
00000000
00010000
00000000
00100000
00000000
00001000
00000000
00010000
,
00000000
00000010
00000000
00000100
00000000
00001000
00000000
00000100
00000000
00000001
00000000
00000010
,
00000000
00001000
00000000
00000010
00000000
00000001
00000000
00000010
00000000
00000100
00000000
00010000
,
00000000
00000000
00001000
00000000
00000000
00000000
00010000
00000000
00000000
00000100
00000000
00000000
00010000
00000000
00000000
00000000
00000000
00000000
00000100
00000000
00000000
00000000
00000000
00000000
,
00001000
00000000
00000010
00000100
00000010
00000000
00000100
00000000
,
00000001
00000010
00001000
00000010
,
00000001
00000000
00001000
00000010
00001000
00000000
00000010
00000000
,
00010000
00000000
00001000
00000000
01000000
00000000
00100000
10000000
,
02000000
00000000
00100000
00100000
,
03100000
01000000
10000000
00000000
00010000
00000000
01000000
00000000
,
00001000
00010000
00000100
00001000
00000010
00000000
00000100
00000000
,
00001001
00000001
00000100
00000001
,
00001000
00000000
00000100
00010000
00001000
01000000
00100000
10000000
,
01000000
00100000
00010000
00100000
00001000
00010000
00000100
00001000
,
00000010
00000100
00000001
00001000
00000100
00010000
00001000
01000000
,
00100000
10000000
01000000
00000000
00000000
10000000
00100000
01000000
,
00010000
00100000
00001000
00000000
00000000
00010000
00000010
00000100
,
00000001
00000010
00000100
00000000
00000000
00000010
00000001
00001000
,
00000010
00010000
00001000
00000000
00000000
00000000
00011000
00000000
,
01001000
01000000
00100000
10000000
00010000
00100000
01000000
00000000
,
00000000
00100000
00010000
10000000
01000000
10000000
00010000
00000000
,
00000000
00100000
00001000
00010000
00000010
00000100
00000001
00000000
,
00000000
00000000
00000000
00000000
00001000
00000000
00000001
00000000
00000000
00000000
00000000
00000000
00000110
00000000
00000000
00000001
00000000
00000000
00001000
00000000
00000000
00000100
00000000
00000000
,
00010000
00001000
01000000
00000000
00000000
00100000
01000000
10000000
,
01000000
00010000
00100000
00000000
00000000
01000000
00010000
00100000
,
00001000
00010000
00000010
00000000
00000000
00000100
00001000
00000100
,
00000001
00001000
00000100
00000000
00000000
00010000
00001000
01000000
,
00100000
10000000
01000000
00000000
00000000
00010000
00100000
10000000
,
00100000
00010000
10000000
00000000
00000000
00010000
01000000
00001000
,
00010000
00000010
00000100
00000000
00001001
00000000
00000000
00000001
,
00000100
00000010
00010000
00001000
01000000
00000000
00000000
00100000
,
10000000
00010000
00100000
00001000
00010000
00000000
00000000
00000100
,
00001000
00000010
00000100
00000001
00000010
00000000
00000000
00000100
,
00010000
00001000
00010000
00000010
00010000
00000000
00000000
00001000
,
01000000
00100000
10000000
01000000
00100000
00000000
00000000
00100000
,
00001000
00010000
00000010
00000100
00000001
00000000
00000000
00001000
,
00000010
00000000
00000000
00010000
00000000
00000000
00001000
00000000
00000000
01000000
00000000
00000000
00001000
00000000
00000000
00000000
00000000
00000000
00000000
00000000
00000000
00000000
00010000
00000000
,
00001000
00000000
00011000
00110000
,
11000000
00000000
10100000
00000000
01010000
00000000
00000000
01010000
,
00000000
01010000
00000000
00000000
,
00000000
00000000
00000000
00000000
00000000
00000000
01000000
00000000
10000000
00000000
01000000
00000000
,
00010000
00000000
00100000
00000000
00001000
00000000
00011000
00000000
00000000
00010100
00000000
00000000
,
00001100
00000000
00001010
00000000
00000101
00000000
00000000
00000101
,
00000000
00000101
00000000
00000000
,
00000000
00000000
00000000
00000000
00000001
00000100
00000010
00010000
,
00001000
01000000
00100000
10000000
01000000
00000000
00100000
00000000
,
00110000
01010000
00010000
00100000
,
00101000
00011000
00010100
00001100
,
00001010
00000101
00000011
00000110
,
00001100
00000000
00010100
00000000
00000100
00010000
00001000
01000000
,
00100000
10000000
01000000
00100000
00010000
00100000
00001000
00010000
,
00000010
00000100
00000001
00000010
00000000
00000100
00000010
00000001
,
00001000
00000010
00010000
00001000
01000000
00001000
00000000
00010000
,
00000010
00000100
00000010
00000000
00000100
00000000
00000010
00010000
,
00000000
00001000
01000000
00100000
10000000
01000000
00000000
00100000
,
00001000
00100000
00001000
00010000
00000000
00000010
00000100
00001000
,
00000100
00000001
00001000
00000100
00000000
00000000
00000000
00000000
,
00022000
00000000
00000000
00000000
,
00000000
00000000
00000000
00000000
,
00000000
00000000
00000000
00000000
,
00000000
00000000
00000000
00000000
,
00033000
00000000
00000000
00000000
;

//--------------- dance-double - Pandemonium X ----------------
#NOTES:
     dance-double:
     Pandemonium X:
     Challenge:
     18:
     0,0,0,0,0,0,0,0,0,0,0,0,0,0,0,0,0,0,0,0,0,0,0,0,0,0,0,0:
00000000
00000000
00000000
00000000
,
00000000
00000000
00000000
00000000
,
00000000
00000000
00000000
00000000
,
00000000
00000000
00000000
00000000
,
00000000
00000000
00000000
00000000
,
00000000
00000000
00000000
00000000
,
00000000
00000000
00000000
00000000
,
00000000
00000000
00000000
00000000
,
00000000
00000000
00000000
00000000
,
20000000
32000000
03020000
00032000
,
00013000
00000000
00000010
00000000
00000100
00000000
00000001
00000000
00000010
00000000
00000001
00000000
,
00000200
00002300
00023000
00230000
,
10300000
00000000
01000000
00000000
00100000
00000000
00010000
00000000
00100000
00000000
00001000
00000000
,
00010000
00000000
00010000
00000000
00010000
00000000
00000000
00000000
00000000
00000000
00000000
00000000
,
00001000
00000000
00001000
00000000
00001000
00000000
00000000
00000000
00000000
00000000
00000000
00000000
,
00010000
00000000
00010000
00000000
00010000
00000000
00000100
00000000
00000100
00000000
00000100
00000000
,
00002000
00003020
00020030
00002000
,
00000000
00000000
00033000
00000000
00000000
00000000
00101000
00000000
00000000
00000000
00000000
00000000
00010000
00000000
00000000
00000100
00000000
00000000
00001000
00000000
00000000
00000000
00000000
00000000
,
00000010
00000100
00000001
00000000
00000010
00000100
00001000
00000000
,
00000100
00010000
00001000
00000000
01000000
00100000
10000000
00000000
,
00010000
00100000
01000000
00000000
00100000
00001000
00010000
00000000
,
00000100
00001000
00000010
00000100
00000010
00000100
00000010
00001000
,
00000100
00001000
00000100
00010000
00001000
00010000
00001000
00100000
,
00001000
00100000
00000000
00010000
10000000
00010000
00000000
10000000
,
00010000
10000000
00000000
00000000
00022000
00000000
00000000
00000000
,
00033000
00000000
00010100
00000000
00000100
00001000
00000000
00000010
,
00000100
00000000
00000011
00000000
00000010
00000100
00000000
00000100
,
00001000
00000000
00001100
00000000
00000100
00010000
00000000
00001000
,
01000000
00000000
01100000
00000000
01000000
00010000
00000000
00010000
,
10000000
00000000
00000000
11000000
00000000
01100000
00000000
00110000
,
00000000
00101000
00000000
00011000
00000000
00010100
00000000
00001100
,
00000000
00000110
00000000
00000101
00000000
00001001
00000000
00000011
,
00000000
00001001
00000000
00001100
00000000
00001000
00000000
00001000
,
00000200
00000000
00010300
00000000
00001000
01000000
00200000
00000000
,
01300000
00001000
00020000
00000000
00031000
01000000
00200000
00000000
,
01300000
00001000
00020000
00000000
00031000
01000000
00200000
00000000
,
01300000
00001000
00020000
00000000
00031000
00100000
00001000
00000000
,
00000000
00000000
00011000
00000000
00010000
00000010
00000200
00000000
,
00000310
00010000
00002000
00000000
00013000
00000010
00000200
00000000
,
00000310
00010000
00002000
00000000
00013000
00000010
00000200
00000000
,
00000310
00010000
00002000
00000000
00013000
00000100
00010000
00000000
,
00000000
00000000
00011000
00000000
00001000
01000000
00200000
00000000
,
10300000
01000000
00200000
00000000
00301000
00010000
00000200
00000000
,
00001300
00000010
00000200
00000000
00000310
00001000
00000002
00000000
,
00000013
00000100
00002000
00000000
00003100
00010000
00002000
00000000
,
01003000
00000000
00100000
10000000
00100000
10000000
00010000
01000000
,
00010000
01000000
00001000
00010000
00001000
00010000
00000100
00010000
,
00000100
00010000
00000100
00001000
00000010
00000100
00000001
00000010
,
00000100
00010000
00001000
01000000
00100000
10000000
10010000
00000000
,
00000000
00110000
00101000
00011000
,
00010100
00000000
00001100
00000000
00001000
00000010
00000000
00000010
,
00000001
00000011
00001100
00000110
,
00001001
00000000
00000001
00000100
00000000
00000100
00000010
00000000
,
00000010
00001010
00001100
00010100
,
00011000
00000000
00110000
00000000
00010000
01000000
00000000
01000000
,
10000000
10010000
10100000
10010000
,
00110000
00000000
00100000
00001000
00010000
00000010
00000000
00000000
,
00000000
00000110
00001010
00001100
,
00010100
00000000
00011000
00000000
00001000
01000000
00000000
00100000
,
10000000
10010000
00110000
00101000
,
00011000
00000000
00010000
00000100
00000000
00000100
00001000
00000000
,
00001010
00000101
00000011
00000101
,
00001010
00000000
00001100
00000000
00000100
00010000
00000000
00001000
,
01000000
01100000
10010000
11000000
,
00110000
00000000
00100000
00100000
00000000
00101000
00000000
00001000
,
00020000
00000000
00030100
00010000
00000010
00000100
00000010
00010000
,
00001000
01000000
00100000
10000000
00010000
00100000
00001000
00010000
,
00000100
00010000
00001000
01000000
00100000
01000000
00010000
10000000
,
00010000
00100000
00001000
00010000
00000010
00001000
00000100
00001001
,
00000000
00000000
00001000
00000100
00001000
00000100
00010000
00001000
,
01000000
00100000
10000000
01000000
00100000
00010000
10000000
00010000
,
01000000
00001000
00010000
00000100
00001000
00000010
00001000
00000000
,
00000010
00000001
00000010
00001000
00000100
00000000
00010000
00001000
,
01000000
00100000
10000000
00010000
00110000
00100000
01000000
10000000
,
00010000
00100000
00001000
00010000
00000100
00010000
00000100
00001000
,
00000010
00000100
00000110
00000000
00000000
00000000
00011000
00000000
,
00000000
01100000
00000000
10010000
,
00000000
00000000
10000000
00010000
00100000
00001000
00010000
00000010
,
00000100
00000001
00000010
00000100
00000010
00000001
00001000
00000100
,
00010000
00001000
01000000
00100000
10000000
00010000
00100000
01000000
,
00000000
00000000
10000000
01000000
00100000
00000000
00100000
00010000
,
10000000
10010000
01010000
00110000
,
00101000
00000000
00021000
00000000
00000000
00000100
00000000
00000100
,
00000000
00030100
00010100
00000000
00001100
00000000
00001010
00000000
,
00000101
00000000
00001002
00000000
00000000
00000100
00000000
00000100
,
00000000
00000103
00000101
00000000
00001010
00000000
00001100
00000000
,
00010100
00000000
00012000
00000000
00000000
01000000
00000000
01000000
,
00000000
01003000
01001000
00000000
01100000
00000000
10100000
00000000
,
01010000
01002000
00000000
00010000
,
00013000
00010100
00001100
00000110
,
00000011
00000000
00000201
00000000
00000000
00000010
00000000
00000001
,
00000000
00000310
00000110
00000000
00000101
00000000
00001010
00000000
,
00001100
00000000
00012000
00000000
00000000
00100000
00000000
01000000
,
00000000
00103000
00101000
00000000
00110000
00000000
11000000
00000000
,
10100000
00000000
02010000
00000000
00000000
00001000
00000000
00010000
,
00000000
03001000
00011000
00000000
00010100
00000000
00011000
00000000
,
01001000
00000000
00011000
00000000
00000000
00011000
00000000
00110000
,
00000000
00000000
00000000
10010000
00000000
00000000
10000000
00000000
00000000
00000000
01000000
00000000
00000000
00000000
00010000
00000000
00000000
00000000
00001000
00000000
00000000
00000000
00000010
00000000
,
00000000
00000001
00000000
00001000
00000000
00000001
00000000
00000100
00000000
00001000
00000000
00010000
,
00000000
00100000
00000000
10000000
00000000
01000000
00000000
00100000
00000000
00010000
00000000
00001000
,
00000000
00000100
00000000
00000010
00000000
00000001
00000000
00000100
00000000
00001000
00000000
00010000
,
00000000
00000000
00100000
00000000
00000000
00000000
10000000
00000000
00000000
00010000
00000000
00000000
00100000
00000000
00000000
00000000
00000000
00000000
00001000
00000000
00000000
00000000
00000000
00000000
,
00010000
00000000
00000100
00001000
00000010
00000000
00000100
00000000
,
00001000
00000000
00000100
00000001
00000010
00000000
00000100
00000000
,
00001000
00000000
00000100
00010000
00001000
00000000
01000000
00000000
,
00100000
00000000
10000000
00000000
00010000
00000000
00100000
01000000
,
20000000
00000000
01000000
00100000
,
30010000
10000000
00010000
00000000
00100000
00000000
00001000
00000000
,
00010000
00000100
00001000
00000010
00010000
00000000
00001000
00000000
,
00100010
00001000
00010000
00001000
,
01000000
00000000
01000000
00100000
10000000
00000000
00110000
00000000
,
00011000
00000000
00010000
00000100
00001000
00000010
00001000
00000100
,
00010000
00001000
00100000
00010000
00100000
00001000
00010000
00001000
,
00100000
00000000
00000000
00001000
00000000
00000000
00011000
00000000
00000000
00000000
00000000
00000000
00000000
00000000
00000000
00000000
00001000
00000000
01000000
00000000
00000000
00100000
00000000
00000000
,
10000000
00000000
00000000
01000000
00000000
00000000
00100000
00000000
00000000
00000000
00000000
00000000
00000000
00000000
00000000
00000000
01000000
00000000
10000000
00000000
00000000
00010000
00000000
00000000
,
00100000
00000000
00000000
00001000
00000000
00000000
00010000
00000000
00000000
00000000
00000000
00000000
00000000
00000000
00000000
00000000
00000100
00000000
00001000
00000000
00000000
00000010
00000000
00000000
,
00000100
00000001
00001000
00000000
00000000
00000000
00011000
00000000
,
10010000
00000000
00000000
00000000
10000000
00000000
00010000
00000000
00000000
00100000
00000000
00000000
00001000
00000000
00000000
00010000
00000000
00000000
00000010
00000000
00000000
00000000
00000000
00000000
,
00000000
00000000
00000000
00000000
00000100
00000000
00000010
00000000
00000000
00001000
00000000
00000000
00000001
00000000
00000000
00000010
00000000
00000000
00000100
00000000
00000000
00000000
00000000
00000000
,
00000000
00000000
00000000
00000000
00000010
00000000
00000001
00000000
00000000
00001000
00000000
00000000
00000100
00000000
00000000
00010000
00000000
00000000
00001000
00000000
00000000
00000000
00000000
00000000
,
00000000
00000000
00000000
00000000
01000000
00000000
00000100
00000000
00000000
00000000
00000000
00000000
00011000
00000000
00000000
00000000
00001000
00000000
01000000
00000000
00000000
00100000
00000000
00000000
,
10000000
00000000
00000000
00010000
00000000
00000000
00100000
00000000
00000000
00000000
00000000
00000000
00000000
00000000
01000000
00000000
10000000
00000000
01000000
00000000
00000000
10000000
00000000
00000000
,
00010000
00000000
00000000
00100000
00000000
00000000
00001000
00000000
00000000
00000000
00000000
00000000
00000000
00000000
00010000
00000000
00000100
00000000
00010000
00000000
00000000
00000010
00000000
00000000
,
00000100
00000000
00000000
00000001
00000000
00000000
00001000
00000000
00000000
00000000
00000000
00000000
00000000
00000000
00000100
00000000
00010000
00000000
00000100
00000000
00000000
00001000
00000000
00000000
,
00000100
00000000
00000000
00010000
00000000
00000000
00001000
00000000
00000000
00000000
00000000
00000000
00000000
00000000
00100000
00000000
00001000
00000000
00100000
00000000
00000000
00001000
00000000
00000000
,
00100000
00000000
00000000
00010000
00000000
00000000
01000000
00000000
00000000
00000000
00000000
00000000
00000000
00000000
00100000
00000000
10000000
00000000
00100000
00000000
00000000
01000000
00000000
00000000
,
00001000
00000000
00000000
00010000
00000000
00000000
00000100
00000000
00000000
00000000
00000000
00000000
00000000
00000000
00001000
00000000
00000001
00000000
00001000
00000000
00000000
00000100
00000000
00000000
,
00000001
00000000
00000000
00000100
00000000
00000000
00001000
00000000
00000000
00000000
00000000
00000000
00011000
00000000
00000000
00000000
00000000
00000000
00000000
00000000
00010000
00000000
00100000
00000000
,
00010000
00000000
00000000
00100000
00000000
00000000
01000000
00000000
00000000
10000000
00000000
00000000
00010000
00000000
00000000
00000000
00000000
00000000
00000000
00000000
00100000
00000000
00001000
00000000
,
00010000
00000000
00000000
00000100
00000000
00000000
00001000
00000000
00000000
00000010
00000000
00000000
00000100
00000000
00000000
00000000
00000000
00000000
00000000
00000000
00000010
00000000
00000100
00000000
,
00000001
00000000
00000000
00000010
00000000
00000000
00000100
00000000
00000000
00001000
00000000
00000000
00000100
00000000
00000000
00000000
00000000
00000000
00000000
00000000
00010000
00000000
00001000
00000000
,
01000000
00000000
00000000
00100000
00000000
00000000
10000000
00000000
00000000
00010000
00000000
00000000
00100000
00000000
00000000
00000000
00000000
00000000
00000000
00000000
00100000
00000000
00001000
00000000
,
00010000
00000000
00000000
00000100
00000000
00000000
00001000
00000000
00000000
00000010
00000000
00000000
00000100
00000000
00000000
00000000
00000000
00000000
00000000
00000000
00000001
00000000
00000100
00000000
,
00000010
00000000
00000000
00001000
00000000
00000000
00000100
00000000
00000000
00010000
00000000
00000000
00001000
00000000
00000000
00000000
00000000
00000000
00000000
00000000
00010000
00000000
00000100
00000000
,
00010000
00000000
00001000
00000000
01000000
00000000
00100000
00000000
01000000
00000000
00000000
00000000
00000000
00000000
00000000
00001000
,
00010000
00000000
00010100
00001100
,
00001010
00000000
00000101
00000000
00001001
00000000
00000000
00000110
,
00000000
00001001
00000000
00000000
,
00000000
00000000
00000000
00000000
00000000
00000000
00000002
00000000
00000203
00000000
00002300
00000000
,
00023000
00000000
00230000
00000000
20300000
00000000
30010000
00000000
00000000
11000000
00000000
00000000
,
00110000
00000000
01010000
00000000
10100000
00000000
00000000
01010000
,
00000000
10010000
00000000
00000000
,
00000000
00000000
00000000
00000000
00000000
00000000
00100000
00001000
00010000
00001000
00010000
00001000
,
00100000
00001000
00010000
00001000
00010000
00001000
00100000
00000000
00000000
00110000
00000000
00000000
,
11000000
00110000
00101000
00011000
,
00001100
00000110
00000101
00001010
,
00000101
00001010
00001001
00001010
,
00010010
00000000
00011000
00000000
01001000
00001000
01000000
00100000
,
10000000
00010000
00100000
01000000
10000000
00010000
00100000
00001000
,
00010000
00000100
00001000
00000010
00000000
00000100
00001000
00000100
,
00000001
00000100
00000010
00001000
00000100
00001100
00000000
00010000
,
00001000
01000000
01001000
00000000
10100000
00000000
00010000
01010000
,
00000000
00010000
00100000
00001000
00011000
00011000
00000000
00010000
,
00010100
00000100
00001000
00001010
00000000
00000001
00000100
00000010
,
00001010
00010010
00001000
00011000
00000000
00000000
00000000
00000000
,
02000200
00000000
00000000
00000000
,
00000000
00000000
00000000
00000000
,
00000000
00000000
00000000
00000000
,
00000000
00000000
00000000
00000000
,
03000300
00000000
00000000
00000000
;
