#TITLE:Lovesick Lovetune;
#SUBTITLE:;
#ARTIST:VALLEYSTONE feat. 紫崎 雪;
#TITLETRANSLIT:;
#SUBTITLETRANSLIT:;
#ARTISTTRANSLIT:;
#GENRE:;
#CREDIT:;
#MUSIC:Lovesick Lovetune.ogg;
#BANNER:;
#BACKGROUND:;
#CDTITLE:;
#SAMPLESTART:62.307;
#SAMPLELENGTH:14.009;
#SELECTABLE:YES;
#OFFSET:-0.083;
#BPMS:0.000=135.000;
#STOPS:;
#BGCHANGES:;
#FGCHANGES:;

//--------------- dance-single - Pandemonium X ----------------
#NOTES:
     dance-single:
     Pandemonium X:
     Beginner:
     3:
     0,0,0,0,0:
0000
0000
0000
0000
,
0000
0000
0000
0000
,
0000
0000
0000
0000
,
0000
0000
0000
0000
,
0000
0000
0000
0000
,
0000
0000
0000
0000
,
0000
0000
0000
0000
,
0001
0000
1000
0000
,
0200
0300
0010
0010
,
0010
0000
0100
0100
,
2002
0000
0000
3003
,
0001
0000
0000
0000
,
1000
0000
0000
0000
,
0001
0000
0000
0000
,
0100
0000
0010
0000
,
1000
0000
0000
0000
,
0001
0000
0000
0000
,
1000
0000
0000
0000
,
0001
1000
0001
0000
,
0100
0000
0100
0000
,
0010
0010
0010
0000
,
1000
0000
0001
0000
,
0020
0000
0000
0030
,
0100
0000
0010
0000
,
0100
0100
0100
0000
,
1000
0000
0001
0000
,
0020
0000
0000
0030
,
0100
0000
0010
0000
,
0001
1000
0001
0000
,
1000
0000
0001
0000
,
0200
0000
0000
0300
,
0010
0000
1000
0000
,
0100
0100
0100
0000
,
0010
0000
0001
0000
,
2002
0000
3003
0000
,
1000
1000
1000
0000
,
0001
0000
0100
0000
,
0010
0000
1000
0000
,
0100
0000
0010
0000
,
0001
0001
0001
0000
,
1000
0000
0001
0000
,
0100
0000
0010
0000
,
1001
0000
0110
0000
,
0001
0000
1000
0000
,
0200
0300
0010
0000
,
0001
0000
1000
0000
,
0010
0100
0001
0001
,
1000
0000
0001
0000
,
0020
0030
0100
0100
,
2000
3000
0001
0000
,
1000
0001
0110
0000
,
1000
0000
0000
0000
,
0001
0000
0000
0000
,
0010
0000
0000
0000
,
0100
0000
1000
0000
,
0010
0000
0000
0000
,
0100
0000
0000
0000
,
0001
0000
0000
0000
,
1000
0001
1000
0000
,
0010
0000
0000
0000
;

//--------------- dance-single - Pandemonium X ----------------
#NOTES:
     dance-single:
     Pandemonium X:
     Easy:
     5:
     0,0,0,0,0:
0000
0000
0000
0000
,
0000
0000
0000
0000
,
0000
0000
0000
0000
,
0000
0000
0000
0000
,
0000
0000
0000
0000
,
0000
0000
0000
0000
,
0000
0000
0000
0000
,
0001
0000
0100
0000
,
0020
0030
0100
0001
,
2000
3000
0100
1000
,
1001
0110
1001
0000
,
0001
0100
0010
0000
,
0100
0010
1000
0000
,
0100
1000
0001
0000
,
0200
0302
0023
0230
,
1300
0100
0010
0000
,
0100
1000
0010
0000
,
0100
0001
0010
0000
,
0200
2300
0002
3003
,
0100
0000
0001
0000
,
0010
0100
2000
3000
,
0100
1000
0001
0100
,
0020
0000
0000
0130
,
0001
0000
1000
0000
,
0100
1000
0100
0000
,
0010
0001
0100
0001
,
2000
0000
0000
3000
,
0001
0100
0001
0000
,
0010
0100
0010
0000
,
0100
1000
0010
0100
,
0002
0000
0000
0013
,
0100
0000
0010
0000
,
0100
1000
0010
0000
,
0100
0001
1000
0100
,
0110
1001
0110
0000
,
0001
0001
1000
1000
,
0001
0100
0010
0000
,
1000
0000
0001
0000
,
0010
0001
0010
0100
,
1000
1000
0100
0100
,
1000
0100
0010
0001
,
0100
0000
0001
0000
,
1000
0001
0110
0000
,
1000
0000
0001
0000
,
0200
0300
0010
1000
,
0001
0000
0010
0000
,
0100
1000
1001
0110
,
0001
0000
1000
0000
,
0020
0030
0100
0001
,
2000
3000
0100
1000
,
1001
0110
1002
0003
,
0100
0001
0010
0000
,
0100
1000
0001
0000
,
0010
0001
1000
0000
,
0200
2300
3020
0230
,
0301
0100
0010
0000
,
0100
0001
1000
0000
,
0100
0010
0001
0000
,
0020
0230
2300
3001
,
0110
0000
0000
0000
;

//--------------- dance-single - Pandemonium X ----------------
#NOTES:
     dance-single:
     Pandemonium X:
     Medium:
     10:
     0,0,0,0,0:
0000
0000
0000
0000
,
0000
0000
0000
0000
,
0000
0000
0000
0000
0000
0000
0000
0001
,
1000
0010
0100
0001
,
0020
0000
0030
0100
1000
0000
0100
0000
,
0010
0001
0100
0001
,
1000
0000
0100
0000
0010
0001
1000
0000
,
0001
0100
0001
1000
,
0200
0300
0010
0100
,
2000
3000
0001
0100
,
0001
0000
0000
0010
0000
0000
0001
0000
0200
0000
0000
0000
0300
0000
0000
0000
,
0010
0000
1000
0000
0010
0000
0000
1000
0000
0001
0000
0000
1000
0000
0000
0000
,
1000
0000
0100
0000
1000
0000
0000
0100
0000
0010
0000
0000
0100
0000
0000
0000
,
0010
0000
0001
0000
0010
0000
0000
0001
0000
0100
0000
0000
0001
0000
0000
0000
,
1000
0100
0010
0001
0010
0000
1001
0000
,
0001
0000
0100
0000
0001
0000
0000
0100
0000
0010
0000
0000
0100
0000
0000
0000
,
0010
0000
1000
0000
0010
0000
0000
1000
0000
0100
0000
0000
1000
0000
0000
0000
,
0100
0000
0010
0000
0100
0000
0000
0010
0000
0001
0000
0000
0010
0000
0000
0000
,
0001
0010
0100
1000
0001
0000
0110
0000
,
2000
0000
3000
0001
0020
0000
0030
0100
,
0010
0000
0001
1000
0010
0010
0010
0000
,
0100
0000
0001
0000
0100
0000
0010
1000
,
0100
0010
0001
1010
,
2000
0000
0000
3010
0200
0000
0300
0001
,
0010
0000
0100
0010
0001
0100
0010
0000
,
0200
0000
0302
0000
0023
0000
0130
1000
,
2002
0000
3003
0000
,
1020
0100
1000
0130
,
0021
0100
0001
0130
,
2001
0000
3001
0000
1000
0100
0010
0001
,
2000
0001
3001
1100
,
0002
0000
0103
0001
2000
0000
3100
1000
,
0010
0000
0100
0001
0010
0010
0010
0000
,
2100
3010
0102
0013
,
0100
0000
0000
0100
0000
0000
0100
0000
1001
0000
0000
0000
0000
0000
0000
0000
,
0101
0000
0000
0000
1010
0000
0000
0000
0001
0000
0000
1000
0000
0000
0100
0000
,
0010
0000
0000
0000
0100
0000
0000
0000
1000
0000
0000
0001
0000
0000
1000
0000
,
1100
0011
1100
1001
,
0001
0000
0000
0100
0000
0000
0001
0000
1000
0000
0000
0100
0000
0000
0000
0000
,
0011
0000
0000
0000
1100
0000
0000
0000
1000
0000
0000
0100
0000
0000
0010
0000
,
0001
0000
0000
0000
0100
0000
0000
0000
0001
0000
0000
1000
0000
0000
0100
0000
,
1100
1010
0101
0011
,
0001
0000
0000
0001
0000
0000
1000
0000
1020
0000
0000
0000
0130
0000
0000
0000
,
0001
0000
0000
1000
0000
0000
0100
0000
1000
0000
0000
0010
0000
0000
0100
0000
,
0200
0000
0300
0010
1000
0000
0001
0000
,
0010
0000
0000
0100
0000
0000
0010
0000
0001
0000
0000
1000
0000
0000
0100
0000
,
1000
0000
0010
0000
0100
0001
0010
0000
,
0100
0000
0000
0010
0000
0000
0001
0000
1000
0000
0000
0100
0000
0000
0010
0000
,
0200
0000
0300
0010
0001
0000
0100
0000
,
0120
0030
0100
0010
,
1000
0000
0000
1000
0000
0000
0001
0000
0020
0000
0000
0000
0030
0000
0000
0000
,
0010
0000
0001
0000
0010
0000
0000
0001
0000
0001
0000
0000
1000
0000
0000
0000
,
0001
0000
0100
0000
0001
0000
0000
0100
0000
0010
0000
0000
0100
0000
0000
0000
,
0010
0000
1000
0000
0010
0000
0000
1000
0000
0100
0000
0000
1000
0000
0000
0000
,
0001
0100
0010
1000
0010
0000
1001
0000
,
1000
0000
0100
0000
1000
0000
0000
0100
0000
0010
0000
0000
0100
0000
0000
0000
,
0010
0000
0001
0000
0010
0000
0000
0001
0000
0100
0000
0000
0001
0000
0000
0000
,
0100
0000
0010
0000
0100
0000
0000
0010
0000
1000
0000
0000
0010
0000
0000
0000
,
1000
0010
0100
0001
1000
0000
0110
0000
,
0001
0000
0000
0000
;

//--------------- dance-single - Pandemonium X ----------------
#NOTES:
     dance-single:
     Pandemonium X:
     Hard:
     13:
     0,0,0,0,0:
0000
0000
0000
0000
,
0000
0000
0000
0000
,
0000
0000
0000
0000
0000
0000
0000
0000
0000
0000
0000
0000
0000
0000
0001
1000
,
0001
0000
1000
0001
0000
0000
0001
0000
0100
0000
0000
0100
0000
0000
0100
0000
,
0020
0000
0000
0000
0030
0000
0100
0001
0100
0000
0001
0000
1000
0000
0100
0000
,
0010
0000
0001
0100
0000
0000
0001
0000
0100
0000
0010
1000
0000
0000
0100
0000
,
0010
0001
1000
0001
0101
1100
1001
0000
,
0001
0000
0100
0010
0000
0000
0100
0000
0010
0000
0000
1000
0000
0000
0100
0000
,
2000
0000
0000
0000
3000
0000
0100
0010
0100
0000
0010
0000
0001
0000
1000
0000
,
1010
0000
0000
0000
0000
0000
0010
1000
0001
0000
0010
0100
0000
0000
0010
0001
,
0010
0000
0001
0100
0000
0100
0010
0000
0200
0000
0000
0000
0300
0000
0000
0000
,
0001
0000
0001
0000
0001
0000
0000
0001
0000
0001
0000
1000
0001
0000
0000
0000
,
1000
0000
1000
0000
1000
0000
0000
1000
0000
1000
0000
0001
1000
0000
0001
1000
,
0010
0000
0010
0000
0010
0000
0000
0010
0000
0010
0000
0100
0010
1000
0010
1000
,
0200
0000
0310
0000
0002
0000
0103
0000
0010
0100
0000
0001
0000
2000
0000
0000
,
3010
0000
0010
0000
0010
0000
0000
0010
0000
0010
0000
0100
0010
0000
0000
0000
,
0100
0000
0100
0000
0100
0000
0000
0100
0000
0100
0000
0010
0100
0000
0100
0010
,
1000
0000
1000
0000
1000
0000
0000
1000
0000
1000
0000
0001
1000
0100
1000
0001
,
1000
0100
0001
0010
1000
0000
0002
0000
,
2003
0000
3010
1000
0002
0010
0013
0100
,
1000
0000
0100
0010
0001
0001
1000
0001
,
0100
0000
0001
0000
0100
0010
0010
0200
,
0000
0001
0000
0000
0001
0000
0000
0001
0000
0000
0001
0000
0301
0000
1000
0000
,
2001
0000
3001
0010
0200
0010
0310
0001
,
2000
0000
3100
0010
0002
1000
1003
0001
,
0200
0000
0302
0000
2003
0000
3001
0010
,
1001
0000
0000
0000
1000
0000
0000
0001
0000
0000
1000
0000
0100
0000
0100
0000
,
0012
0000
0103
0000
0010
1000
1001
0000
,
2010
0000
3100
0010
0100
0100
1001
0000
,
1020
0000
0130
0000
0010
0100
0001
0100
,
0002
0010
0000
0000
0010
0000
0000
0010
0000
0000
0010
0000
1003
0100
1000
0100
,
0020
0000
0031
0100
0020
0000
0130
0001
,
1002
0000
0103
0001
0010
0000
0100
0000
,
0021
0130
2010
3100
,
1100
0000
0000
0101
0000
0000
0110
0000
1001
0000
0000
0000
0000
0000
0000
0000
,
0201
0000
0000
0000
1000
0000
0000
0000
0301
0000
1000
0001
0000
0000
0010
0000
,
1000
0000
0010
0000
0001
0000
0100
0000
0010
0000
1000
0001
0000
0000
0010
0000
,
0200
1300
0002
0103
,
0001
0000
0001
1000
0000
0000
0010
0000
0100
0000
0100
0010
0000
0000
0000
0000
,
1020
0000
0000
0000
0001
0000
0000
0000
1030
0000
0001
1000
0000
0000
0100
0000
,
0001
0000
0100
0000
1000
0000
0010
0000
0100
0000
0001
1000
0000
0000
0100
0000
,
0020
0031
2000
3010
,
1000
0000
1000
0010
0000
0000
0101
0000
2001
0000
0000
0000
0000
0000
3001
0010
,
0100
0000
0100
0010
0000
0000
0100
0000
1000
0000
0000
0010
0000
0000
0100
0000
,
0200
0000
0000
0000
0300
0000
0001
1000
0100
0000
0001
0000
0100
0000
1000
0000
,
0001
0000
1000
0001
0000
0000
0100
0000
0001
0000
1000
0001
0000
0000
0010
0000
,
0001
0010
0100
1000
1100
0011
1001
0000
,
1000
0000
0010
0100
0000
0000
0100
0000
0001
0000
0000
0010
0000
0000
0100
0000
,
0020
0000
0000
0000
0030
0000
0001
1000
0100
0000
0001
0000
0100
0000
1000
0000
,
1020
0000
0000
0000
0030
0000
1000
0010
0100
0000
1000
0100
0000
0000
0100
0001
,
1000
0000
1000
0100
0000
0010
0001
0000
2002
0000
0000
0000
3003
0000
0000
0000
,
1000
0000
1000
0000
1000
0000
0000
1000
0000
1000
0000
0001
1000
0000
0000
0000
,
0001
0000
0001
0000
0001
0000
0000
0001
0000
0001
0000
1000
0001
0000
1000
0001
,
0100
0000
0100
0000
0100
0000
0000
0100
0000
0100
0000
0010
0100
0001
0100
0001
,
0020
0000
0130
0000
2000
0000
3010
0000
0100
0010
0000
1000
0000
0002
0000
0000
,
0103
0000
0100
0000
0100
0000
0000
0100
0000
0100
0000
0010
0100
0000
0000
0000
,
0010
0000
0010
0000
0010
0000
0000
0010
0000
0010
0000
0100
0010
0000
0010
0100
,
0001
0000
0001
0000
0001
0000
0000
0001
0000
0001
0000
1000
0001
0010
0001
1000
,
0001
0010
1000
0100
0001
0000
2000
0001
,
3001
0000
0000
0000
;

//--------------- dance-double - Pandemonium X ----------------
#NOTES:
     dance-double:
     Pandemonium X:
     Easy:
     6:
     0,0,0,0,0:
00000000
00000000
00000000
00000000
,
00000000
00000000
00000000
00000000
,
00000000
00000000
00000000
00000000
,
00000000
00000000
00000000
00000000
,
00000000
00000000
00000000
00000000
,
00000000
00000000
00000000
00000000
,
00000000
00000000
00000000
00000000
,
00001000
00000000
00010000
00000000
,
00000200
00000300
00001000
00000010
,
00000200
00000300
00000010
00000000
,
00001010
00000101
00001001
00000000
,
00000001
00001000
00000100
00000100
,
00010000
00001000
01000000
01000000
,
00001000
00010000
00000100
00000100
,
00020000
00031000
00002000
00013000
,
00001000
00010000
00000100
00000100
,
00010000
00001000
01000000
01000000
,
00001000
00010000
00000100
00000100
,
00010000
00001000
01000000
00000000
,
00100000
00000000
10000000
00000000
,
01000000
00100000
00020000
00030000
,
00100000
00001000
00010000
00000100
,
00002000
00000000
00000000
00003000
,
00000010
00000000
00000100
00000000
,
00000001
00000010
00000100
00000000
,
00000010
00000001
00001000
00000100
,
00020000
00000000
00000000
00030000
,
00002000
00003000
02000000
03000000
,
00100000
01000000
00010000
00000000
,
00100000
00001000
00010000
00001000
,
02000000
00000000
00000000
03000000
,
00200000
00300000
20000000
30000000
,
01000000
00100000
00010000
00000000
,
00100000
00001000
00010000
00000100
,
00001100
00000011
00001001
00000000
,
00000001
00000001
00001000
00000100
,
00010000
00001000
01000000
00010000
,
00100000
00100000
00001000
00001000
,
00010000
00000100
00001000
00000010
,
00000100
00000100
00000001
00001000
,
00000100
00000100
00010000
00001000
,
00010000
00000100
00001000
00000010
,
00010000
00001000
00011000
00000000
,
00001000
01000000
00100000
10000000
,
02000000
03000000
00100000
01000000
,
10000000
00010000
00100000
00001000
,
00010000
00000000
00000100
00000000
00001000
00000010
00001000
00000000
,
00000010
00000100
00000001
00001000
,
00000200
00000300
00001000
00000100
,
00020000
00030000
00001000
01000000
,
01010000
10100000
20020000
30030000
,
10000000
00010000
00100000
00100000
,
00001000
00010000
00000010
00000010
,
00010000
00001000
00100000
00100000
,
00002000
00013000
00020000
00031000
,
00010000
00001000
01000000
01000000
,
00001000
00010000
00000100
00000100
,
00010000
00001000
01000000
01000000
,
00001000
00010000
00000100
00000000
,
00001001
00000000
00000000
00000000
;

//--------------- dance-double - Pandemonium X ----------------
#NOTES:
     dance-double:
     Pandemonium X:
     Medium:
     10:
     0,0,0,0,0:
00000000
00000000
00000000
00000000
,
00000000
00000000
00000000
00000000
,
00000000
00000000
00000000
00000000
,
00001000
00000000
00100000
00000000
,
00020000
00030000
00100000
01000000
,
11000000
00000000
01010000
00000000
,
00010000
00000000
00100000
00000000
00001000
00010000
00001000
00000000
,
00010000
00000000
00000100
00000000
,
00002000
00000000
00003000
00000010
00000100
00000000
00000001
00000000
,
00001001
00000000
00000000
00000100
00001000
00000000
00000010
00000000
,
00010000
00000000
00000000
00001000
00000000
00000000
00010000
00000000
00001000
00000000
00000000
00000000
01000000
00000000
00000000
00000000
,
00100000
00000000
10000000
00000000
00100000
00000000
00000000
10000000
00000000
01000000
00000000
00000000
10000000
00000000
00000000
00000000
,
01000000
00000000
00100000
00000000
01000000
00000000
00000000
00100000
00000000
00010000
00000000
00000000
00100000
00000000
00000000
00000000
,
00001000
00000000
00010000
00000000
00001000
00000000
00000000
00010000
00000000
00000100
00000000
00000000
00010000
00000000
00000000
00000000
,
00000100
00001000
00000010
00000000
00000100
00000001
00000010
00000000
,
00000100
00000000
00000010
00000000
00000100
00000000
00000000
00000010
00000000
00000001
00000000
00000000
00000010
00000000
00000000
00000000
,
00000001
00000000
00000100
00000000
00000001
00000000
00000000
00000100
00000000
00000010
00000000
00000000
00000100
00000000
00000000
00000000
,
00000010
00000000
00001000
00000000
00000010
00000000
00000000
00001000
00000000
00000100
00000000
00000000
00001000
00000000
00000000
00000000
,
00000100
00010000
00001000
01000000
00100000
00000000
00000000
00000000
,
20000000
00000000
00000000
01000000
02000000
00000000
33000000
00010000
,
01000000
00000000
00010000
00100000
00002000
00000000
00003000
00010000
,
00000100
00000000
00001000
00000000
00000010
00000000
00000100
00000002
,
00000010
00000000
00000000
00001003
,
00000002
00000000
00000000
00001000
00002000
00000000
00003003
00000100
,
00001000
00000000
00000100
00010000
00000100
00000000
00000000
00010000
,
00001000
00000000
01000000
00000000
00100000
00000000
10000000
02000000
,
00100000
00000000
00000000
13000000
,
00110000
00000000
00100000
00001000
00100000
00000000
00001000
00000000
,
00010000
00000000
00000010
00001000
00000010
00000000
00000100
00000000
,
00000001
00000000
00001000
00000000
00000100
00001000
00000100
00010000
,
00001000
00001000
00010000
00011000
,
00001000
00000000
01000000
00100000
01000000
00000000
00010000
00000000
,
10000000
00000000
01000000
00100000
01000000
00000000
00100000
00000000
,
00110000
00001000
00011000
00000100
,
00001000
00000000
00000000
00000010
00000000
00000000
00000100
00000000
00000001
00000000
00000000
00000000
00000000
00000000
00000000
00000000
,
00001000
00000000
00000000
00000000
00000001
00000000
00000000
00000000
00000100
00000000
00000000
00000100
00000000
00000000
00000000
00000000
,
00000010
00000000
00000000
00000000
00001000
00000000
00000000
00000000
00000100
00000000
00000000
00000100
00000000
00000000
00000000
00000000
,
00010000
00001000
01000000
00010000
,
00100000
00000000
00000000
00100000
00000000
00000000
00000000
00000000
01000000
00000000
00000000
01000000
00000000
00000000
00000000
00000000
,
11000000
00000000
00000000
00000000
00110000
00000000
00000000
00000000
00010000
00000000
00000000
01000000
00000000
00000000
00000000
00000000
,
00001000
00000000
00000000
00000000
00010000
00000000
00000000
00000000
00000100
00000000
00000000
00001000
00000000
00000000
00000000
00000000
,
00000010
00000100
00000001
00000010
,
00000100
00000000
00000000
00001000
00000000
00000000
00000010
00000000
00010000
00000000
00000000
00000000
00000000
00000000
00001000
00000000
,
01000000
00000000
00000000
01000000
00000000
00000000
01000000
00000000
00100000
00000000
00000000
00100000
00000000
00000000
00100000
00000000
,
20000000
00000000
30000000
00010000
00100000
00000000
01000000
00000000
,
00100000
00000000
00000000
00100000
00000000
00000000
00000000
00000000
00001000
00000000
00000000
00001000
00000000
00000000
00000000
00000000
,
00010000
00000000
00000100
00000000
00001000
00001000
00001000
00000000
,
00000010
00000000
00000000
00000100
00000000
00000000
00000000
00000000
00000001
00000000
00000000
00000010
00000000
00000000
00000100
00000000
,
00002000
00000000
00003000
00000100
00010000
00001000
01000000
00000000
,
01001000
00000000
00000000
01000000
00001000
00000000
00010000
00000000
,
00000100
00000000
00000000
00010000
00000000
00000000
00001000
00000000
01000000
00000000
00000000
00000000
01001000
00000000
00000000
00000000
,
00001000
00000000
00010000
00000000
00001000
00000000
00000000
00010000
00000000
00000100
00000000
00000000
00010000
00000000
00000000
00000000
,
00000100
00000000
00001000
00000000
00000100
00000000
00000000
00001000
00000000
00000010
00000000
00000000
00001000
00000000
00000000
00000000
,
00000010
00000000
00000100
00000000
00000010
00000000
00000000
00000100
00000000
00000001
00000000
00000000
00000100
00000000
00000000
00000000
,
00000001
00000010
00000100
00000000
00000010
00000100
00001000
00000000
,
00000100
00000000
00010000
00000000
00000100
00000000
00000000
00010000
00000000
00001000
00000000
00000000
00010000
00000000
00000000
00000000
,
00001000
00000000
01000000
00000000
00001000
00000000
00000000
01000000
00000000
00100000
00000000
00000000
01000000
00000000
00000000
00000000
,
00100000
00000000
10000000
00000000
00100000
00000000
00000000
10000000
00000000
00010000
00000000
00000000
10000000
00000000
00000000
00000000
,
10000000
01000000
00100000
00010000
00001000
00000000
00000000
00000000
,
00011000
00000000
00000000
00000000
;

//--------------- dance-double - Pandemonium X ----------------
#NOTES:
     dance-double:
     Pandemonium X:
     Hard:
     13:
     0,0,0,0,0:
00000000
00000000
00000000
00000000
,
00000000
00000000
00000000
00000000
,
00000000
00000000
00000000
00000000
00000000
00000000
00000000
00000000
00000000
00000000
00000000
00000000
00000000
00000000
00010000
00001000
,
00010000
00000000
00000100
00001000
00000000
00000000
00000010
00000000
00000200
00000000
00000000
00000001
00000000
00000000
00000310
00000000
,
00002000
00000000
00000000
00000000
00000000
00000000
00003100
00010000
00001000
00000000
00100000
00000000
00001000
00000000
00010000
00000000
,
00001000
00000000
01000000
00100000
00000000
00000000
01000000
00000000
00001000
00000000
00010000
00001000
00000000
00000000
00010000
00000000
,
00000100
00001000
00000010
00000001
00000010
00000100
00001001
00000000
,
00001100
00000000
00000100
00010000
00000000
00000000
00001000
00000000
02000000
00000000
00000000
00010000
00000000
00000000
03100000
00000000
,
20000000
00000000
00000000
00000000
30000000
00000000
01000000
00100000
00010000
00000000
00100000
00000000
00001000
00000000
00010000
00000000
,
00012000
00000000
00000000
00000000
00003000
00000000
00010000
00000100
00001000
00000000
00000010
00000100
00000000
00000000
00000010
00000100
,
00000001
00000000
00001000
00000010
00000000
00000010
00000001
00000000
00002001
00000000
00000000
00000000
00003100
00000000
00000000
00000000
,
00010000
00000000
00010000
00000000
00010000
00000000
00000000
00001000
00000000
00001000
00000000
00001000
01000000
00000000
00000000
00000000
,
00100000
00000000
00100000
00000000
00100000
00000000
00000000
10000000
00000000
10000000
00000000
10000000
01000000
00000000
01000000
00100000
,
00010000
00000000
00010000
00000000
00010000
00000000
00000000
00100000
00000000
00100000
00000000
00100000
00001000
00010000
00001000
00010000
,
00000200
00000000
00001300
00000000
00002000
00000000
00003010
00000000
00000100
00000002
00000000
00000023
00000000
00002030
00000000
00000000
,
00003010
00000000
00000010
00000000
00000010
00000000
00000000
00000001
00000000
00000001
00000000
00000001
00001000
00000000
00000000
00000000
,
00000100
00000000
00000100
00000000
00000100
00000000
00000000
00010000
00000000
00010000
00000000
00010000
00001000
00000000
00001000
01000000
,
00100000
00000000
00100000
00000000
00100000
00000000
00000000
01000000
00000000
01000000
00000000
01000000
00100000
10000000
00100000
10000000
,
02000000
03200000
00320000
00032000
00003200
00000300
00000011
00000000
,
00002001
00000000
00003100
00010000
00002000
01000000
01003000
00010000
,
00100000
00000000
00010000
00100000
01000000
01000000
00100000
00000000
,
00200000
00000000
00320000
00000000
00032000
00000000
00003200
00000320
,
00000000
00000001
00000000
00000000
00000100
00000000
00000000
00000001
00000000
00000000
00000130
00000000
00000110
00000000
00000000
00000000
,
00001002
00000000
00000103
00000001
00000020
00000100
00000130
00000010
,
00000001
00000000
00000100
00001000
00020000
00001000
00031000
00010000
,
00001000
00000000
01000000
00000000
00100000
00000000
00010000
00200000
,
10000000
00000000
00000000
00000000
01000000
00000000
00000000
00000000
10000000
00000000
00000000
00000000
01300000
00010000
01000000
00010000
,
00200000
00000000
01300000
10000000
20010000
00000000
30010000
00100000
,
00102000
00000000
00010000
00013000
00000200
00001000
00001300
00000100
,
00000020
00000000
00000031
00000000
00000020
00002030
00003020
00000032
,
00000000
00000100
00000000
00000000
00000100
00000000
00000000
00000010
00000000
00000000
00001003
00000000
00000010
00001000
00000010
00001000
,
00000200
00000000
00010300
00001000
02001000
00000000
03100000
10000000
,
20010000
00000000
30010000
00100000
01000000
01000000
01000000
00100000
,
00110000
00000000
00110000
00000000
00011000
00010000
00000100
00001000
,
00001010
00000000
00000000
00010010
00000000
00000000
00011000
00000000
00101000
00000000
00000000
00000000
00000000
00000000
00000000
00000000
,
00102000
00000000
00000000
00000000
00023000
00000000
00000000
00000000
00030010
00000000
00010000
00001000
00000000
00000000
00001000
00000000
,
01000000
00000000
00100000
00000000
10000000
00000000
01000000
00000000
00100000
00000000
00001000
00010000
00000000
00000000
00001000
00000000
,
00001200
00010300
01002000
00013000
,
00011000
00000000
00001000
00010000
00000000
00000000
00011000
00000000
00011000
00000000
00010000
00001000
00000000
00000000
00000000
00000000
,
00210000
00000000
00000000
00000000
00301000
00000000
00000000
00010000
00000100
00000000
00000100
00001000
00000000
00000000
00001000
00000000
,
00000001
00000000
00000010
00000000
00000100
00000000
00010000
00000000
00001000
00000000
00010000
00000100
00000000
00000000
00010000
00000000
,
00012000
01003000
00021000
00030100
,
00011000
00000000
00001000
01000000
00000000
00000000
01100000
00000000
10010000
00000000
00000000
00000000
00010000
00100000
00010000
00100000
,
01000000
00000000
10000000
01000000
00000000
00000000
00100000
00000000
00010000
00000000
00000000
00001000
00000000
00000000
00000100
00000000
,
00000020
00000000
00000000
00000000
00000030
00000000
00000001
00000100
00000010
00000000
00000001
00000000
00000010
00000000
00001000
00000000
,
00000001
00000000
00001000
00000010
00000000
00000000
00000100
00000000
00000001
00000000
00001000
00000100
00000000
00000000
00001000
00000000
,
00000100
00010000
00001000
01000000
01010000
00110000
10010000
00000000
,
10000000
00000000
00010000
00100000
00000000
00000000
01000000
00000000
00100000
00000000
00000000
00001000
00000000
00000000
00010000
00000000
,
00000200
00000000
00000000
00000000
00000300
00000000
00001000
00000010
00000100
00000000
00001000
00000000
00000100
00000000
00000001
00000000
,
00002000
00000000
00000000
00000000
00003000
00000000
00000100
00010000
00001000
00000000
00010000
00001000
00000000
00010000
00001000
01000000
,
00100000
00000000
00100000
00010000
00000000
00100000
10000000
00000000
10020000
00000000
00000000
00000000
00130000
00000000
00000000
00000000
,
01000000
00000000
01000000
00000000
01000000
00000000
00000000
10000000
00000000
10000000
00000000
10000000
00010000
00000000
00000000
00000000
,
00100000
00000000
00100000
00000000
00100000
00000000
00000000
00010000
00000000
00010000
00000000
00100000
00010000
00000000
00100000
00001000
,
00010000
00000000
00010000
00000000
00010000
00000000
00000000
00001000
00000000
00001000
00000000
00001000
00010000
00000100
00010000
00000100
,
00002000
00000000
00003010
00000000
00000200
00000000
00000301
00000000
00000010
00002000
00000000
00003020
00000000
00000032
00000000
00000000
,
00001003
00000000
00001000
00000000
00001000
00000000
00000000
00000100
00000000
00000100
00000000
00000100
00010000
00000000
00000000
00000000
,
00001000
00000000
00001000
00000000
00001000
00000000
00000000
00010000
00000000
00010000
00000000
00010000
00001000
00000000
00001000
01000000
,
00100000
00000000
00100000
00000000
00100000
00000000
00000000
01000000
00000000
01000000
00000000
01000000
00100000
10000000
00100000
10000000
,
00010000
00100000
00001000
00010000
00000010
00000000
00000100
00000010
,
00001001
00000000
00000000
00000000
;
