#TITLE:LOUDER ROLLING THUNDER;
#SUBTITLE:;
#ARTIST:BEMANI Sound Team "Dustup Vs. L.E.D.-G";
#TITLETRANSLIT:;
#SUBTITLETRANSLIT:;
#ARTISTTRANSLIT:;
#GENRE:;
#CREDIT:;
#MUSIC:LOUDER ROLLING THUNDER.ogg;
#BANNER:LOUDER ROLLING THUNDER.png;
#BACKGROUND:LOUDER ROLLING THUNDER-bg.png;
#CDTITLE:cdtitle.png;
#SAMPLESTART:57.466;
#SAMPLELENGTH:10.667;
#SELECTABLE:YES;
#OFFSET:-0.132;
#BPMS:0.000=180.000;
#STOPS:;
#ORIGIN:;
#TAGS:;
#PREVIEWVID:;
#JACKET:LOUDER ROLLING THUNDER-jacket.png;
#CDIMAGE:;
#DISCIMAGE:;
#BGCHANGES:0.000=LOUDER ROLLING THUNDER-bg.png=1.000=0=0=1,
4.000=LOUDER ROLLING THUNDER.mp4=1.000=0=0=1,
99999.000=-nosongbg-=1.000=0=0=0=StretchNoLoop====
;
#FGCHANGES:;

//--------------- dance-single - ----------------
#NOTES:
     dance-single:
     :
     Beginner:
     6:
     0.213713,0.423297,0.229498,0.118999,0,176,149,27,14,0,0,0,0,0,0.213713,0.423297,0.229498,0.118999,0,176,149,27,14,0,0,0,0,0:
0000
0000
0000
0000
,
0000
0000
0000
0000
,
0000
0000
0000
0000
,
0000
0000
0000
0000
,
0000
0000
0000
0000
,
0000
0000
0000
0000
,
0000
0000
0000
0000
,
0000
0000
0000
0000
,
0000
0000
0000
0000
,
1001
0000
0000
0000
,
0110
0000
0000
0000
,
1010
0000
0000
0000
,
0101
0000
0000
0000
,
0001
0000
0001
0000
,
1000
0000
1000
0000
,
0010
0010
0100
0100
,
0001
2000
3200
0300
,
0000
0000
0000
0000
,
0000
0000
0010
1001
,
0001
1100
0000
0000
,
1000
0000
0000
0000
,
0001
0100
0000
0000
,
0010
0000
0000
0100
,
0101
0001
0000
0000
,
1000
0000
0000
0010
,
1001
0100
0000
0000
,
0001
0000
1000
0010
,
0100
0001
0100
0000
,
0010
1000
0010
0000
,
1000
0001
1000
0000
,
1001
0000
0110
0000
,
0001
1000
0010
0000
,
1000
0001
0010
0000
,
0200
0000
0000
0000
,
0310
0000
0001
1000
,
1001
0000
0000
0000
,
0000
0000
0000
0000
,
0000
0000
0000
0000
,
0000
0000
0000
0000
,
0001
0000
0100
0000
,
0010
0000
1000
0000
,
1001
0000
0001
0000
,
1000
0001
1000
0000
,
1000
0001
0100
0000
,
0001
0001
0001
0001
,
1000
0000
0001
0000
,
0010
0010
0020
0000
,
0130
0000
1000
0000
,
0100
0100
0100
0100
,
1001
0000
0110
0000
,
1001
0000
0110
0110
,
0110
0000
0002
0003
,
2000
3000
0002
0003
,
0110
0000
2000
3000
,
0002
0003
1000
0001
,
0110
0000
2000
3000
,
0002
0003
2000
3000
,
0110
0000
1001
0000
,
0110
0000
0001
0000
,
1010
0000
0000
0000
,
0000
0000
0000
0000
,
0000
0000
0000
0000
,
0000
0000
0000
0000
,
0101
0000
0000
0000
,
0001
0000
0000
0000
,
1000
0000
0000
0000
,
0100
0000
0000
0000
,
0000
0000
0010
0000
0000
0010
0000
0000
,
0010
0000
0000
0010
0000
0000
0010
0000
,
0000
0000
0100
0000
0000
0100
0000
0000
,
0100
0000
0000
0100
0000
0000
0100
0000
,
0000
0000
1000
0000
0000
1000
0000
0000
,
1000
0001
0001
1000
,
0000
0000
0001
0000
0000
1000
0000
0000
,
0220
0000
0330
0000
,
1000
1000
1000
0000
,
0001
0000
0000
0000
,
0100
0000
0010
0000
,
1000
0000
0000
1000
0000
0000
1000
0000
,
0001
0001
0010
0000
,
0001
0000
0100
0000
,
0010
0000
0000
0010
0000
0000
0000
0000
,
0100
0010
1000
0001
,
0110
0000
0000
0000
;

//--------------- dance-single - ----------------
#NOTES:
     dance-single:
     :
     Easy:
     10:
     0.449282,0.601476,0.620495,0.195498,0.02975,370,297,73,23,0,0,0,0,0,0.449282,0.601476,0.620495,0.195498,0.02975,370,297,73,23,0,0,0,0,0:
0000
0000
0000
0000
,
0000
0000
0000
0000
,
0000
0000
0000
0000
,
0000
0000
0000
0000
,
0000
0000
0000
0000
,
1000
0100
1000
0010
,
1000
0001
0010
0001
,
0100
1000
0100
0010
,
1000
0001
0010
0100
,
1001
0000
1000
0001
1000
0000
0001
0000
,
0101
0000
1000
0010
1000
0000
0001
0000
,
1000
0001
0000
0001
0010
0000
0010
0100
,
0000
0100
1000
0000
0100
0020
0000
0030
,
0110
0001
0110
1000
,
1001
0010
1001
0100
,
0101
0101
1010
1010
,
1001
0000
1000
0100
0001
0000
1100
0000
,
1000
1000
1000
1000
,
1000
0000
1000
0000
1000
0001
0110
0000
,
1002
0103
0001
0010
,
0001
0000
1000
0000
0100
0000
0010
0100
,
2000
3001
0100
0001
,
0010
0000
0001
0000
1000
0000
0001
0100
,
0110
0100
0010
1000
,
0001
0000
0010
0000
0100
0000
1000
0100
,
0001
0000
0100
1000
0010
0000
0100
0000
,
0001
1000
0010
0000
0010
1000
0001
0000
,
0011
0000
0010
0000
0100
0000
1000
0010
,
0100
0000
0001
0000
0010
0000
0001
1000
,
0100
0000
1000
0000
0010
0000
0100
0001
,
0010
0000
0000
0000
0000
0000
0000
0000
0100
0000
0000
0010
0000
0000
0001
0000
,
1000
0001
0100
0000
0001
0000
1000
0000
,
0100
1000
0010
0000
0100
0000
0001
0000
,
1000
0100
0010
0001
1000
0100
0010
0001
,
1000
0000
0000
0000
0001
0000
0000
0000
0100
0000
0000
0010
0000
0000
1000
0000
,
2002
0000
0000
0000
,
0000
0000
0000
0000
,
0000
0000
0000
0000
,
3003
0000
0000
0000
,
0001
0100
0010
1000
,
0001
0001
1000
1000
,
1001
0001
1000
0010
,
0110
0100
0110
0010
,
1001
0001
0100
0010
,
2010
0100
0010
3100
,
0010
1000
0001
0010
,
0011
1010
0011
1010
,
1001
0001
1000
0010
,
0102
0010
0100
0013
,
2001
3100
1002
0013
,
1001
0000
0000
0101
0000
0000
1000
0000
0010
0000
0100
0000
,
0202
0303
0101
1010
,
0101
1010
0101
1010
,
1001
0000
1100
0000
,
0101
1010
1001
1010
,
2002
3003
1100
0011
,
1100
0011
1100
0011
,
2001
3100
1002
0013
,
0021
0000
0000
0230
0000
0000
0310
0000
0001
0000
1000
0000
,
1001
0000
0000
0000
,
0000
0000
0000
0000
,
0000
0000
0000
0000
,
0000
0000
0000
0000
,
0110
0001
1000
0010
,
1000
0001
0010
0001
,
1000
0010
1000
0100
,
1000
0001
0100
0010
,
1001
0000
1100
0000
0000
0100
0000
0000
,
0010
0000
0000
0001
0000
0000
0101
0000
,
0000
0000
0001
0000
0000
1000
0000
0000
,
0010
0000
0000
1000
0000
0000
0100
0000
,
1000
0000
1001
0000
0000
0101
0000
0000
,
1010
0000
0010
1000
0001
0000
1000
0000
,
0001
0000
0011
0000
0000
1100
0000
0000
,
2002
0000
3003
0000
,
0101
0101
1010
0000
,
1000
0001
0000
0001
0010
0000
0000
0000
,
0010
0000
0100
0000
1000
0000
0000
0000
0100
0000
0000
1000
0000
0000
0001
0000
,
1000
0000
0000
1001
0000
0000
1100
0000
,
1001
0000
0100
0001
0000
0000
0001
0000
,
0010
0100
0000
0100
1000
0000
0001
0000
,
0001
0200
0000
0310
2000
0000
3001
0000
,
1000
0000
0100
0010
0001
0000
1000
0000
,
0220
0330
0000
0000
;

//--------------- dance-single - ----------------
#NOTES:
     dance-single:
     :
     Medium:
     13:
     0.591352,0.743,0.543996,0.492996,0.318747,487,423,64,58,0,0,0,0,0,0.591352,0.743,0.543996,0.492996,0.318747,487,423,64,58,0,0,0,0,0:
0000
0000
0000
0000
,
0000
0000
0000
0000
,
0000
0000
0000
0000
,
0000
0000
0000
0000
,
0000
0000
0000
0000
,
0001
0100
0010
0000
1000
0000
0001
0000
,
0010
0100
1000
0000
0001
0000
1000
0000
,
0001
0100
0010
0000
1000
0000
0001
0000
,
0010
0100
1000
0000
0100
0000
1000
0000
,
1001
0000
0001
0100
0000
0010
1000
0000
,
1001
0000
1000
0100
0000
0010
0001
0000
,
0001
0100
0000
0100
1000
0000
1000
0100
,
0000
0100
0001
0000
1000
0002
0000
0003
,
0011
0010
0110
0100
,
1100
1000
1010
0010
,
1001
0110
1001
0110
,
1001
0000
0000
0000
0001
0100
0001
0100
0002
0000
0000
0000
1003
0000
0000
0000
,
0100
0100
0100
0100
,
0100
0100
0100
1001
,
1020
0000
0130
0001
0010
0000
0100
1000
,
0001
0000
1000
0001
0100
0000
0001
0010
,
2000
0000
3010
0001
1000
0000
0100
1000
,
0010
0000
0000
0000
0100
0000
0001
0000
0010
0000
0000
0000
0100
1000
0100
1000
,
0002
0000
0103
0001
1000
0000
0100
1000
,
0010
0000
0100
0001
0010
0000
0100
0010
,
2100
0000
0000
0000
3001
0100
0001
0000
1000
0000
0100
0000
1000
0000
0010
0000
,
0100
0000
0001
0100
0001
0000
0100
0000
0010
0000
1000
0001
1000
0000
0001
0000
,
0010
0100
0010
0000
0100
0000
1000
0000
0001
0000
0100
0000
0010
0000
0000
0000
,
0100
0010
0100
0000
0010
0000
0100
0000
0001
0000
1000
0000
0010
0000
1000
0000
,
0001
0010
0001
0000
1000
0000
0001
0000
0100
0000
0001
0000
1000
0000
0000
0000
,
0100
1000
0100
0000
1000
0000
0001
0000
0100
0000
0001
0010
0000
0010
0100
0000
,
1000
0100
1000
0000
0100
0000
0010
0000
0001
0000
1000
0000
0010
0000
0000
0000
,
1000
0010
1000
0000
0010
0000
0100
0000
0001
0000
0010
0000
0100
0000
0000
0000
,
1000
1000
0001
0001
1000
1000
0001
0001
,
1001
0000
0000
0000
0001
0000
0010
0000
0100
0000
0100
1000
0000
1000
0010
0000
,
0101
0000
0000
0000
,
0000
0000
0000
0000
,
0000
0000
0000
0000
,
0000
0000
0000
0000
,
0001
0100
0010
1000
,
1001
0011
1001
1010
,
1001
0000
0001
0100
0010
1000
0001
0000
0000
0001
0000
0001
,
1000
1100
0011
1100
,
1001
0000
0000
1000
0001
0100
0001
0000
0000
0101
0000
0000
,
0011
0110
1100
0110
,
1001
1010
0101
1010
,
1001
0000
0001
1000
0000
1000
0001
0000
0001
1000
0000
1000
,
0001
0011
0101
1010
,
1001
0110
1001
0110
,
0101
0000
0000
0001
0100
0010
1000
0000
0000
1000
0010
0100
,
0001
0000
0000
0001
0100
0010
1000
0000
1000
0000
1000
0000
,
1002
0000
0000
0203
0000
0000
0320
2030
3002
0203
0320
0030
,
0200
0320
2030
3002
0203
0300
0020
2030
3002
0203
0000
0000
,
0302
0000
0000
0000
0000
0000
2003
3200
0320
0032
2003
3000
,
0002
0023
0230
2300
3002
0003
1100
0000
0011
0000
1100
0000
,
2001
0000
0000
3010
0000
0000
0200
0320
2030
3002
0203
0300
,
0020
2030
3002
0203
0320
0030
0200
0320
2030
3002
0003
0000
,
2100
3010
0102
0013
,
1001
0000
0001
0100
0000
0010
1000
0000
1000
0000
1000
0000
,
1001
0000
0000
0000
,
0000
0000
0000
0000
,
0000
0000
0000
0000
,
0000
0000
0000
0000
,
1001
0001
1000
0010
,
1000
0001
0010
0001
,
1000
0100
1000
0001
,
0100
0001
1000
0001
,
1001
0000
1001
0000
0001
0100
0000
0100
,
0010
0000
1000
0100
0000
0010
0001
0000
,
1001
0000
0101
0000
0001
1000
0000
0100
,
0010
0000
0100
1000
0000
0010
0100
0001
,
0010
0000
0100
0000
1000
0010
0000
0100
,
0001
0000
0010
0100
0100
0010
0001
0000
,
1000
0000
0001
0100
0010
1000
0001
0000
,
0010
0100
2000
0002
0000
0000
0000
0000
0000
3003
0000
0000
,
0101
0000
0011
0000
1001
1000
0100
1000
,
0001
0000
0000
0001
0000
0000
0001
0000
0100
0000
0010
0000
0010
0000
0000
0000
,
0100
0001
0010
0000
0100
1000
0010
0000
,
0100
0010
1000
0001
0010
1000
0010
0001
,
0101
0000
0101
0000
0011
0010
0100
1000
,
0001
0200
0000
0310
2000
0000
3001
0000
,
1000
0200
0000
1300
0200
0000
0310
0001
,
1000
0000
0000
0000
0001
0010
0001
0010
0001
0000
0000
0000
1000
0000
0000
0000
,
0220
0330
0000
0000
;

//--------------- dance-single - ----------------
#NOTES:
     dance-single:
     :
     Hard:
     15:
     0.700637,0.955286,0.501496,0.246498,0.556746,577,518,59,29,0,0,0,0,0,0.700637,0.955286,0.501496,0.246498,0.556746,577,518,59,29,0,0,0,0,0:
0000
0000
0000
0000
,
0000
0000
0000
0000
,
0000
0000
0000
0000
,
0000
0000
0000
0000
,
0000
0000
0000
0000
,
0001
0100
0001
0000
0100
0000
0010
0000
,
1000
0100
1000
0000
0100
0000
0010
0000
,
0001
0010
0001
0000
0100
0000
0010
0000
,
1000
0010
0100
0001
0010
0100
1000
0001
,
1001
0000
0001
0001
1000
0000
1010
0000
,
0101
0000
0100
0100
0010
0000
0110
0000
,
1010
0000
1000
1000
0100
0000
0011
0000
,
1100
0000
0100
0010
0001
0100
1000
0000
,
1100
0101
1001
0011
,
1001
1010
0011
1010
,
0001
0100
0010
1000
0001
0010
0100
1000
,
0001
0000
0000
0000
1000
0001
1000
0001
2000
0000
0000
0000
3010
0000
0000
0000
,
0101
0100
0100
0100
,
0100
0000
0000
0000
0100
0000
0000
0000
0100
0010
1000
0000
1001
0000
0000
0000
,
0012
0000
1003
0100
1000
0010
0100
0001
,
0010
0100
0010
0001
0100
0010
1000
0001
,
0020
0000
0130
0001
0100
0010
0001
0010
,
0100
0000
1000
0000
0100
0000
1000
0000
0100
0000
0010
0000
0001
1000
0001
1000
,
0020
0000
1030
0100
0010
0100
1000
0010
,
0100
0000
1000
0000
0100
0000
0010
0000
1000
0000
0001
0000
1000
0010
1000
0010
,
0200
0000
0300
0000
0010
1000
0010
0100
0001
0000
0001
0000
1000
0000
1000
0000
,
0010
0100
0001
0000
0001
0000
0001
1000
0100
0000
0100
0000
0100
1000
0010
0000
,
1000
0010
1000
0000
0010
0100
0010
0000
0100
0000
0000
0001
1000
0000
0100
0000
,
0010
0001
0010
0000
0001
0100
0001
0000
1000
0000
0000
0100
1000
0000
0001
0000
,
0010
0100
0010
0000
0100
1000
0100
0000
1000
0000
0000
0010
0100
0000
0010
0000
,
1000
0001
1000
0000
0001
0100
0001
0000
0200
0000
0000
0302
0000
0000
0023
0000
,
0130
1000
0010
0000
0100
0001
0010
0000
0100
0000
0000
0010
0001
0000
1000
0000
,
0001
1000
0100
0000
1000
0001
0100
0000
0001
0000
0000
0010
0001
0000
1000
0000
,
0001
0100
0001
0100
0010
1000
0010
1000
0001
1000
0001
1000
0010
0100
0010
0100
,
0001
0000
0000
0000
0010
0000
0100
0000
1000
0000
1000
0100
0000
0010
0001
2000
,
0002
0000
0000
0000
,
0000
0000
0000
0000
,
0000
0000
0000
0000
,
0000
0000
0000
3003
,
0001
0100
1000
0010
,
0002
0103
0020
1030
,
1000
0010
0001
0100
,
2000
3010
0200
0301
,
2100
0000
0000
3010
0100
0001
0010
0000
0000
1001
0000
1000
,
0100
0000
0000
0011
0000
0000
0101
0000
0100
0001
0000
0001
,
1000
0000
0000
0001
0100
0010
1000
0100
0010
0100
1000
0001
,
0100
0000
0100
0010
0000
0010
0100
0000
0100
0010
0000
0010
,
1000
0000
0000
1000
0001
0010
0100
0010
0001
0100
0010
1000
,
0100
0000
0000
1100
0000
0100
1000
0000
1000
0100
0000
0010
,
0001
0100
0010
1000
0001
0010
0100
0010
0001
0100
0010
1000
,
0100
0000
0000
0010
0001
0100
0010
0000
0110
0000
0100
0000
,
0110
0000
0000
2001
0000
0000
3001
0001
1000
0001
0001
0000
,
1000
1000
0001
1000
1000
0000
0001
0001
1000
0020
0000
0000
,
0130
0010
1000
0010
0100
0001
1000
1000
0001
1000
0000
0000
,
0001
0001
1000
0001
0001
0000
1010
0000
0101
0000
1010
0000
,
1001
0000
0000
0110
0000
0000
0010
0010
0100
0010
0010
0000
,
0100
0100
0010
0100
0100
0000
0010
0010
0100
0010
0010
0000
,
1002
0000
0000
0103
0000
0000
0001
0010
0100
2000
0000
0000
,
3010
0000
0000
0000
0000
0000
1001
0000
1100
0000
0011
0000
,
1010
0000
0000
0000
,
0000
0000
0000
0000
,
0000
0000
0000
0000
,
0000
0000
0000
0000
,
1001
0001
0010
0100
,
0010
0001
0100
0010
,
1000
0001
0010
1000
,
0010
0000
0001
0000
0100
0010
1000
0000
,
0001
0000
0000
0000
1001
0000
1000
0001
0010
0000
0100
0000
1000
0010
0100
0000
,
0001
0000
0010
0100
0010
0000
0001
0000
0010
0100
1000
0000
1001
0000
0000
0000
,
1020
0000
0000
0000
0130
0000
0010
1000
0001
0000
0010
0000
0100
0010
0001
0000
,
0010
0000
0100
1000
0010
0000
0100
0000
0010
1000
0001
0000
2000
0000
0000
0000
,
3100
0000
0000
0000
0011
0000
0010
0001
0100
0000
0010
0000
0100
0001
1000
0000
,
0100
0000
1000
0010
0100
0000
0010
0000
0010
0000
0010
0000
2000
0000
0000
0000
,
3001
0000
0001
0000
1001
0000
1000
0001
0010
0000
0011
0000
0001
0000
0000
0000
,
0100
0010
2000
0002
0000
0000
0000
0000
0000
3003
0000
0000
,
1100
0000
0000
0000
0101
0000
0000
0000
1001
0000
1000
0100
0010
0000
0010
0000
,
0110
0000
0000
0000
1100
0000
0000
0000
1010
0000
0000
0000
1000
0001
1000
0000
,
1001
0000
0001
0000
0011
0000
0000
0000
0101
0000
0001
0010
0100
0000
0010
0000
,
0011
0000
0101
1020
0000
0130
0102
0000
,
0013
0000
0010
0000
0100
0000
0100
0000
1100
0000
0100
0010
0001
0000
1000
0000
,
1001
0001
0100
0010
0001
0010
0100
0001
,
2000
0100
0000
0010
0010
0000
0001
3001
,
1001
0000
0000
0000
0001
1000
0001
1000
0002
0000
0000
0000
0103
0010
0100
0010
,
0200
0300
0000
0000
;

//--------------- dance-single - ----------------
#NOTES:
     dance-single:
     :
     Challenge:
     17:
     0.831779,1.132191,0.671495,0.756494,1.058241,685,606,79,89,0,0,4,0,0,0.831779,1.132191,0.671495,0.756494,1.058241,685,606,79,89,0,0,4,0,0:
0000
0000
0000
0000
,
0000
0000
0000
0000
,
0000
0000
0000
0000
,
0000
0000
0000
0000
,
0000
0000
0000
0000
,
1000
0010
0100
0001
0100
0010
1000
0001
,
1000
0010
0100
0001
1000
0100
0010
0001
,
1000
0010
0100
0001
0010
0100
0010
0001
,
0100
0010
1000
0100
0010
0001
0000
0000
,
1001
0000
0000
0000
0000
0000
0000
0000
0000
0000
0000
0000
0001
0000
0000
0000
0000
0000
0200
0300
0000
0000
0000
0000
0000
0000
0000
0000
0000
0000
0200
0300
0000
0000
0000
0000
1000
0000
0000
0000
0000
0000
0000
0000
0000
0000
0000
0000
,
1001
0000
0000
0000
0000
0000
0000
0000
0000
0000
0000
0000
1000
0000
0000
0000
0000
0000
0020
0030
0000
0000
0000
0000
0000
0000
0000
0000
0000
0000
0020
0030
0000
0000
0000
0000
0001
0000
0000
0000
0000
0000
0000
0000
0000
0000
0000
0000
,
1001
0000
0000
0000
0000
0000
1000
0000
0000
0000
0000
0000
0000
0000
0000
0000
0000
0000
0001
0000
0000
0000
0000
0000
0020
0030
0000
0000
0000
0000
0000
0000
0000
0000
0000
0000
0020
0030
0000
0000
0000
0000
1000
0000
0000
0000
0000
0000
,
0000
0000
0000
0000
1000
0000
0000
0000
0200
0300
0000
0000
0000
0000
0000
0000
0200
0300
0000
0000
0001
0000
0000
0000
0000
0000
0000
0000
1000
0000
0000
0000
,
1001
0001
0101
1000
,
0110
0001
1010
1000
,
1001
1001
0110
0110
,
2001
0000
0000
0000
3001
1000
0001
0100
0020
0000
1030
0001
1001
0000
0000
0000
,
0001
0001
1000
1000
,
0010
0000
0000
0000
0100
0000
0000
0000
0001
1000
0001
0000
0101
0000
0000
0000
,
1020
0000
0000
0000
0130
0001
0100
0000
0001
0010
0001
0000
0010
0100
0010
0000
,
0100
1000
0100
0000
1000
0001
1000
0000
0001
0100
0001
0000
1000
0010
1000
0000
,
0002
0000
0000
0000
0013
0100
0010
0000
0100
1000
0100
0000
1000
0010
1000
0000
,
0001
1000
0001
0000
0010
0100
0010
0000
0100
1000
0100
0000
2000
3020
0230
0302
,
0023
0000
0000
0000
0031
0010
0100
0000
0010
0001
0100
0000
0010
1000
0100
0000
,
0100
1000
0001
0000
0100
0010
1000
0000
0001
1000
0100
0000
0010
0100
1000
0000
,
0002
0000
0000
0000
0000
0000
0000
0000
0000
0000
0000
0000
1003
0000
0010
0000
1000
0000
0010
0000
0000
0100
0000
0000
0001
0000
0000
0000
0000
0000
0010
0000
0000
0000
0000
0000
0100
0000
0000
0000
0000
0000
1000
0000
0000
0000
0000
0000
,
1001
0000
1010
0000
1000
0001
0000
0001
0010
0000
0100
0000
0010
0001
1000
0010
,
0100
0001
0100
0000
0100
0010
0100
0000
0100
0001
0100
0000
0001
0100
0010
1000
,
0100
0010
0100
0000
0100
1000
0100
0000
0100
0010
0100
0000
0100
0010
0001
1000
,
0001
0100
0001
0000
0001
1000
0001
0000
0001
0010
0001
0000
0010
0100
1000
0001
,
1000
0010
1000
0000
1000
0001
1000
0000
1000
0000
1000
0100
0000
0010
0001
1000
,
0010
0100
0002
0000
1003
0010
0100
0001
0010
0001
0100
0010
1000
0001
0010
0100
,
1000
0001
0020
0000
0130
1000
0001
0100
0001
0010
0001
0100
0010
1000
0100
0010
,
0002
0203
0320
2030
3002
0203
0320
2030
3002
0023
0230
2300
3002
0023
0230
2300
,
3020
0000
0000
0000
0130
0000
0001
0000
1000
0000
0001
0100
0000
0010
1000
0000
,
0004
4000
0000
0000
0000
0000
0000
0000
0000
0000
0000
0000
,
0000
0000
0000
0000
,
0000
0000
0000
0000
,
0000
0000
3003
0000
,
0001
0010
0100
1000
0100
0010
0100
1000
0001
0010
0100
1000
,
0002
0103
0020
1030
,
0101
0000
0000
0000
0001
1000
0001
0000
1000
0000
0100
0000
0010
0000
0000
0000
0000
0000
0011
0000
0000
0000
1000
0000
,
1001
0000
0001
1001
0000
1000
1001
0000
0000
0110
0000
0000
,
1001
0000
0000
0001
0010
1000
0010
0000
0010
0001
0000
0001
,
0101
1010
0011
1010
,
0001
1000
0010
0001
0010
0100
0001
0010
0001
0100
0010
1000
,
0001
0000
0000
0000
0000
0000
0000
0000
1000
0000
0000
0000
0020
0030
0000
0000
0000
0000
0000
0000
0020
0030
0000
0000
0001
0000
0000
0000
0000
0000
0000
0000
0001
0000
0000
0000
0020
0030
0000
0000
0000
0000
0000
0000
0020
0030
0000
0000
,
1000
0000
0000
0100
1000
0100
0010
0001
0100
0001
1000
0001
,
0011
1010
0011
1010
,
1001
0000
0000
0001
0001
0100
1010
0000
0000
1000
1000
0010
,
0101
0000
0000
1000
0001
1000
0001
0010
0001
0100
0001
1000
,
0010
0000
0000
0000
0000
0000
0000
0000
0000
0000
0000
0000
1001
0000
0000
0000
0000
0000
0000
0000
0000
0000
0000
0000
0020
0030
0000
0000
0020
0030
0000
0000
0020
0030
0000
0000
0020
0030
0000
0000
0020
0030
0000
0000
0000
0000
0000
0000
,
0020
0030
0000
0000
0020
0030
0000
0000
0020
0030
0000
0000
0020
0030
0000
0000
0020
0030
0000
0000
0000
0000
0000
0000
0020
0030
0000
0000
0020
0030
0000
0000
0020
0030
0000
0000
0020
0000
0000
0000
0030
0000
0000
0000
0000
0000
0000
0000
,
1001
0000
0000
0000
0001
0000
0000
0000
0100
0000
0000
0000
0010
0000
0000
0000
1000
0000
0000
0000
0001
0000
0000
0000
0200
0300
0000
0000
0200
0300
0000
0000
0200
0300
0000
0000
0200
0300
0000
0000
0200
0300
0000
0000
0000
0000
0000
0000
,
0200
0300
0000
0000
0200
0300
0000
0000
0200
0300
0000
0000
0200
0300
0000
0000
0200
0300
0000
0000
0000
0000
0000
0000
0110
0000
0000
0000
0000
0000
0000
0000
1001
0000
0000
0000
0000
0000
0000
0000
0110
0000
0000
0000
0000
0000
0000
0000
,
1002
0000
0000
0000
0000
0000
0000
0000
0000
0000
0000
0000
0103
0000
0000
0000
0000
0000
0000
0000
0000
0000
0000
0000
0020
0030
0000
0000
0020
0030
0000
0000
0020
0030
0000
0000
0020
0030
0000
0000
0020
0030
0000
0000
0000
0000
0000
0000
,
0020
0030
0000
0000
0020
0030
0000
0000
0020
0030
0000
0000
0020
0030
0000
0000
0020
0030
0000
0000
0000
0000
0000
0000
0020
0030
0000
0000
0020
0030
0000
0000
0020
0030
0000
0000
0020
0000
0000
0000
0000
0000
0000
0000
0000
0000
0000
0000
,
1030
0100
0010
0001
1000
0001
1000
1000
0001
0010
0010
0100
,
1100
0000
1000
0010
0000
0100
0101
0000
0011
0000
1100
0000
,
1001
0000
0000
0000
,
0000
0000
0000
0000
,
0000
0000
0000
0000
,
0000
0000
0000
0000
,
0101
0001
0010
1000
,
0010
0001
0100
1000
,
0100
0001
0100
0010
,
1000
0100
0010
0001
0010
0100
1001
0000
,
0201
0000
0000
0000
0310
0000
0010
1000
0100
0000
0110
0000
0100
0010
0001
0000
,
1001
0000
0001
0100
0010
0000
0110
0000
0010
1000
0001
0000
1001
0000
1000
0001
,
0200
0000
0000
0000
0310
0000
1000
0001
0010
0000
0110
0000
0100
1000
0010
0000
,
0110
0000
0100
0001
0010
0000
0011
0000
0001
0010
0100
0000
0110
0000
1100
0000
,
1001
0000
0000
0000
1010
0000
1000
0010
0100
0000
1010
0000
1000
0010
0100
0000
,
1001
0000
0001
0010
0100
0000
0011
0000
0010
0001
1000
0000
1001
0000
0001
0010
,
0100
0000
0100
0000
0110
0000
0010
0000
0010
0000
0110
0000
0100
0010
0001
0000
,
4000
0400
0000
0000
0000
0000
0000
0000
0000
3300
0000
0000
,
1010
0000
0000
0000
0000
0000
0101
0000
0000
0000
0000
0000
1001
0000
0000
1000
0001
1000
0001
0000
0000
0010
0000
0000
,
0100
0000
0010
0001
0200
0000
0000
0000
1000
0000
0000
0000
0301
0000
1000
0000
,
1000
0000
1000
0000
0001
0000
0001
0000
0101
0000
0001
0100
0010
0000
1010
0000
,
1000
0000
0000
0001
0000
0000
0010
0000
0000
0000
0000
0000
0110
0000
0000
0000
0000
0000
0100
0000
0000
0000
0000
0000
0110
0000
0000
0000
0000
0000
0110
0000
0000
0000
0000
0000
1000
0000
0001
0000
1000
0000
0001
0000
1000
0000
0001
0000
,
1000
0000
0000
0000
0000
0000
0011
0000
0000
0000
0000
0000
1001
0000
0000
0001
0100
0001
0100
0000
0000
0010
0000
0000
,
1010
0000
1000
0010
0100
0000
0001
0010
0100
0000
0100
0000
0100
0000
0000
0000
,
0010
0021
0000
0130
1002
0000
1003
0001
,
0020
0000
0000
0000
0130
1000
0100
1000
0100
0010
0001
1000
0100
0010
0001
1000
,
0020
0030
0000
0000
;

//--------------- dance-double - ----------------
#NOTES:
     dance-double:
     :
     Easy:
     10:
     0.422568,0.566095,0.475996,0.254998,0.017,348,292,56,30,0,0,0,0,0,0.422568,0.566095,0.475996,0.254998,0.017,348,292,56,30,0,0,0,0,0:
00000000
00000000
00000000
00000000
,
00000000
00000000
00000000
00000000
,
00000000
00000000
00000000
00000000
,
00000000
00000000
00000000
00000000
,
00000000
00000000
00000000
00000000
,
10000000
00010000
00100000
00010000
,
10000000
00010000
01000000
00010000
,
10000000
00010000
00100000
00001000
,
00010000
00000100
00001000
00000010
,
00001001
00000000
00000001
00000100
00000001
00000000
00000100
00000000
,
00000110
00000000
00000010
00001000
00000010
00000000
00001000
00000000
,
00000100
00010000
00000000
00000100
00010000
00000000
00000100
00010000
,
00000000
00000100
00010000
00000000
00000100
00002000
00000000
00003010
,
00000110
00000000
00001010
00000000
,
00010010
00000000
00010100
00000000
,
00011000
00011000
01001000
01001000
,
01100000
00000000
01000000
00010000
00200000
00000000
01300000
00000000
,
10000000
10000000
10000000
10000000
,
10000000
00000000
10000000
00000000
10000000
00010000
01100000
00000000
,
10020000
00130000
00001000
00010000
,
00000100
00000000
00001000
00000000
00000010
00000000
00000100
00000001
,
00000020
00001030
00000010
00000001
,
00000100
00000000
00001000
00000000
00000100
00000000
00000010
00010000
,
00002000
01003000
00100000
10000000
,
00010000
00000000
00100000
00000000
00001000
00000000
00001000
01000000
,
00200000
00000000
00310000
00100000
10000000
00000000
00010000
00000000
,
10000000
01000000
10000000
00000000
00010000
00000000
01000000
00000000
,
00001000
00010000
00001000
00000000
00010000
00000000
00000100
00000000
,
00001000
00000010
00001000
00000000
00000010
00000000
00000100
00000000
,
00000001
00000010
00000001
00000000
00000010
00000000
00000100
00000000
,
00010000
00000000
00000100
00000000
00010000
00000000
00000000
00000000
00001000
00000000
00000000
00001000
00000000
00000000
00001000
00000000
,
00010000
00001000
00010000
00000000
00001000
00000000
01000000
00000000
,
00100000
10000000
00100000
00000000
10000000
00000000
00010000
00000000
,
10000000
01000000
00100000
00010000
00100000
01000000
10000000
00010000
,
00100000
00000000
00000000
00000000
00001000
00000000
00010000
00000000
00000100
00000000
00000000
00010000
00000000
00000000
00001000
00000000
,
00011000
00000000
00000000
00000000
,
00000000
00000000
00000000
00000000
,
00000000
00000000
00000000
00000000
,
00000000
00000000
00000000
00000000
,
00010000
00000100
00010000
00001000
,
01000000
01000000
00001000
00001000
,
00010000
00000100
00010000
00001000
,
00011000
00011000
00001010
00110000
,
11000000
02000000
03100000
00001000
,
00011000
00011000
00010100
00011000
,
00010000
00000100
00001000
00000010
,
00001010
00000000
00000101
00000000
00002020
00000000
00000000
00003030
,
00000010
00000100
00000001
00001000
,
00001100
00001100
00010100
00001100
,
00010100
00012000
01003000
01200000
,
10300000
20100000
30010000
00100000
,
00101000
00000000
00021000
00030100
,
00012000
01003000
00021000
00030100
,
00022000
00033000
00012000
01003000
,
00021000
00030100
00011000
00011000
,
00000200
00010300
00012000
00103000
,
00021000
00030010
00012000
00103000
,
00021000
00000010
00031000
00011000
,
00102000
00000000
00000000
00010000
00000000
00000000
00013000
00000000
00001000
00000000
00010000
00000000
,
00011000
00000000
00000000
00000000
,
00000000
00000000
00000000
00000000
,
00000000
00000000
00000000
00000000
,
00000000
00000000
00000000
00000000
,
00110000
01000000
10000000
00100000
,
01000000
00001000
00010000
00000100
,
00001000
00000010
00000100
00000001
,
00000010
00000000
00000100
00000000
00000100
00010000
00011000
00000000
,
00000000
00000000
00001000
00000000
00000000
01000000
00000000
00000000
,
00100000
00000000
00000000
10000000
00000000
00000000
01000000
00000000
,
00000000
00000000
00100000
00000000
00000000
00001000
00000000
00000000
,
00010000
00000000
00000000
00000010
00000000
00000000
00001000
00000000
,
00000000
00000000
00001001
00000000
00000000
00000001
00000000
00000000
,
00000010
00000000
00000100
00000100
00000010
00000000
00000001
00000000
,
00001000
00000000
00000100
00000000
00000000
00010000
00000000
00000000
,
02002000
00000000
03003000
00000000
,
01100000
00000000
00000000
10000000
00000000
00000000
00010000
00000000
,
00100000
00001000
00000000
00010000
00000100
00000000
00000000
00000000
,
00001000
00000100
00001000
00000000
00000010
00000000
00000100
00000000
,
00000001
00000000
00000000
00000010
00000000
00000000
00000200
00000000
,
00001300
00000000
00000000
00000100
00000000
00000000
00010000
00000000
,
00001000
01000000
00000000
00100000
10000000
00000000
00000000
00000000
,
00010000
00100000
00000000
00010000
00100000
00000000
01000000
00000000
,
10000000
00000000
00010000
00100000
00001000
00000000
00010000
00000000
,
00022000
00033000
00000000
00000000
;

//--------------- dance-double - ----------------
#NOTES:
     dance-double:
     :
     Medium:
     13:
     0.601067,0.707619,0.586495,0.220998,0.339997,495,426,69,26,0,0,0,0,0,0.601067,0.707619,0.586495,0.220998,0.339997,495,426,69,26,0,0,0,0,0:
00000000
00000000
00000000
00000000
,
00000000
00000000
00000000
00000000
,
00000000
00000000
00000000
00000000
,
00000000
00000000
00000000
00000000
,
00000000
00000000
00000000
00000000
,
10000000
00100000
01000000
00010000
,
00100000
00001000
00010000
00000100
,
00001000
00000010
00000100
00000001
,
00000010
00000100
00001000
00000100
,
00011000
00000000
00001000
01000000
00100000
00000000
10100000
00000000
,
10010000
00000000
00010000
00100000
00001000
00000000
00011000
00000000
,
00010000
00000100
00000000
00001000
00000010
00000000
00000100
00000001
,
00000000
00000010
00000100
00000000
00000010
00000002
00000000
00001003
,
00001001
00000000
00000001
00000100
00000101
00000000
00000100
00000010
,
00000110
00000000
00001000
00000010
00001010
00000000
00001000
00000100
,
00001100
00001100
00010100
00010100
,
00011000
00000000
00000000
00000000
00001000
00010000
00001000
00010000
00002000
00000000
00000000
00000000
01003000
00000000
00000000
00000000
,
00100000
00100000
00100000
00100000
,
00100000
00000000
00100000
00000000
00100000
01000000
10010000
00000000
,
21000000
30010000
00100000
00001000
,
00010000
00000000
00000000
00000000
00000100
00000000
00000000
00000000
00001000
00000000
00000000
00000010
00000100
00000000
00000001
00000000
,
00000020
00000130
00001000
00000100
,
00010000
00000000
00000000
00000000
00001000
00000000
00000000
00000000
01000000
00000000
00000000
00000000
00100000
10000000
00100000
10000000
,
00010000
10000000
01000000
00010000
,
01000000
00000000
00000000
00000000
00100000
00000000
00000000
00000000
00001000
00000000
00000000
00010000
00000100
00000000
00001000
00000000
,
00000020
00000000
00000130
00000001
00000010
00000100
00001000
00000100
,
00010000
00000000
00000100
00000000
00001000
00000000
00000000
00000000
00000100
00000000
00010000
00000000
00001000
00010000
00001000
00000000
,
01000000
00100000
01000000
00000000
00100000
00000000
10000000
00000000
00010000
00000000
00000000
00000000
11000000
00000000
00000000
00000000
,
10000000
00100000
10000000
00000000
00010000
00000000
00100000
00000000
00001000
00000000
00000000
00000000
00011000
00000000
00010000
00000000
,
00000100
00001000
00000100
00000000
00001000
00000000
00000010
00000000
00000100
00000000
00000000
00000000
00000101
00000000
00000000
00000000
,
00000001
00001000
00000001
00000000
00000010
00000000
00000100
00000000
00001000
00000000
00000000
00001000
00000000
00000000
00001000
00000000
,
00000100
00010000
00000100
00000000
00010000
00000000
00001000
00000000
01000000
00000000
00100000
00000000
10000000
00000000
00000000
00000000
,
01000000
00100000
01000000
00000000
00100000
00000000
00001000
00000000
00010000
00000000
00000100
00000000
00001000
00000000
00000001
00000000
,
00000100
00001000
00010000
00100000
10000000
01000000
00010000
00001000
,
00010000
00000000
00000000
00000000
00000100
00000000
00010000
00000000
00001000
00000000
01000000
00100000
00000000
01000000
00010000
00000000
,
00110000
00000000
00000000
00000000
,
00000000
00000000
00000000
00000000
,
00000000
00000000
00000000
00000000
,
00000000
00000000
00000000
00000000
,
10000000
01000000
00010000
00001000
,
00011000
00010100
00011000
00010100
,
00001000
00000000
00000001
00000100
00000010
00000100
00000001
00000000
00000000
00000100
00000000
00000100
,
00000010
00001010
00010000
00011000
,
01001000
00000000
00000000
01000000
00100000
10000000
00010000
00000000
00000000
00110000
00000000
00100000
,
01000000
11000000
10000000
10100000
,
10010000
00000000
00000000
00010000
00100000
00001000
00010000
00000000
00000000
00000100
00001000
00000010
,
00000100
00000000
00000001
00001000
00000000
00001000
00000001
00000000
00000001
00001000
00000000
00001000
,
00000001
00000000
00000000
00000100
00000010
00010000
00001000
00000000
00000000
00010000
00001000
00100000
,
00010000
11000000
10000000
01010000
,
10010000
00000000
00000000
00010000
00100000
00001000
00010000
00000000
00000000
00000100
00001000
00000010
,
00000100
00000000
00000000
00000001
00000100
00000010
00001000
00000000
00001000
00000000
00001000
00000100
,
00020100
00000000
00000000
00031000
00000000
00000000
00010000
00001000
00010000
00001000
00010000
00000000
,
00001000
00010000
00001000
00010000
00001000
00000000
00010000
00001000
00010000
00000200
00000000
00000000
,
00020300
00000000
00000000
00000000
00000000
00000000
00031000
00010000
00001000
00010000
00001000
00000000
,
00010000
00001000
00010000
00001000
00010000
00000000
00011000
00000000
00011000
00000000
00011000
00000000
,
00102000
00000000
00000000
00013000
00000000
00000000
00001000
00010000
00001000
00010000
00001000
00000000
,
00010000
00001000
00010000
00001000
00010000
00000000
00001000
00010000
00001000
00200000
00000000
00000000
,
00301000
00000000
00000000
00101000
00000000
00000000
00010100
00000000
00010000
00001000
00000000
00000000
,
00011000
00000000
00001000
01000000
00000000
01000000
01100000
00000000
01010000
00000000
01001000
00000000
,
00011000
00000000
00000000
00000000
,
00000000
00000000
00000000
00000000
,
00000000
00000000
00000000
00000000
,
00000000
00000000
00000000
00000000
,
00010100
00010000
00000100
00001000
,
00000010
00000100
00000001
00000010
,
00000100
00001000
00000100
00010000
,
00001000
01000000
00100000
10000000
01000000
00100000
00110000
00000000
,
11000000
00000000
10010000
00000000
00100000
00110000
00000000
00001000
,
00101000
00000000
00010000
00010100
00000000
00000100
00001100
00000000
,
00000001
00000100
00000101
00000000
00000010
00001010
00000000
00010000
,
00011000
00000000
00001000
01001000
00000000
01000000
01100000
00000000
,
10010000
00000000
11000000
00000000
10000000
10010000
00000000
00010000
,
00110000
00000000
00100000
00101000
00001000
00001000
00010000
00000000
,
00010000
00000100
00001100
00001000
00000010
00000110
00000100
00000001
,
00001000
00000100
00020000
00002000
00000000
00000000
00000000
00000000
00000000
00033000
00000000
00000000
,
01001000
00000000
00000000
00000000
01001000
00000000
00000000
00000000
01000000
00000000
00100000
10000000
00010000
00000000
00100000
00000000
,
01000000
20000000
00000000
30100000
02000000
00000000
03001000
00000000
,
00010000
00000000
00001000
00000000
00001000
00000000
00010000
00000000
00000100
00000000
00001000
00000010
00000000
00001000
00000010
00000000
,
00000100
00000000
00000001
00000011
00000000
00001000
00000200
00000000
,
00002300
00000000
00003100
00020000
00000000
00031000
02000000
00000000
,
03100000
20000000
00000000
30010000
00200000
00000000
01000000
00000000
,
00320000
20000000
30030000
00020000
20000000
30030000
10000000
01000000
,
00100000
00000000
00000000
00000000
00001000
00010000
00001000
00010000
00001000
00000000
00000000
00000000
00010000
00000000
00000000
00000000
,
00022000
00033000
00000000
00000000
;

//--------------- dance-double - ----------------
#NOTES:
     dance-double:
     :
     Hard:
     15:
     0.710351,0.955286,0.577995,0.501496,0.594995,585,517,68,59,0,0,0,0,0,0.710351,0.955286,0.577995,0.501496,0.594995,585,517,68,59,0,0,0,0,0:
00000000
00000000
00000000
00000000
,
00000000
00000000
00000000
00000000
,
00000000
00000000
00000000
00000000
,
00000000
00000000
00000000
00000000
,
00000000
00000000
00000000
00000000
,
10000000
00010000
00100000
00000000
00010000
00000000
00100000
00000000
,
00010000
00001000
00000100
00000000
00001000
00000000
00000010
00000000
,
00000100
00000001
00001000
00000000
00000001
00000000
00000100
00000000
,
00001000
00010000
00100000
00000000
01000000
00000000
00010000
00000000
,
10010000
00000000
10000000
02000000
00000000
03100000
00002000
00000000
,
00013000
00000000
00000100
00002000
00000000
00003010
00020000
00000000
,
00031000
02000000
00000000
03100000
20000000
00000000
30010000
00200000
,
00000000
00301000
00020000
00000000
00030100
00002000
00000000
00003010
,
00001010
00010000
00010100
00001000
,
00011000
00100000
11000000
01000000
,
10010000
00101000
00011000
00001100
,
00001001
00000000
00000000
00000000
00000100
00000001
00000100
00000001
00000100
00000000
00000010
00001000
00000200
00000000
00000000
00000000
,
00010300
00010000
00010000
00010000
,
00010000
00000000
00000000
00000000
00010000
00000000
00000000
00000000
00010000
00001000
00010000
00000100
00010000
00000000
00000000
00000000
,
00012000
00000000
01003000
00100000
00010000
00100000
10000000
00010000
,
00100000
00000000
00001000
00000000
00010000
00000000
00000100
00000000
00001000
00000000
00000000
00000010
00000001
00000000
00000010
00000000
,
00002000
00000000
00003100
00010000
00000100
00010000
00001000
01000000
,
10000000
00000000
01000000
00000000
00100000
00000000
10000000
00000000
00010000
00000000
00100000
00000000
01000000
00100000
01000000
10000000
,
00020000
00000000
01030000
00010000
00100000
00001000
00010000
00000100
,
00001000
00000010
00000001
00000010
00001000
00000100
00010000
00001000
,
00010100
00000000
00000000
00000000
00010000
00001000
00010000
00001000
00010000
00000000
00001000
00000000
01000000
00000000
00100000
00000000
,
10000000
00010000
00100000
00000000
01000000
10000000
00100000
00000000
01000000
00000000
01000000
00000000
01000000
00010000
00100000
00001000
,
00010000
00000100
00010000
00000000
00000100
00001000
00000100
00000000
00001000
00000000
00000000
00000010
00000100
00000000
00000001
00000000
,
00001000
00000100
00001000
00000000
00000100
00010000
00000100
00000000
00010000
00000000
00000000
00001000
01000000
00000000
00100000
00000000
,
10000000
00010000
10000000
00000000
01000000
10000000
01000000
00000000
00100000
00000000
00000000
00001000
00010000
00000000
00000100
00000000
,
00002002
00000000
00000000
00000000
00003003
00000000
00000000
00000000
00000101
00000000
00000000
00001001
00000000
00000000
00001100
00000000
,
00000100
00010000
00001000
00000000
00010000
00000000
00001000
00000000
01000000
00000000
10000000
00000000
01000000
00000000
00100000
00000000
,
10000000
00010000
00100000
00000000
00001000
00000000
00010000
00000000
00000100
00000000
00001000
00000000
00000010
00000000
00000001
00000000
,
00000010
00000100
00000001
00001000
00000100
00010000
00001000
01000000
00100000
10000000
01000000
00100000
00010000
00100000
01000000
10000000
,
00010000
00000000
00000000
00000000
10000000
00000000
00010000
00000000
00110000
00000000
00100000
00001000
00000000
00010000
00000100
00020000
,
00002000
00000000
00000000
00000000
,
00000000
00000000
00000000
00000000
,
00000000
00000000
00000000
00000000
,
00000000
00000000
00000000
00033000
,
00010000
00000100
00010000
00001000
01000000
00001000
00010000
00000100
00010000
00001000
01000000
00001000
,
00011000
01100000
11000000
00110000
,
00101000
00000000
00100000
00001000
00001000
00010000
00000100
00000000
00000000
00001100
00000000
00001000
,
00001010
00000101
00001001
00001100
,
00001001
00000000
00000000
00000001
00001000
00000100
00010000
00000000
00000000
00011000
00000000
00010000
,
00011000
01001000
01100000
10100000
,
10000000
00010000
00100000
00001000
00010000
00000100
00001000
00000010
00000100
00000001
00001000
00000100
,
00010000
00000000
00001000
01000000
00000000
01000000
00001000
00000000
00001000
00010000
00000000
00010000
,
00000100
00000000
00000000
00001000
00000100
00010000
00000010
00001000
00000001
00000010
00000100
00001000
,
00001001
00001010
00010010
00011000
,
01001000
00000000
00000000
00020000
01030000
00100000
10000000
00000000
00000000
02000000
03100000
00010000
,
01000000
00000000
00000000
01000000
00001000
00010000
00011000
00000000
00011000
00000000
00011000
00000000
,
00011000
00000000
00000000
00010200
00000000
00000000
00020300
00032000
02003000
03200000
20300000
30000000
,
00020000
00230000
00300200
00002300
00003200
00000300
00020000
00030200
00002300
00003020
00000000
00000000
,
00000130
00001000
00000100
00000001
00000100
00001000
00000020
00020030
00032000
00023000
00030200
00000300
,
00020000
00032000
02003000
03200000
20300000
30000000
10010000
00000000
01100000
00000000
10010000
00000000
,
21000000
00000000
00000000
30200000
00000000
00000000
01300000
01000000
00001000
00010000
00000100
00000000
,
00010000
00010000
00000100
00001000
00000010
00000000
00000100
00000100
00000010
00002000
00000000
00000000
,
00003001
00000000
00000000
00000011
00000000
00000000
00000010
00000010
00000100
00001000
00000000
00000000
,
00001100
00000000
00000100
00010000
00000000
00010000
00011000
00000000
00011000
00000000
00011000
00000000
,
00011000
00000000
00000000
00000000
,
00000000
00000000
00000000
00000000
,
00000000
00000000
00000000
00000000
,
00000000
00000000
00000000
00000000
,
00011000
00000000
00001000
01000000
00001000
00000000
01000000
00000000
,
00100000
00000000
10000000
00010000
10000000
00000000
00010000
00000000
,
00100000
00000000
00001000
00100000
00001000
00000000
00010000
00000000
,
00000100
00001000
00000010
00000100
00000001
00000010
00001100
00000000
,
00102000
00000000
00000000
00000000
00013000
00000000
00000100
00001000
00000100
00000000
00001000
00000000
00000010
00000100
00000010
00000000
,
00000100
00000000
00000001
00000100
00000001
00000000
00001000
00000000
00000100
00010000
00000100
00000000
00010000
00000000
00000000
00000000
,
00001000
00000000
00000000
00000000
01000000
00000000
00100000
10000000
00100000
00000000
01000000
00000000
00010000
00100000
00010000
00000000
,
00100000
00000000
00001000
00010000
00001000
00000000
00010000
00000000
00000100
00001000
00000100
00000000
00011000
00000000
00000000
00000000
,
00110000
00000000
00000000
00000000
11000000
00000000
10000000
00100000
10000000
00000000
00010000
00000000
01000000
00010000
01000000
00000000
,
00010000
00000000
00100000
00001000
00100000
00000000
00100000
00000000
00100000
00000000
00001000
00000000
00100000
00000000
00000000
00000000
,
00011000
00000000
00000000
00000000
00010100
00000000
00010000
00000100
00010000
00000000
00001000
00000000
00000010
00001000
00000010
00000000
,
00000100
00000010
00020000
00002000
00000000
00000000
00000000
00000000
00000000
00033000
00000000
00000000
,
00101000
00000000
00000000
00000000
00001010
00000000
00000000
00000000
00011000
00000000
00010000
00000100
00001000
00000000
00001000
00000000
,
00000100
00020000
00000000
00031000
00002000
00000000
01000000
00000000
,
00013000
00000000
00000100
00000000
00000100
00000000
00000000
00000000
00010000
00000000
00001000
01000000
00000000
00100000
10000000
00000000
,
10010000
00000000
10010000
00000000
10000000
00000000
01000000
00000000
00000000
00000000
00100000
00000000
00010000
01000000
00010000
01000000
,
00020000
00000000
00130000
00020000
00000000
00130000
00001000
00010000
,
00000100
00002000
00000000
00003010
00000200
00000000
00000010
00000000
,
00000301
00001001
00000000
00001000
00001001
00000000
00000001
00001000
,
00000200
00000000
00000000
00000000
00010300
00001000
00010000
00001000
00020000
00000000
00000000
00000000
00031000
01000000
00100000
10000000
,
00020000
00030000
00000000
00000000
;

//--------------- dance-double - ----------------
#NOTES:
     dance-double:
     :
     Challenge:
     17:
     0.794136,1.09681,0.747994,0.934992,0.769244,654,566,88,110,0,0,0,0,0,0.794136,1.09681,0.747994,0.934992,0.769244,654,566,88,110,0,0,0,0,0:
00000000
00000000
00000000
00000000
,
00000000
00000000
00000000
00000000
,
00000000
00000000
00000000
00000000
,
00000000
00000000
00000000
00000000
,
00000000
00000000
00000000
00000000
,
10000000
00100000
01000000
00010000
00100000
10000000
00100000
00010000
,
00001000
00010000
00000100
00001000
00000010
00000001
00000010
00001000
,
00000100
00010000
00001000
01000000
10000000
01000000
00010000
10000000
,
01000000
00100000
00010000
00001000
00000100
00000010
00000001
00000000
,
00001001
00000000
00000001
00000100
00001000
01000000
00100000
00000000
,
10010000
00000000
10000000
01000000
00010000
00001000
00000010
00000001
,
00001000
00000000
00000020
00000030
00000000
00000000
00000020
00000030
00000001
00000000
00000000
00000000
00000001
00000000
00000020
00000030
,
00000000
00000000
00000020
00000030
00001000
00000000
00000000
00000000
00000001
00000000
00002100
00000000
00000000
00000000
00003100
00000000
,
00011000
01000000
00011000
00000100
,
00011000
00100000
00011000
00000010
,
00011000
00010100
00101000
00011000
,
02001000
00000000
00000000
00000000
03100000
10000000
00100000
10000000
01000000
00000000
00100000
00001000
00011000
00000000
00000000
00000000
,
00000100
00000100
00000100
00000100
,
00000100
00000000
00000000
00000000
00000100
00000000
00000000
00000000
00000100
00010000
00001000
01000000
00200000
00000000
00000000
00000000
,
10300000
00000000
00000000
00000000
00110000
00100000
00001000
00000000
00010000
00000100
00001000
00000000
00000100
00001000
00000010
00000000
,
00000100
00000001
00000010
00000000
00000100
00001000
00000001
00000000
00001000
00000000
00000000
00000001
00001000
00000000
00000100
00000000
,
00020100
00000000
00000000
00000000
00031000
00100000
00010000
00000000
00100000
01000000
10000000
00000000
00010000
01000000
00100000
00000000
,
10000000
00010000
00100000
00000000
00001000
00010000
00000100
00000000
00001000
00000010
00000100
00000000
00000001
00000010
00000100
00010000
,
00002000
00000000
00000000
00000000
01003000
00010000
00100000
00000000
01000000
10000000
00010000
00000000
00100000
00001000
00010000
00000000
,
00000100
00001000
00000010
00000000
00000100
00000001
00000010
00000000
00000100
00000001
00000100
00000010
00010000
00001000
00010000
00001000
,
02000000
00000000
00000000
00000000
00000000
00000000
00000000
00000000
00000000
00000000
00000000
00000000
03100000
00000000
10000000
00000000
00100000
00000000
10000000
00000000
00000000
01000000
00000000
00000000
00100000
00000000
00000000
00010000
00000000
00000000
00100000
00000000
00000000
00001000
00000000
00000000
00010000
00000000
00000000
00000100
00000000
00000000
00001000
00000000
00000000
00000010
00000000
00000000
,
00000100
00000000
00000110
00000000
00000101
00000000
00000001
00001000
00000100
00000000
00001100
00000000
00000100
00010000
00001000
01000000
,
00100000
10000000
00200000
00000000
01300000
00010000
00200000
00000000
00301000
00010000
00000200
00000000
00001000
00000000
00010300
00000000
,
00001000
00100000
00020000
00000000
01030000
00100000
20000000
00000000
30010000
00100000
00002000
00000000
00010000
00000000
00103000
00000000
,
00001000
00010000
00000100
00000000
00001000
00000010
00000100
00000000
00000010
00010000
00002000
00000000
00010000
00000000
01003000
00000000
,
01100000
00000000
00000000
00000000
00000000
00000000
00000000
00000000
01010000
00000000
00000000
00011000
00000000
00000000
00000010
00000100
,
00000001
00000100
00002000
00000000
00003100
00000010
00010000
00001000
01000000
00100000
10000000
00010000
00100000
01000000
10000000
00010000
,
10000000
01000000
00010000
00000000
01000000
10000000
00100000
01000000
00001000
00010000
00000100
00001000
00000010
00000000
00000100
00000000
,
00000020
00020030
00032000
02003000
03200000
20300000
30020000
00230000
00302000
00023000
00030200
00002300
00003020
00020030
00032000
00203000
,
00302000
00000000
00000000
00000000
00013000
00000000
00000100
00000000
00001100
00000000
00000100
00010000
00000000
00010000
01000000
00001000
,
00010000
00000000
00000000
00000000
,
00000000
00000000
00000000
00000000
,
00000000
00000000
00000000
00000000
,
00000000
00000000
00000000
00000000
,
00000001
00000100
00001000
00010000
00100000
10000000
00010000
10000000
01000000
00010000
00001000
00000010
,
00000002
00000103
00000020
00001030
,
00011000
00000000
00000000
00000000
00010000
00001000
00010000
00000000
00001000
00000000
01000000
00000000
00010000
00000000
00000000
00000000
00000000
00000000
00010000
00000000
00000000
00000000
00010000
00000000
,
00110000
11000000
10100000
01010000
,
10010000
00000000
00000000
10000000
00100000
01000000
10010000
00000000
00000000
01010000
00000000
01000000
,
01001000
00010100
00100010
01000100
,
00010000
00000100
00001000
00000010
00000001
00000010
00001000
00010000
01000000
10000000
01000000
10000000
,
10010000
00000000
10000000
00010000
00000000
00010000
00001000
00000000
00001000
00000001
00000000
00000000
,
00001001
00000000
00000000
00000101
00000000
00000000
00001010
00000000
00000000
00010010
00000000
00010000
,
00012000
10003000
00021000
00030001
,
00011000
00000000
00000000
00200000
00300020
00020030
00032000
00003000
00000000
00000200
02000300
03002000
,
00023000
00030000
00000000
00001000
00010000
00001000
00011000
00000000
00011000
00000000
00010000
00000100
,
00010000
00000000
00000000
00011000
00000000
00000000
00000200
02000300
03000200
02000300
03000200
00000300
,
00200000
00300020
00200030
00300020
00200030
00300000
00000200
02000300
03000200
02000300
00000000
00000000
,
03002000
00023000
00032000
00023000
00002000
00030000
00203000
00300020
00200030
00300020
00200030
00300000
,
00000200
02000300
03000200
02000300
03000200
00000300
00011000
00000000
10010000
00000000
00101000
00000000
,
00021000
00000000
00000000
00030100
00000000
00000000
00020000
00030002
00020003
00030002
00020003
00030000
,
00000020
00200030
00300020
00200030
00300020
00000030
02000000
03000200
02000300
03000200
00000000
00000000
,
00001300
00000000
00000000
00110000
00000000
00000000
11000000
00000000
10000000
10100000
00000000
00000000
,
02010000
00000000
03001000
00020000
00000000
00030100
00010100
00000000
00010100
00000000
00010100
00000000
,
00011000
00000000
00000000
00000000
,
00000000
00000000
00000000
00000000
,
00000000
00000000
00000000
00000000
,
00000000
00000000
00000000
00000000
,
10010000
00000000
10000000
00000000
00010000
00100000
01000000
00000000
,
10000000
00000000
00010000
00000000
00100000
00001000
00010000
00000000
,
00000100
00000000
00001000
00000000
00000010
00000100
00000001
00000000
,
00000010
00000100
00010000
00001000
01000000
00100000
10010000
00000000
,
11000000
00000000
00000000
00000000
00110000
00000000
00100000
00001000
00010000
00000000
00001100
00000000
00001000
00000010
00000100
00000000
,
00000011
00000000
00000010
00000100
00001000
00000000
00010100
00000000
00010000
00001000
01000000
00000000
01100000
00000000
00000000
00000000
,
10010000
00000000
00000000
00000000
11000000
00000000
10000000
01000000
00010000
00000000
01000000
00000000
00100000
00001000
00010000
00000000
,
00000100
00000000
00001000
00000010
00000001
00000000
00000010
00000000
00000100
00000001
00001000
00000000
00000101
00000000
00000000
00000000
,
00001010
00000000
00000000
00000000
00010010
00000000
00000010
00000100
00000001
00000000
00000011
00000000
00000010
00000100
00001000
00000000
,
00001100
00010000
00000200
00001000
00010000
00001300
00001100
00000000
,
00000100
00000000
00010000
00000000
00011000
00000000
00001000
01000000
00100000
00000000
01000000
00000000
00100000
10000000
00010000
00000000
,
20000000
32000000
03200000
00020000
00000000
00000000
00000000
00000000
00330000
00011000
00000000
00000000
,
00011000
00000000
00000000
00000000
00000000
00000000
00100010
00000000
00000000
00000000
00000000
00000000
00011000
00000000
00000000
00010000
00000100
00010000
00000100
00000000
00000000
00001000
00000000
00000000
,
00001001
00000002
00000000
00001003
00000200
00000000
00000310
00000000
,
00000010
00000000
00000110
00000000
00000110
00000000
00000000
00000000
00001100
00000000
00000100
00010000
00000000
00001000
01000000
00000000
,
01100000
00000000
00000000
00000000
00000000
00000000
00010000
00000000
00000000
10010000
00000000
00000000
00000000
00000000
00000000
10000000
00000000
00000000
00010000
00100000
00010000
00100000
00010000
00100000
,
00020000
00000000
01030000
00200000
00000000
10300000
01000000
00010000
,
00001000
00020000
00000000
00030100
00002000
00000000
00000010
00000000
,
00003001
00002002
00003003
00001000
00002002
00003003
00000001
00001001
,
00001010
00000000
00000000
00000000
00000010
00010000
00000010
00010000
00000200
00000000
00000000
00000000
00010300
00001000
00010000
00001000
,
02000000
03000000
00000000
00000000
;
