#TITLE:君のハートにロックオン;
#SUBTITLE:;
#ARTIST:Dr.HONDA;
#TITLETRANSLIT:Kimi no heart ni lock-on;
#SUBTITLETRANSLIT:;
#ARTISTTRANSLIT:;
#GENRE:;
#CREDIT:;
#MUSIC:Kimi no heart ni lock-on.ogg;
#BANNER:;
#BACKGROUND:;
#CDTITLE:;
#SAMPLESTART:8.311;
#SAMPLELENGTH:14.817;
#SELECTABLE:YES;
#OFFSET:0.920;
#BPMS:0.000=260.000;
#STOPS:;
#BGCHANGES:;
#FGCHANGES:;

//--------------- dance-single - Pandemonium X ----------------
#NOTES:
     dance-single:
     Pandemonium X:
     Beginner:
     5:
     0,0,0,0,0:
0000
0000
0000
0000
,
0000
0000
0000
0000
,
0000
0000
0000
0000
,
0000
0000
0000
0000
,
0000
0000
0000
0000
,
0000
0000
0000
0000
,
0000
0000
0000
0000
,
0000
0000
0000
0000
,
0000
0000
0000
0000
,
0000
0000
0000
0000
,
0001
0000
0000
0000
,
1000
0000
0000
0000
,
0010
0000
0000
0000
,
0100
0000
0110
0000
,
0010
0000
0000
0000
,
1000
0000
0000
0000
,
0001
0000
0000
0000
,
1000
0000
1001
0000
,
0001
0000
0000
0000
,
0010
0000
0000
0000
,
0100
0000
0000
0000
,
1000
0000
0110
0000
,
0001
0000
0000
0000
,
1000
0000
0000
0000
,
0010
0000
0000
0000
,
0100
0000
0010
0000
,
1001
0000
0000
0000
,
0001
0000
0000
0000
,
1000
0000
0000
0000
,
0000
0000
0000
0000
,
0001
0000
0000
0000
,
1000
0000
0000
0000
,
0100
0000
0000
0000
,
0000
0000
0000
0000
,
0010
0000
0000
0000
,
0001
0000
0000
0000
,
0100
0000
0010
0000
,
0100
0000
0110
0000
,
0010
0000
0000
0000
,
1000
0000
0000
0000
,
0001
0000
0001
0000
,
1000
0000
1000
0000
,
0010
0000
0000
0000
,
1000
0000
0000
0000
,
0100
0000
0010
0000
,
0001
0000
0011
0000
,
0001
0000
0000
0000
,
1000
0000
0000
0000
,
1001
0000
0000
0000
,
0110
0000
0000
0000
,
0001
0000
0000
0000
,
0000
0000
0000
0000
,
0000
0000
0000
0000
,
0000
0000
0000
0000
,
0000
0000
0000
0000
,
0000
0000
0000
0000
,
0000
0000
0000
0000
,
0000
0000
0000
0000
,
1000
0000
0000
0000
,
0001
0000
0000
0000
,
0100
0000
0100
0000
,
0100
0000
0001
0000
,
0010
0000
0000
0000
,
0100
0000
0000
0000
,
1000
0000
0000
0000
,
0000
0000
0001
0000
,
0110
0000
0000
0000
,
1000
0000
0000
0000
,
0001
0000
0010
0000
,
0001
0000
0000
0000
,
1000
0000
0000
0000
,
0100
0000
0000
0000
,
1000
0000
0010
0000
,
1000
0000
0000
0000
,
0110
0000
0000
0000
,
0001
0000
0000
0000
,
1000
0000
0001
0000
,
1000
0000
0000
0000
,
0010
0000
0000
0000
,
0100
0000
0000
0000
,
0001
0000
0001
0000
,
0010
0000
0010
0000
,
0100
0000
0000
0000
,
0010
0000
0000
0000
,
0001
0000
0001
0000
,
0001
0000
0000
0000
,
1000
0000
0000
0000
,
0010
0000
0000
0000
,
0100
0000
0100
0000
,
0010
0000
0010
0000
,
1000
0000
0000
0000
,
0001
0000
0000
0000
,
0010
0000
0010
0000
,
0100
0000
0100
0000
,
1000
0000
0000
0000
,
0001
0000
0000
0000
,
0110
0000
0000
0000
,
0000
0000
0000
0000
,
0001
0000
0000
0000
,
1000
0000
0000
0000
,
0100
0000
1000
0000
,
0010
0000
0000
0000
,
0100
0000
0000
0000
,
0010
0000
0000
0000
,
0100
0000
0001
0000
,
0010
0000
0000
0000
,
0100
0000
0000
0000
,
0010
0000
0000
0000
,
0001
0000
1000
0000
,
0100
0000
0000
0000
,
1000
0000
0000
0000
,
0010
0000
1000
0000
,
0001
0000
0100
0000
,
0001
0000
0010
0000
,
1001
0000
0000
0000
,
0000
0000
0000
0000
,
0000
0000
0000
0000
,
0000
0000
0000
0000
,
0000
0000
0000
0000
,
0000
0000
0000
0000
,
0000
0000
0000
0000
,
0000
0000
0000
0000
,
1000
0000
0000
0000
,
0001
0000
0000
0000
,
0100
0000
0100
0000
,
0100
0000
0000
0000
,
0010
0000
0000
0000
,
1000
0000
0000
0000
,
0001
0000
0001
0000
,
1000
0000
1000
0000
;

//--------------- dance-single - Pandemonium X ----------------
#NOTES:
     dance-single:
     Pandemonium X:
     Easy:
     8:
     0,0,0,0,0:
0000
0000
0000
0000
,
0000
0000
0000
0000
,
0000
0000
0000
0000
,
0000
0000
0000
0000
,
0000
0000
0000
0000
,
0000
0000
0000
0000
,
0000
0000
0000
0000
,
0000
0000
0000
0000
,
0000
0000
0000
0000
,
0000
0000
0000
0000
,
0001
0000
0100
0000
,
0010
0000
1000
0000
,
0100
0000
0010
0000
,
0001
0100
0020
0000
,
0130
0000
0001
0000
,
1000
0000
0100
0000
,
1000
0000
0010
0000
,
0100
0010
2000
0000
,
3001
0000
0010
0000
,
0100
0000
1000
0000
,
0100
0000
1000
0000
,
0010
0100
0002
0000
,
0013
0000
0001
0000
,
1000
0000
0100
0000
,
0010
0000
0100
0000
,
1000
0000
0010
0000
,
1001
0000
0000
0000
,
0001
0000
0000
0000
,
0200
0000
0000
0000
,
0000
0000
0300
0000
,
0001
0000
0000
0000
,
1000
0000
0000
0000
,
0020
0000
0000
0000
,
0000
0000
0030
0000
,
0100
0000
0001
0000
,
0010
0000
0100
0000
,
0010
0000
0001
0000
,
1000
0001
1000
0000
,
0001
0000
0100
0000
,
0001
0000
1000
0000
,
0001
0000
0010
0000
,
0100
0000
0010
0001
,
1000
0000
0001
0000
,
1000
0000
0100
0000
,
0010
0000
0100
0000
,
1000
0010
0100
0000
,
0010
0000
1000
0000
,
0010
0000
0100
0000
,
2002
0000
0000
0000
,
3003
0000
0010
0000
,
1001
0000
0000
0000
,
0001
0000
0000
0000
,
1000
0000
1000
0000
,
1000
0000
0000
0000
,
0001
0000
0000
0000
,
1000
0000
0000
0000
,
0001
0000
0001
0000
,
0001
0000
0010
0100
,
1000
0000
0100
0000
,
1000
0000
0010
0000
,
0100
0000
0001
0000
,
0010
0000
0100
0010
,
0100
0000
1000
0000
,
0010
0000
0100
0000
,
0101
0000
0001
0000
,
1000
0000
0001
0010
,
0100
0000
0000
0000
,
0010
0000
0000
0000
,
0001
0000
1000
0000
,
0100
0000
0000
0000
,
0010
0000
0000
0000
,
0100
0000
0000
0000
,
0010
0000
0001
0000
,
1000
0000
0000
0000
,
0101
0000
0000
0000
,
1010
0000
0000
0000
,
1000
0000
0001
0000
,
0011
0000
0000
0000
,
1100
0000
0000
0000
,
0101
0000
0000
0000
,
0001
0000
0100
0000
,
0001
0000
1000
0000
,
0100
0000
1000
0000
,
0010
0000
0100
0000
,
0001
0000
0010
0000
,
0100
1000
0010
0000
,
0100
0000
0010
0000
,
1000
0000
0001
0000
,
0010
0000
0010
0000
,
0100
0000
0100
0000
,
0010
0001
0010
0000
,
0001
0000
0100
0000
,
0010
1000
0010
0000
,
1000
0000
0001
0000
,
1000
0100
1000
0000
,
0001
0100
0001
1000
,
2002
0000
0000
0000
,
0000
3003
0001
0100
,
0010
0000
0000
0100
,
0001
0000
0000
0010
,
0100
0000
0010
0000
,
0001
0000
0000
1000
,
0010
0000
0000
0100
,
0001
0000
0010
0000
,
0100
0000
0010
0001
,
1000
0000
0101
0000
,
0001
0000
1000
0000
,
0010
0000
0100
0000
,
0001
0000
1000
0000
,
0100
0000
0010
0000
,
0100
0000
1000
0000
,
0010
0000
0100
0000
,
0001
0000
0100
0000
,
1000
0000
0100
0000
,
0102
0000
0000
0000
,
0000
0000
0000
0000
,
0000
0000
0000
0000
,
0000
0000
0000
0000
,
0003
0000
0000
0000
,
0000
0000
0000
0000
,
0000
0000
0000
0000
,
0000
0000
0000
0000
,
1000
0000
0000
0000
,
0001
0000
0000
0000
,
0010
0000
0001
0000
,
0100
0000
0010
0000
,
1000
0000
0000
0000
,
0010
0000
0000
0000
,
0100
0000
0010
0000
,
1000
0000
0001
0200
,
0300
0000
0000
0000
;

//--------------- dance-single - Pandemonium X ----------------
#NOTES:
     dance-single:
     Pandemonium X:
     Medium:
     12:
     0,0,0,0,0:
0000
0000
0000
0000
,
0000
0000
0000
0000
,
0000
0000
0000
0000
,
0000
0000
0000
0000
,
0000
0000
0000
0000
,
0000
0000
0000
0000
,
0000
0000
0000
0000
,
0000
0000
0000
0000
,
0001
0000
0001
0000
,
1000
0000
1000
0000
,
0001
0100
0010
1000
,
0100
0001
0100
1000
,
0010
1000
0001
1000
,
0001
0010
0001
0000
2000
0000
0000
0000
,
3010
0100
0001
1000
,
0001
0100
1000
0100
,
0001
1000
0010
1000
,
0100
1000
0100
0000
0020
0000
0000
0000
,
0031
0100
1000
0100
,
0010
1000
0001
0010
,
0001
0010
1000
0010
,
0001
0010
0001
0000
2001
0000
0000
0000
,
3010
0100
0010
1000
,
0001
0010
1000
0010
,
0100
0010
0001
0100
,
1000
0100
0010
1000
,
0001
0000
0000
0000
,
1000
0000
0000
0000
,
0010
0000
0000
0010
0000
0000
0010
0000
,
0000
0100
0010
0000
,
0100
0000
0000
0000
,
0001
0000
0000
0000
,
0010
0000
0000
0010
0000
0000
0010
0000
,
0000
0010
0000
0100
,
0010
0001
0100
0000
,
0010
1000
0001
0000
,
1000
0100
0010
0100
,
1000
0001
0100
0001
,
0010
0100
0010
0001
,
0100
0010
1000
0001
,
1000
0000
0000
0001
0010
0000
0000
0010
,
0100
0000
0000
0100
1000
0000
0000
0000
,
0001
0100
0001
0010
,
0001
0100
0010
1000
,
0010
0100
0010
1000
,
0001
0010
0100
0010
,
0001
0100
1000
0100
,
0001
0010
1000
0010
,
0001
0100
0000
0010
0000
0000
0100
0001
,
2000
0000
3002
0000
,
0013
0000
0000
0000
,
0100
0000
0000
0000
,
0010
0000
0001
0000
,
0100
0000
0010
0000
,
1000
0001
0010
0000
,
0100
0000
0010
0000
,
0011
0000
1001
0000
,
1100
0000
1000
0020
,
0130
0010
1000
0100
,
0000
0010
0001
0100
,
0002
0000
2003
0000
,
3100
0010
0001
0100
,
0000
0010
0100
0001
,
0000
1000
0100
0010
,
0000
0100
1000
0010
,
0100
0001
0001
0001
,
1001
0000
0000
0001
,
0100
0000
0000
0001
,
1000
0000
0000
0100
0000
0010
0000
0100
,
1000
0000
0000
0100
,
1000
0000
0000
0010
,
0100
0001
0000
1000
0000
0000
0001
0000
,
0010
0000
0000
0100
0000
0000
1000
0000
0001
0000
1000
0000
,
0100
0000
0000
0010
,
0100
0100
1000
0010
,
0100
0100
0010
1000
,
0001
0001
0010
0100
,
0010
0010
0001
1000
,
0001
0001
0100
0010
,
1000
1000
0010
0100
,
0001
0100
1000
0100
,
0001
0010
1000
0010
,
0001
1000
0100
0010
,
0000
0100
1000
0010
,
0000
0100
0001
0010
,
0100
0010
0001
1000
,
0010
1000
0001
0010
,
0100
1000
0100
1000
,
0020
0000
0230
0000
,
0302
0000
1003
0100
,
0010
0001
0101
0001
,
0000
0100
0110
0010
,
0000
1000
0001
0010
,
0110
0100
1100
1000
,
0001
0100
1000
0100
,
0001
0010
1000
0010
,
0001
0100
0000
0010
0000
0000
0100
0001
,
2000
0000
3100
0010
,
0011
0000
0000
0000
0000
0000
0001
0100
,
0010
0000
0000
0100
,
0010
0000
1000
0001
0000
0010
0000
0100
,
0010
0000
0000
0000
0000
0000
0001
0010
,
0100
0000
0000
0000
0000
0000
0010
0001
,
0100
0010
0000
0100
0000
0000
0010
1000
,
0001
0000
0000
1000
0000
0000
0001
0000
0010
0000
0100
0000
,
1000
0000
1100
0000
,
0001
0100
0010
1000
,
0001
0010
0100
0010
,
0001
0100
0010
1000
,
0001
0010
0100
0010
,
0001
0100
0010
1000
,
0001
0010
0100
1000
,
0100
0001
0100
1000
,
0010
0001
0010
1000
,
2002
0000
0000
0000
,
0000
0000
0000
0000
,
0000
0000
0000
0000
,
0000
0000
0000
0000
,
3003
0000
0000
0000
,
0000
0000
0000
0000
,
0000
0000
0000
0000
,
0000
0000
0000
0000
,
0001
0100
0010
0100
,
0010
1000
0010
1000
,
0001
0010
0100
0010
,
0001
1000
0100
0010
,
0001
0100
0010
1000
,
0001
0100
0010
1000
,
0001
0000
0000
1000
0100
0000
0000
0100
,
0010
0000
0010
0001
0100
0010
1000
0100
;

//--------------- dance-single - Pandemonium X ----------------
#NOTES:
     dance-single:
     Pandemonium X:
     Hard:
     16:
     0,0,0,0,0:
0000
0000
0000
0000
,
0000
0000
0000
0000
,
0000
0000
0000
0000
,
0000
0000
0000
0000
,
0000
0000
0000
0000
,
0000
0000
0000
0000
,
0000
0000
0000
0000
,
0000
0000
0000
0000
,
0010
0000
0010
0000
,
0010
0000
0010
0000
,
1001
0001
0100
0000
0010
1000
0100
0000
,
0010
0001
1000
0000
0001
0010
0100
0000
,
0010
0001
1000
0000
0100
0010
0001
0000
,
0010
0100
1000
0000
0021
0000
0000
0000
,
0130
1000
0001
0000
1000
0001
0010
0000
,
0100
1000
0010
0000
0100
0001
0010
0000
,
0100
0010
0001
0000
0010
0100
1000
0000
,
0100
1000
0010
0000
1020
0000
0000
0000
,
0130
0001
0100
0010
1000
0000
1100
0000
,
0100
0010
0100
1000
0010
0000
0101
0000
,
0001
0100
0001
0010
0100
0000
0110
0000
,
0100
1000
0001
0100
0001
0010
0100
1000
,
0001
0100
0001
1000
0100
0000
0011
0000
,
0001
0010
0001
0100
0010
0000
1001
0000
,
0001
0100
0010
1000
0001
0010
0100
1000
,
0001
0100
1000
0100
0001
0010
1000
0010
,
0001
0000
0000
1000
0000
1000
0000
0000
,
0010
0000
0000
0100
0000
0100
0000
0000
,
0010
0000
0000
1000
0000
0000
0001
0000
,
0000
0110
0110
0000
,
0001
0000
0000
0010
0000
0010
0000
0000
,
0001
0000
0000
1000
0000
1000
0000
0000
,
0101
0000
0000
0110
0000
0000
1001
0000
,
0000
1100
0000
0110
,
0010
0001
0100
0001
1000
0100
0010
0100
,
0000
0000
1000
0010
0100
0001
1000
0001
,
0000
0000
1000
0010
1000
0100
0010
0001
,
0010
1000
0010
0001
0100
0010
1000
0001
,
1000
0010
0001
0010
0100
0001
1000
0100
,
0010
0001
0010
1000
0010
0100
0010
0001
,
0100
0000
0000
0010
1000
0010
0100
0000
0000
0010
0100
0010
,
1000
0000
0000
0000
0000
0000
0001
0000
0010
0000
0100
0000
0010
0000
0000
0001
0000
0000
0010
0000
0000
0100
0000
0000
,
1000
0100
0010
0001
0100
0001
1000
0010
,
0000
0100
1000
0100
0001
0100
0010
1000
,
0000
0001
0010
0100
0001
0100
0010
0001
,
0100
0010
0100
0001
1000
0100
0010
0100
,
1000
0100
0001
0100
1000
0010
0100
0001
,
1000
0010
0001
0010
0100
0010
1000
0100
,
0010
0100
0000
2001
0000
3001
1000
0100
,
0020
0000
0000
0000
,
0130
0000
0000
0000
,
1000
0000
0000
0000
,
0010
0000
0100
0000
,
0001
0000
0010
0000
,
0100
0000
0000
0000
,
0010
0000
0000
0000
,
0001
0000
0000
1000
0100
1000
0010
0000
0000
0100
0001
0100
,
0001
0010
0100
0010
0001
1000
0020
0000
,
0130
0001
0010
0100
1000
0010
1000
0001
,
0000
1000
0010
0100
0001
0010
0100
0010
,
0001
0000
0000
0010
0001
0010
0100
0000
0000
0010
0100
0010
,
0001
0010
0001
1000
0100
0010
0100
1000
,
0000
0001
0100
0010
1000
0100
0010
0100
,
0000
0010
0001
1000
0100
0010
0100
1000
,
0000
0001
0100
0010
1000
0001
0010
0100
,
0010
0001
0010
0000
0010
0000
0010
0000
,
1001
0000
0000
0000
0000
0000
1000
0100
,
0010
0000
0000
0010
,
0100
0000
1000
0100
0000
1000
0000
1000
,
0001
0000
0000
0000
0000
0000
0001
0100
,
0010
0000
0000
0000
0000
0000
0000
0000
0000
0000
0000
0000
0000
0000
0000
0000
0100
0000
0010
0000
0000
0100
0000
0000
,
0001
0000
0000
0010
0000
0000
0000
0000
0000
0001
0000
0000
0000
0000
0000
0000
0000
0000
0010
0000
0100
0000
1000
0000
,
0001
0000
0000
1000
0000
0000
0001
0000
1000
0000
0001
0000
,
0010
0000
0000
0000
0000
0000
0100
1000
,
0010
0010
0100
0001
,
1000
1000
0001
0010
,
0100
0100
0010
0001
,
1000
0000
1000
0000
0001
0000
1000
0100
,
0010
0000
0100
0000
1000
0000
0010
0100
,
0001
0000
0100
0010
0000
0010
1000
0001
,
1000
0100
1000
0000
0001
0010
0001
0000
,
0100
0001
0100
0001
1000
0010
1000
0010
,
0100
0001
0010
0001
1000
0100
0010
0001
,
0000
0010
0001
1000
0010
1000
0001
0010
,
0000
0000
0100
0010
0001
0100
0010
1000
,
0001
0010
1000
0010
0001
0010
0100
1000
,
0000
0000
0000
0001
0000
0000
0100
0000
0000
0010
0000
0000
1000
0000
0001
0000
1000
0000
0100
0000
0000
0010
0000
0000
,
0000
0000
0000
0000
0000
0000
0100
0000
0000
0010
0000
0000
0001
0000
0010
0000
0001
0000
0100
0000
0000
0010
0000
0000
,
0100
0000
0000
0010
1000
0001
0010
0000
0000
0100
1000
0001
,
0100
0000
0000
0000
0000
0000
0010
0000
0100
0000
0001
0000
0010
0000
0000
1000
0000
0000
0010
0000
0000
0001
0000
0000
,
1000
0100
0001
0100
1000
0010
0100
0001
,
0000
1000
0010
0001
0010
0100
0001
1000
,
0000
0000
0001
0100
1000
0100
0010
1000
,
0001
0010
1000
0010
0001
0010
0100
1000
,
0001
0000
0000
1000
0000
0000
0100
0000
0000
0010
0000
0000
0001
0000
0010
0000
0001
0000
1000
0000
0000
0010
0000
0000
,
1000
0000
0000
0100
0000
0000
0010
0000
0000
0100
0000
0000
1000
0000
0100
0000
1000
0000
0010
0000
0000
0100
0000
0000
,
0001
1000
0000
0110
0000
1000
0001
0010
,
0200
0000
0000
0000
1300
0100
0010
0001
,
1001
0000
0001
0000
0100
0000
0010
1000
,
0100
0010
0001
0100
,
0010
0000
1000
0001
0000
0010
0000
1000
,
0010
0000
0001
0000
0100
0000
0001
1000
,
0100
0000
0000
0010
0000
0000
0100
0000
0000
1000
0100
1000
,
0001
0000
0000
0100
0000
0000
0000
0000
0000
0011
0000
0000
0000
0000
0000
0000
0000
0000
0010
0000
0100
0000
1000
0000
,
0100
0000
0000
1100
0000
0000
0001
0000
1000
0000
0100
0000
,
0020
0000
0230
0000
,
1300
0010
0100
0000
0001
1000
0100
0000
,
1000
0010
0100
0000
0001
0010
0100
0000
,
1000
0100
0010
0000
0001
0010
0100
0000
,
0010
0001
0100
0000
0100
0010
1000
0000
,
1000
0001
0100
0000
0010
1000
0100
0000
,
0010
0001
0100
0000
0010
1000
0001
0000
,
0010
0100
1000
0001
0010
0100
0010
0001
,
1000
0100
0001
0100
1000
0010
0001
0010
,
2000
0000
0000
0000
,
0000
0000
0000
0000
,
0000
0000
0000
0000
,
0000
0000
0000
0000
,
3000
0000
0000
0000
,
0000
0000
0000
0000
,
0000
0000
0000
0000
,
0000
0000
0000
0000
,
0001
0100
0010
1000
0100
0001
0100
1000
,
0000
0000
0100
0010
0100
0001
0100
1000
,
0000
0000
0100
0010
0001
0100
0010
1000
,
0001
0010
1000
0010
0001
0100
1000
0100
,
0001
0100
0010
1000
0001
0010
0100
0010
,
0001
1000
0010
0100
0001
1000
0100
0010
,
0100
0000
0000
0010
0001
0100
0010
0000
0000
0100
0010
1000
,
0100
0000
0000
0000
0000
0000
0010
0000
0100
0000
1000
0000
0001
0000
0000
0100
0000
0000
0001
0000
0000
0010
0000
0000
;

//--------------- dance-double - Pandemonium X ----------------
#NOTES:
     dance-double:
     Pandemonium X:
     Easy:
     9:
     0,0,0,0,0:
00000000
00000000
00000000
00000000
,
00000000
00000000
00000000
00000000
,
00000000
00000000
00000000
00000000
,
00000000
00000000
00000000
00000000
,
00000000
00000000
00000000
00000000
,
00000000
00000000
00000000
00000000
,
00000000
00000000
00000000
00000000
,
00000000
00000000
00000000
00000000
,
00010000
00000000
00001000
00000000
,
00010000
00000000
00001000
00000000
,
01000000
00000000
00001000
00000000
,
00010000
00000000
00000100
00000000
,
00001000
00000000
00000010
00000000
,
00000100
00000010
00001001
00000000
,
00000001
00000000
00000010
00000000
,
00000001
00000000
00001000
00000000
,
00000100
00000000
00010000
00000000
,
00001000
01000000
01100000
00000000
,
01000000
00000000
00010000
00000000
,
00100000
00000000
00001000
00000000
,
00010000
00000000
00000010
00000000
,
00000100
00000010
00001001
00000000
,
00000001
00000000
00000010
00000000
,
00000100
00000000
00001000
00000000
,
00000100
00000000
00010000
00000000
,
00001000
00000000
01000000
00000000
,
10010000
00000000
00000000
00000000
,
10000000
00000000
00000000
00000000
,
00010000
00000000
00000000
00000000
,
00000000
00000000
00000000
00000000
,
00100000
00000000
00000000
00000000
,
00001000
00000000
00000000
00000000
,
00010000
00000000
00000000
00000000
,
00000000
00000000
00000000
00000000
,
00000100
00001000
00000100
00000000
,
00001000
00000000
00000010
00000000
,
00000100
00000000
00000001
00000000
,
00000010
00000100
00001000
00000000
,
00000100
00010000
00001000
00000000
,
00010000
00001000
01000000
00000000
,
00100000
00000000
00010000
00000000
,
00100000
00000000
10000000
00000000
,
00010000
00100000
00010000
00000000
,
10000000
01000000
10000000
00000000
,
00010000
01000000
00010000
00100000
,
00001000
00010000
00000010
00000000
,
00000100
00000010
00001000
00000000
,
00000001
00000010
00000100
00000000
,
00001200
00000000
00000000
00000000
,
00000000
00000000
00020300
00000000
,
00031000
00000000
00000000
00000000
,
00010000
00000000
00000000
00000000
,
00001000
00000000
00010000
00000000
,
00001000
00000000
00000000
00000000
,
00010000
00000000
00000000
00000000
,
00001000
00000000
00000000
00000000
,
00010000
00000000
00001000
00000000
,
00010000
00000000
00001000
00100000
,
00010000
00000000
00100000
00000000
,
01000000
00000000
10000000
00000000
,
10010000
00000000
01010000
00000000
,
00110000
00000000
00101000
00000000
,
00010000
00000000
00000100
00000000
,
00001000
00000000
00000010
00000000
,
00000200
00000000
00000000
00000000
,
00000000
00000310
00000100
00000001
,
00001001
00000000
00000000
00000001
,
00000001
00000000
00000000
00001000
,
00000100
00000000
00000000
00010000
00000000
00001000
00000000
00000000
,
01000000
00000000
00000000
00100000
,
10000000
00000000
00000000
01000000
,
10000000
00000000
00000000
00010000
00000000
00000000
00100000
00000000
,
01000000
00100000
00002000
00000000
,
00013000
00000000
00000000
00000000
,
00000100
00000000
00001000
00000000
,
00000010
00000000
00000100
00000000
,
00000001
00000000
00000010
00000000
,
00000100
00000000
00001000
00000000
,
00000100
00000000
00010000
00000000
,
00001000
00000000
01000000
00000000
,
00100000
10000000
00100000
00000000
,
01000000
00010000
01000000
00000000
,
00000000
00010000
00100000
01000000
,
00000000
00100000
00001000
00010000
,
00000000
00000100
00001000
00000010
,
00000100
00000001
00000010
00000000
,
00000100
00000010
00000001
00000000
,
00000010
00000100
00001000
00000000
,
00001100
00000000
00010100
00000000
,
00011000
00000000
01001000
00000000
,
00001000
01000000
00100000
00000000
,
01000000
00010000
00100000
00000000
,
01000000
00100000
00010000
00100000
,
00001000
00010000
00000100
00000000
,
00001000
00000010
00000100
00000000
,
00000001
00000010
00000100
00000000
,
00000011
00000000
00001100
00000000
,
00002002
00000000
00000000
00003003
,
00000101
00000000
00000000
00000001
,
00001000
00000000
00000000
00000100
,
00010000
00000000
00000000
00001000
00000000
00001000
00000000
00000000
,
01000000
00000000
00000000
00100000
,
10010000
00000000
00000000
10000000
,
01000000
00000000
00000000
10000000
00000000
00000000
00100000
00000000
,
01000000
00010000
00200000
00000000
,
00301000
00000000
00011000
00000000
,
00010000
00000100
00001000
00000000
,
00000010
00000100
00000001
00000000
,
00000010
00000100
00001000
00000000
,
00000100
00010000
00001000
00000000
,
00010000
00001000
01000000
00000000
,
00001000
01000000
00100000
00000000
,
01100000
00000000
00110000
00000000
,
10100000
00000000
01010000
00000000
,
20020000
00000000
00000000
00000000
,
00000000
00000000
00000000
00000000
,
00000000
00000000
00000000
00000000
,
00000000
00000000
00000000
00000000
,
30030000
00000000
00000000
00000000
,
00000000
00000000
00000000
00000000
,
00000000
00000000
00000000
00000000
,
00000000
00000000
00000000
00000000
,
10000000
00000000
00010000
00000000
,
00100000
00000000
00001000
00000000
,
00010000
00000000
00000010
00000000
,
00000100
00000010
00001001
00000000
,
00000001
00000000
00000010
00000000
,
00000100
00000000
00001000
00000000
,
00000100
00000000
00010000
00000000
,
00001000
00000000
01000000
00200000
,
00300000
00000000
00000000
00000000
;

//--------------- dance-double - Pandemonium X ----------------
#NOTES:
     dance-double:
     Pandemonium X:
     Medium:
     13:
     0,0,0,0,0:
00000000
00000000
00000000
00000000
,
00000000
00000000
00000000
00000000
,
00000000
00000000
00000000
00000000
,
00000000
00000000
00000000
00000000
,
00000000
00000000
00000000
00000000
,
00000000
00000000
00000000
00000000
,
00000000
00000000
00000000
00000000
,
00000000
00000000
00000000
00000000
,
00010000
00000000
00001000
00000000
,
00010000
00000000
00001000
00000000
,
01000000
00100000
10000000
00010000
,
00100000
00000000
00001000
00000000
00010000
00000000
00000010
00000100
,
00000010
00000100
00000001
00001000
,
00000100
00010000
00001000
00000000
00012000
00000000
00000000
00000000
,
00103000
00010000
01000000
00100000
,
10000000
00000000
00010000
00000000
00100000
00000000
00001000
00010000
,
00001000
00010000
00000100
00001000
,
00000010
00000100
00000010
00000000
00000120
00000000
00000000
00000000
,
00010030
00000100
00001000
00000010
,
00000100
00000000
00000001
00000000
00001000
00000000
00000100
00010000
,
00000100
00010000
00001000
01000000
,
00100000
10000000
00010000
00000000
00210000
00000000
00000000
00000000
,
00301000
00010000
00000100
00001000
,
00000010
00000000
00000100
00000000
00000001
00000000
00001000
00000100
,
00001000
00000100
00010000
00001000
,
01000000
00001000
01000000
00001000
01000000
00100000
01000000
00100000
,
10000000
00000000
00000000
00010000
00000000
00010000
00000000
00000000
,
00100000
00000000
00000000
01000000
00000000
01000000
00000000
00000000
,
00100000
00000000
00000000
00010000
00000000
00000000
00001000
00000000
,
00000000
00000100
00000110
00000000
,
00000001
00000000
00000000
00000100
00000000
00000100
00000000
00000000
,
00000010
00000000
00000000
00000100
00000000
00000100
00000000
00000000
,
00001000
00000000
00000000
00010000
00000000
00000000
01000000
00000000
,
00000000
00100000
00000000
01000000
,
10010000
00010000
00100000
00001000
,
00010000
00000100
00001000
00000010
,
00000100
00000001
00000010
00000100
,
00010000
00001000
01000000
00000000
01020000
00000000
00000000
00000000
,
10030000
00010000
00100000
00001000
,
00010000
00000010
00000100
00000001
,
00000010
00000000
00000000
00000001
00000010
00000000
00000000
00000010
,
00000100
00000000
00000000
00000100
00010000
00000000
00001000
00000000
,
00100000
00000000
00010000
00000000
01000000
00100000
01000000
00000000
,
00100000
00000000
10000000
00000000
00010000
00100000
00010000
00000000
,
00100000
00001000
00010000
00000010
,
00000100
00000001
00000100
00000000
00000021
00000000
00000000
00000000
,
00000130
00000000
00000010
00000000
00000001
00000010
00000100
00000000
,
00000010
00000000
00000001
00000000
00001000
00000100
00010000
00000000
,
00001000
01000000
00000000
00100000
00000000
00000000
10000000
00010000
,
00200000
00000000
01300000
10000000
,
10010000
00000000
00010000
00000000
,
00100000
00000000
00001000
00000000
,
00010000
00000000
00000100
00000000
,
00001000
00000000
00000010
00000000
,
00000100
00000001
00000010
00000000
,
00001000
00000010
00000001
00000000
,
00000011
00000000
00000110
00000000
,
00001100
00000000
00010100
00002000
,
01003000
00100000
10000000
00010000
,
00100000
00001000
00010000
00000100
,
00001000
00000000
00000010
00001000
00000010
00000000
00000100
00000001
,
00000100
00000001
00001000
00000200
,
00010300
00010000
00001000
01000000
,
00001000
00001000
00010000
00000100
,
00010000
00000100
00001000
00000010
,
00000100
00000001
00000001
00000001
,
00001001
00000000
00000000
00000000
00000000
00000000
00000001
00000010
,
00000100
00000000
00000000
00000010
,
00000100
00000000
00000100
00001000
00000000
00000100
00000000
00010000
,
00001000
00000000
00000000
00000000
00000000
00000000
00010000
00001000
,
00100000
00000000
00000000
00000000
00000000
00000000
01000000
00100000
,
00010000
10000000
00000000
00010000
00000000
00000000
01000000
00010000
,
00100000
00000000
00000000
00001000
00000000
00000000
00010000
00000000
00000100
00000000
00010000
00000000
,
00001000
00000000
00000000
00000000
00000000
00000000
00010000
00000100
,
00001000
00001000
00000010
00000100
,
00000001
00000001
00000010
00000100
,
00001000
00001000
00000100
00010000
,
00001000
00001000
01000000
00100000
,
10000000
10000000
00010000
00100000
,
01000000
01000000
00100000
00001000
,
00010000
00001000
00010000
00000000
00000100
00001000
00000100
00000000
,
00001000
00000010
00001000
00000000
00000001
00000100
00000001
00000000
,
00001001
00001000
00000100
00010000
,
00001000
01000000
00100000
10000000
,
00010000
00100000
01000000
00100000
,
00010000
00100000
01000000
10000000
,
00010000
00100000
00001000
00010000
,
00000010
00001000
00000010
00000100
,
00000001
00000000
00000000
00000010
00000100
00000000
00000000
00000100
,
00001000
00000000
00000000
00000100
00010000
00000000
00001000
00000000
,
01000000
00000000
00100000
00000000
10000000
00010000
10000000
00000000
,
00010000
00000000
00100000
00000000
00001000
00100000
00001000
00000000
,
00100000
00001000
00010000
00000100
,
00001000
00000010
00000100
00000000
00000102
00000000
00000000
00000000
,
00000013
00000000
00000001
00000000
00001000
00000100
00000010
00000000
,
00000100
00000000
00000010
00000000
00000001
00001000
00000100
00000000
,
00001000
00000100
00000000
00011000
00000000
00000000
00001000
01000000
,
00200000
00000000
00000000
00000000
01300000
00010000
00100000
01000000
,
10000000
00000000
00000000
00000000
00000000
00000000
01000000
10000000
,
00100000
00000000
00000000
01000000
,
00001000
00000000
00010000
00000100
00000000
00001000
00000000
00000010
,
00000100
00000000
00000000
00000000
00000000
00000000
00000010
00000100
,
00000001
00000000
00000000
00000000
00000000
00000000
00000010
00000100
,
00000010
00000001
00000000
00001000
00000000
00000000
00000100
00010000
,
00001000
00000000
00000000
00010000
00000000
00000000
00001000
00000000
01000000
00000000
00100000
00000000
,
10000000
00000000
10010000
00000000
,
10000000
01000000
00100000
00001000
,
00010000
00000100
00000010
00000001
,
00001000
00000010
00010000
00001000
,
01000000
00100000
10000000
00010000
,
00100000
00001000
00010000
00000010
,
00000100
00000001
00000010
00000100
,
00001000
00000100
00001000
00000000
00000100
00010000
00000100
00000000
,
00010000
00001000
00010000
00000000
00001000
01000000
00001000
00000000
,
20200000
00000000
00000000
00000000
,
00000000
00000000
00000000
00000000
,
00000000
00000000
00000000
00000000
,
00000000
00000000
00000000
00000000
,
30300000
00000000
00000000
00000000
,
00000000
00000000
00000000
00000000
,
00000000
00000000
00000000
00000000
,
00000000
00000000
00000000
00000000
,
00010000
00100000
00001000
00010000
,
00000010
00000100
00000001
00000000
00001000
00000000
00000001
00000010
,
00000100
00000010
00000001
00000100
,
00000010
00010000
00001000
00000000
00021000
00000000
00000000
00000000
,
00030100
00000000
00010000
00000000
00001000
01000000
00001000
00000000
,
01000000
00000000
00100000
00000000
10000000
00100000
10000000
00000000
,
00010000
00000000
00000000
00010000
00100000
00000000
00000000
00100000
,
01000000
00000000
01000000
00100000
00001000
00010000
00000010
00010000
;

//--------------- dance-double - Pandemonium X ----------------
#NOTES:
     dance-double:
     Pandemonium X:
     Hard:
     17:
     0,0,0,0,0:
00000000
00000000
00000000
00000000
,
00000000
00000000
00000000
00000000
,
00000000
00000000
00000000
00000000
,
00000000
00000000
00000000
00000000
,
00000000
00000000
00000000
00000000
,
00000000
00000000
00000000
00000000
,
00000000
00000000
00000000
00000000
,
00000000
00000000
00000000
00000000
,
00001010
00000000
00110000
00000000
,
00001010
00000000
00011000
00000000
,
00001000
01000000
00001000
01000000
00001000
01000000
00001000
01000000
,
00100000
01000000
00100000
01000000
00100000
01000000
00100000
01000000
,
00010000
10000000
00010000
10000000
00010000
10000000
00010000
10000000
,
00010000
00100000
00001000
00000000
00010200
00000000
00000000
00000000
,
00001300
00000010
00001000
00000010
00001000
00000010
00001000
00000010
,
00000100
00000010
00000100
00000010
00000100
00000010
00000100
00000010
,
00000100
00000001
00000100
00000001
00000100
00000001
00000100
00000001
,
00001000
00000010
00010000
00000000
00012000
00000000
00000000
00000000
,
01003000
00100000
10000000
00010000
00100000
00001000
00010000
00000100
,
00001000
00000010
00000100
00000001
00000010
00000100
00001000
00000100
,
00010000
00001000
01000000
00010000
00100000
00001000
00010000
00000100
,
00001000
00000010
00010000
00000000
00021000
00000000
00000000
00000000
,
00030100
00010000
00001000
01000000
00100000
10000000
00010000
00100000
,
00001000
00010000
00000100
00001000
00000010
00000100
00000001
00000010
,
00000100
00010000
00001000
01000000
00100000
10000000
00010000
00100000
,
00010000
00100000
00010000
01000000
00001000
00010000
00001000
00100000
00001000
00010000
00001000
00010000
,
00000200
00000000
00000000
00010000
00000000
00010300
00000000
00000000
,
00012000
00000000
00000000
01000000
00000000
01003000
00000000
00000000
,
10100000
00000000
00000000
01010000
00000000
00000000
00210000
00000000
,
00000000
01300000
10010000
00000000
,
00210000
00000000
00000000
00001000
00000000
00301000
00000000
00000000
,
00021000
00000000
00000000
00000100
00000000
00030100
00000000
00000000
,
00001100
00000000
00000000
00000110
00000000
00000000
00000011
00000000
,
00000000
00001001
00000000
00000001
,
00001000
00000010
00010000
00001000
00100000
00001000
00010000
00000100
,
00000000
00000000
00010000
00001000
01000000
00100000
10000000
01000000
,
00000000
00000000
00100000
00001000
00010000
00000010
00000100
00000001
,
00000010
00001000
00000010
00000001
00000010
00000100
00010000
00001000
,
00010000
00000000
00000000
00001000
00000000
00000000
01000000
00000000
00000000
00100000
00000000
00000000
10000000
00000000
01000000
00000000
00100000
00000000
00010000
00000000
00000000
10000000
00000000
00000000
,
00100000
00000000
00000000
01000000
00000000
00000000
00010000
00000000
00000000
00100000
00000000
00000000
00001000
00000000
00010000
00000000
00000100
00000000
00001000
00000000
00000000
00000010
00000000
00000000
,
00000200
00000000
00000000
00000310
00001000
00000100
00020000
00000000
00000000
00031000
01000000
00010000
,
00200000
00000000
00000000
01300000
10000000
00010000
10000000
01000000
00100000
00010000
10000000
01000000
,
00100000
00001000
00010000
00000010
00000100
00001000
00000100
00000001
,
00001000
00000100
00010000
00001000
00100000
10000000
00100000
00010000
,
10000000
00010000
00100000
00001000
00010000
00000010
00000001
00000010
,
00000100
00001000
00000100
00000001
00000010
00000100
00001000
00000100
,
00010000
00000000
00000000
00001000
00000000
00000000
01000000
00000000
00000000
00100000
00000000
00000000
10000000
00000000
01000000
00000000
00100000
00000000
01000000
00000000
10000000
00000000
00010000
00000000
,
01000000
00000000
00000000
00100000
00000000
00000000
10000000
00000000
00000000
00010000
00000000
00000000
00100000
00000000
00001000
00000000
00010000
00000000
00000100
00000000
00001000
00000000
00000010
00000000
,
00000100
00000010
00000000
00000020
00000000
00000130
00001000
00000100
,
00000002
00000000
00000000
00000000
00000000
00000000
00001003
00000100
00000010
00000001
00001000
00000100
,
00000010
00000000
00000000
00000000
,
00000001
00000000
00000000
00000000
,
00000100
00000000
00001000
00000000
,
00010000
00000000
00100000
00000000
,
01000000
00010000
10000000
00000000
,
10000000
01000000
00100000
00000000
,
00011000
00000000
00001100
00000000
,
00000110
00000000
00000011
00000200
,
00010300
00001000
00100000
00001000
00010000
00000010
00000100
00000010
,
00000000
00000100
00000010
00010000
00001000
00100000
00010000
10000000
,
02000000
00000000
00000000
03100000
00001000
00010000
00000020
00000000
00000000
00000130
00000010
00010000
,
00001000
01000000
00100000
00010000
00100000
10000000
00010000
00100000
,
00001000
00010000
00000100
00001000
00000010
00000100
00000001
00000010
,
00000000
00000100
00000001
00000100
00001000
00000100
00010000
00001000
,
00000000
00010000
00001000
01000000
00100000
10000000
00010000
00100000
,
00001000
00010000
00011000
00000000
00011000
00000000
00011000
00000000
,
00011000
00000000
00000000
00000000
00000000
00000000
00000100
00010000
,
00001000
00000000
00000000
00010000
,
00001000
00000000
01000000
00100000
00000000
10000000
00000000
00010000
,
00100000
00000000
00000000
00000000
00000000
00000000
00100000
00001000
,
00010000
00000000
00000000
00000000
00000000
00000000
00000000
00000000
00000100
00010000
00000010
00000100
,
00000001
00000000
00000000
00001000
00000000
00000000
00000000
00000000
00000000
00000100
00000000
00000000
00000000
00000000
00000000
00000000
00000000
00000000
00000010
00000000
00000001
00000000
00001000
00000000
,
00000001
00000000
00000000
00001000
00000000
00000000
00000100
00000000
00010000
00000000
00001000
00000000
,
01000000
00000000
00000000
00000000
00000000
00000000
00100000
10000000
,
10010000
10000000
01000000
00100000
,
00010000
00100000
00001000
00010000
,
00000100
00001000
00000010
00000001
,
00000010
00000000
00000100
00000000
00000001
00000000
00000001
00000100
,
00000010
00000000
00001000
00000000
00000100
00000000
00010000
00001000
,
01000000
00000000
01000000
00100000
00000000
00100000
10000000
00010000
,
00100000
01000000
10000000
00010000
01000000
00001000
00010000
00000100
,
00001000
00000000
00000100
00000000
00000010
00000000
00000100
00000000
00000000
00000010
00000000
00000000
00000001
00000000
00000010
00000000
00000001
00000000
00001000
00000000
00000000
00000001
00000000
00000000
,
00001000
00000010
00000100
00000010
00010000
00001000
01000000
00001000
,
00000000
00000000
00010000
00000100
00001000
00000010
00010000
00001000
,
00000000
00000000
00010000
00001000
01000000
00100000
10000000
00010000
,
00100000
01000000
10000000
01000000
00100000
00001000
00010000
00000100
,
00000000
00000000
00000000
00000000
00000000
00000000
00001000
00000000
00000000
00000010
00000000
00000000
00000100
00000000
00000001
00000000
00000100
00000000
00000001
00000000
00001000
00000000
00000100
00000000
,
00000000
00000000
00000000
00000000
00000000
00000000
00010000
00000000
00000000
00001000
00000000
00000000
01000000
00000000
00010000
00000000
01000000
00000000
00010000
00000000
00100000
00000000
00010000
00000000
,
20000000
00000000
00000000
31000000
00100000
00010000
00200000
00000000
00000000
00301000
00010000
00000100
,
00020000
00000000
00030010
00000100
00000001
00000010
00001000
00000010
,
00000011
00000001
00000100
00000010
00001000
00000100
00010000
00011000
,
00000000
00000000
00001000
01000000
00100000
10000000
00010000
00110000
,
00000000
00000000
00100000
10000000
00100000
00010000
00001000
00000100
,
00001000
00000010
00000001
00000010
00000100
00000001
00001000
00000100
,
00010000
00000000
00000000
00001000
00000000
00000000
01000000
00000000
00000000
00100000
00000000
00000000
10000000
00000000
01000000
00000000
10000000
00000000
00010000
00000000
01000000
00000000
00010000
00000000
,
10000000
00000000
00000000
00010000
00000000
00000000
00100000
00000000
00000000
00001000
00000000
00000000
00010000
00000000
00000100
00000000
00001000
00000000
00000010
00000000
00000100
00000000
00000001
00000000
,
00001000
00000100
00000000
00012000
00000000
01003000
00010000
00100000
,
02100000
00000000
00000000
00000000
13000000
01000000
00100000
00010000
,
00011000
00000000
00010000
00000000
00000100
00000000
00001000
00000010
,
00000110
00000001
00000010
00000110
,
00001100
00000000
00001000
00101000
00000000
00110000
00000000
00010000
,
10010000
00000000
00010000
00000000
01000000
00000000
00100000
10000000
,
11000000
00000000
00000000
01000000
00000000
00000000
00100000
00000000
00000000
00001000
00010000
00000100
,
00001000
00000000
00000000
00000010
00000000
00000000
00000000
00000000
00000000
00000101
00000000
00000000
00000000
00000000
00000000
00000000
00000000
00000000
00000001
00000000
00000000
00000000
00001000
00000000
,
00000100
00000000
00000000
00000011
00000000
00000000
00000001
00000000
00000100
00000000
00000010
00000000
,
00001000
00000000
00011000
00000000
,
00001000
01000000
00010000
00100000
00001000
00010000
00000010
00010000
,
00001000
01000000
00100000
10000000
00010000
00100000
00001000
00010000
,
00000010
00010000
00001000
01000000
00100000
10000000
00010000
00100000
,
00001000
00010000
00000010
00000100
00000010
00010000
00001000
01000000
,
00001000
00010000
00000100
00001000
00000010
00000100
00000001
00000010
,
00000100
00010000
00001000
01000000
00100000
10000000
00010000
00100000
,
00001000
00000000
00010000
00000000
00000100
00000000
00010000
00000000
00000000
00001000
00000000
00000000
00100000
00000000
00001000
00000000
00010000
00000000
00001000
00000000
00000000
00010000
00000000
00000000
,
00000100
00000000
00010000
00000000
00001000
00000000
01000000
00000000
00000000
00100000
00000000
00000000
10000000
00000000
00010000
00000000
00100000
00000000
00001000
00000000
00000000
00010000
00000000
00000000
,
00022000
00000000
00000000
00000000
,
00000000
00000000
00000000
00000000
,
00000000
00000000
00000000
00000000
,
00000000
00000000
00000000
00000000
,
00033000
00000000
00000000
00000000
,
00000000
00000000
00000000
00000000
,
00000000
00000000
00000000
00000000
,
00000000
00000000
00000000
00000000
,
00010000
00000100
00001000
00000010
00000100
00000001
00000010
00000100
,
00000000
00000000
00000010
00000001
00001000
00000100
00010000
00001000
,
00000000
00000000
00010000
00001000
01000000
00100000
10000000
00010000
,
00100000
10000000
00100000
00010000
01000000
00001000
00010000
00000100
,
00001000
00000000
00000000
00000010
00000000
00000000
00000100
00000000
00000000
00000001
00000000
00000000
00000010
00000000
00000100
00000000
00001000
00000000
00000100
00000000
00000000
00010000
00000000
00000000
,
00001000
00000000
00000000
00100000
00000000
00000000
00010000
00000000
00000000
10000000
00000000
00000000
00010000
00000000
00100000
00000000
00001000
00000000
00010000
00000000
00000000
00000100
00000000
00000000
,
00001000
00000000
00000000
00000010
00010000
00001000
00100000
00000000
00000000
00100000
00001000
00010000
,
00000010
00000000
00000000
00000010
00010000
00001000
00100000
00010000
00100000
01000000
10000000
00100000
;
