#TITLE:Initiation;
#SUBTITLE:;
#ARTIST:BEMANI Sound Team "謎の勢力";
#TITLETRANSLIT:;
#SUBTITLETRANSLIT:;
#ARTISTTRANSLIT:NAZO NO SEIRYOKU;
#GENRE:;
#CREDIT:;
#MUSIC:Initiation.ogg;
#BANNER:Initiation.png;
#BACKGROUND:Initiation-bg.png;
#CDTITLE:;
#SAMPLESTART:98.980;
#SAMPLELENGTH:12.000;
#SELECTABLE:YES;
#OFFSET:0.000;
#BPMS:0.000=160.000
,193.000=80.000
,225.000=160.000
;
#STOPS:36.000=1.125
,128.500=1.500
;
#BGCHANGES:;
#FGCHANGES:;

//--------------- dance-single - Pandemonium X ----------------
#NOTES:
     dance-single:
     Pandemonium X:
     Beginner:
     5:
     0,0,0,0,0:
0000
0000
0000
0000
,
0000
0000
0000
0000
,
0000
0000
0000
0000
,
0000
0000
0000
0000
,
0000
0000
0000
0000
,
0001
0000
0000
0000
,
1000
0000
0000
0000
,
0001
0000
1001
0000
,
0110
0000
1001
0110
,
1001
1000
0000
0001
,
0000
1000
0000
0010
,
0000
0100
0000
0001
,
0000
0010
0000
0100
,
1000
0001
0000
1000
,
0000
0010
0000
0100
,
0000
0001
0000
0010
,
0000
0100
0000
0010
,
0001
1000
0000
0001
,
0000
0100
0000
0010
,
1000
0001
0000
0010
,
0000
0100
0000
0010
,
0001
1000
0000
0001
,
1000
0010
0000
1000
,
0001
0010
0000
0100
,
0000
1000
1000
1000
,
1000
1001
0000
0001
,
0000
1000
0000
0010
,
1000
0010
0000
1000
,
0000
0001
0000
0010
,
0100
0010
0000
0001
,
0000
1000
0000
0100
,
0000
1001
0000
0110
,
0000
0001
0000
1000
,
0000
0100
0000
0010
,
0000
0100
0000
1000
,
0000
0001
0000
0100
,
0001
0010
0000
0100
,
0000
0010
0000
0001
,
0000
1000
0000
0100
,
0000
0010
0000
0001
,
1000
0100
0000
0000
,
0000
1000
0000
0000
,
0000
0010
0000
0000
,
0000
0100
0000
0001
,
0000
2002
0000
0000
,
3003
0000
0000
0000
,
0000
0000
0000
0000
,
0000
0000
0000
0000
,
0000
0110
0000
0001
,
0010
0100
1000
0100
,
0010
0001
0000
1000
,
0001
0100
0001
0010
,
0100
1000
0000
0001
,
1000
0010
1000
0100
,
0010
0000
0001
0000
0000
1000
1000
0000
,
0000
0001
0001
0000
0000
0000
1001
0000
,
0110
1001
0001
1000
,
0010
0010
0000
0000
,
0000
1000
0001
1000
,
0100
0100
0000
0000
,
0000
0110
0000
0000
,
0001
1000
0000
0000
,
0001
0100
0000
0000
,
0000
0010
0000
1000
,
0000
1001
0001
1000
,
0100
0010
0000
0000
,
0000
1001
0001
0010
,
0100
1000
0000
0000
,
0000
1001
0000
0000
,
0001
0001
0000
0000
,
1000
1000
0000
0000
,
0000
0010
0000
0100
,
0000
1001
0000
0000
;

//--------------- dance-single - Pandemonium X ----------------
#NOTES:
     dance-single:
     Pandemonium X:
     Easy:
     7:
     0,0,0,0,0:
0000
0000
0000
0000
,
0000
0000
0000
0000
,
0000
0000
0000
0000
,
0000
0000
0000
0000
,
0000
0000
0000
0000
0000
0000
0000
1001
,
0001
1000
0010
1000
,
0001
0010
0001
1000
,
0010
1000
1001
0000
,
0110
0000
1001
0110
,
1001
0000
0000
1000
0000
0100
0000
1000
,
0000
0100
0000
0010
0000
0001
0000
0010
,
0000
0001
0000
0100
0000
0001
0000
0100
,
0000
0001
0000
0100
0000
0010
0000
0100
,
0010
1000
0000
0001
0000
1000
0000
0001
,
0000
1000
0000
0100
0000
1000
0000
0100
,
0000
1000
0000
0100
0000
0010
0000
0100
,
0000
0010
0000
0001
0000
0010
0000
0001
,
0010
0100
0010
0000
0001
0000
0100
0000
,
0010
1000
0001
0010
,
0100
1000
0001
0000
0100
0000
0010
0000
,
1000
0010
0100
0001
,
0010
0100
1000
0000
0100
0000
1000
0000
,
0010
0100
0010
0000
0100
0000
0001
0000
,
0010
0100
0020
0000
0031
0000
0002
0000
,
0103
0020
0230
0302
,
2003
3001
1000
0100
,
1000
0010
0100
0001
,
0010
0100
0100
0010
,
0001
1000
0100
0010
,
0100
1000
0001
0100
,
0001
1000
0010
0100
,
0001
0000
0000
0000
1000
0000
0000
0000
0001
0000
0000
0000
0100
0000
0000
0010
,
0000
1001
0000
1000
0000
0010
0000
0100
,
0000
0001
0000
0010
0000
0100
0000
0010
,
0000
0001
0000
1000
0000
0100
0000
0010
,
0000
0001
0000
0100
0000
0010
0000
0100
,
0001
0010
0000
0100
0000
0010
0000
0001
,
0000
1000
0000
0010
0000
0100
0000
0001
,
0000
0010
0000
0100
0000
0010
0000
0001
,
0000
1000
0000
0100
0000
0010
0000
0100
,
1000
0010
0100
0000
0001
0000
0001
0000
,
0001
1000
1000
0001
,
1000
0001
0010
0000
0100
0000
0010
0000
,
0001
0100
0010
1000
,
0010
2002
0000
0000
,
0000
0000
0000
3003
,
0000
0100
0000
0100
0000
0100
0000
0100
,
0000
0100
0020
0000
0000
0000
0000
0000
,
0030
1001
0000
0001
,
0100
0001
0010
0100
,
0010
0001
0000
1000
,
0010
0100
0010
1000
,
0100
1000
0000
0001
,
0010
0100
0010
0001
,
1000
0000
0010
0000
0000
0100
0001
0000
,
0000
0010
0100
0000
0000
0000
2000
0000
,
3002
0103
0010
1000
,
0100
0011
0000
0000
,
0000
0010
0001
0100
,
0001
1010
0000
0000
,
0000
2000
0000
0000
,
3010
0200
0000
0000
,
0301
0020
0000
0000
,
0000
0230
0000
0320
,
0000
0031
1000
0000
0001
0000
0100
0000
,
0001
1010
0000
0000
,
0000
0001
0100
0010
,
1000
0011
0000
0000
,
0000
0102
0000
0000
,
0103
0120
0000
0000
,
1030
2100
0000
0010
,
0000
3100
1000
0010
,
0100
0011
0000
0000
;

//--------------- dance-single - Pandemonium X ----------------
#NOTES:
     dance-single:
     Pandemonium X:
     Medium:
     13:
     0,0,0,0,0:
0000
0000
0000
0000
,
0000
0000
0000
0000
,
0000
0000
0000
0000
,
0000
0000
0000
0000
,
0000
0000
0000
0000
0000
0000
0000
1001
,
0001
0000
1000
0100
0010
0000
0100
1000
,
0010
0000
0100
0001
0010
0000
0100
0010
,
0001
0000
0000
0000
0000
0000
0000
0000
0000
0000
0000
0000
0010
0000
0000
0000
0000
0000
0100
0000
0000
0000
0000
0000
1000
0000
0000
0000
0000
0000
0000
0000
0000
1000
0000
0000
0000
0000
0000
0000
0001
0000
0000
0000
0100
0000
0000
0000
,
0010
0000
0000
0000
0000
0000
0000
0000
0000
0010
0000
0000
0000
0000
0000
0000
0100
0000
0000
0000
0001
0000
0000
0000
1000
0000
0000
0000
0100
0000
0000
0000
0010
0000
0000
0000
0001
0000
0000
0000
0001
0000
0000
0000
1000
0000
0000
0000
,
1000
0000
0001
0100
0010
0100
0001
0100
,
0010
0100
0001
0100
0010
0100
0001
0100
,
0010
1000
0010
0100
0010
1000
0010
0100
,
0010
1000
0010
0100
0010
1000
0010
0100
,
0001
1000
0100
0010
0100
1000
0100
0010
,
0100
1000
0100
0010
0100
1000
0100
1000
,
0100
0010
0001
0010
0100
0010
0001
0010
,
0100
0010
0001
0010
0100
0010
0001
0100
,
0010
1000
0001
1000
0020
0000
0130
0001
,
2000
0000
3010
0100
0002
0000
0103
0001
,
1000
0100
1000
0000
0001
0000
1000
0000
0200
0000
0000
0000
0310
0000
0100
0000
,
2000
0000
3010
0100
0002
0000
0013
0001
,
0100
0010
0100
0000
0001
0000
1000
0000
0200
0000
0000
0000
0310
0000
0001
0000
,
0100
0010
0100
0000
0010
0000
1000
0000
0002
0000
0000
0000
0013
0000
0100
0000
,
1000
0010
1000
0000
0001
0000
1000
0000
0001
0000
1000
0000
0001
0000
1000
0000
,
0001
1000
0010
0010
0010
0010
0010
0001
,
0010
0000
1000
0000
0001
0000
0000
0000
1000
0000
0000
1000
0100
1000
0000
0100
,
0000
1000
0010
0000
0000
0100
0010
0000
0100
0000
0001
0000
1000
0000
0000
0001
,
0000
0010
0001
0000
0100
0000
0000
0000
0001
0000
0000
0010
0001
0010
0000
0100
,
0000
0010
0001
0000
0000
0100
0001
0000
1000
0000
0010
0000
1000
0000
0001
0000
,
0010
0000
0100
0000
1000
0000
0000
0000
0100
0000
0000
0000
1000
0010
0000
0100
,
0000
0001
0010
0000
0000
0100
0010
0000
0001
0000
1000
0000
0001
0000
0000
0100
,
0000
0010
1000
0000
1001
0000
0000
0000
0101
0000
0000
0001
0100
0010
0000
1010
,
0000
0001
0010
0000
0100
0000
0010
0000
0001
0000
0100
0000
0010
0000
1000
0000
,
0001
0010
0100
0010
0001
0100
0010
1000
,
0100
0010
0100
1000
0010
0100
0001
0010
,
0100
0010
0001
0100
0010
1000
0001
0010
,
1000
0010
0001
0010
0001
0100
0010
1000
,
0001
0010
0100
0010
0001
0100
0010
1000
,
0100
0010
0100
1000
0010
0100
0001
0010
,
0100
0010
0001
0100
0010
1000
0010
0100
,
1000
0100
0001
0100
0020
0000
0130
0001
,
2000
0000
3100
0010
0002
0000
0013
0001
,
0100
0010
1000
0100
0020
0000
0130
1000
,
0002
0000
0103
0001
0020
0000
0130
0010
,
0001
1000
2001
0000
0001
0000
0001
0000
,
0001
0001
0001
0000
0001
0000
0001
0000
,
3001
1000
0001
1000
0001
1000
0001
1000
,
0001
1000
0020
0000
0000
0000
0000
0000
,
0030
1002
0000
2003
,
3020
0230
2300
3200
,
0302
0023
0000
0230
,
0320
0032
0023
0230
,
2300
3200
0000
0302
,
0203
0320
0032
0203
,
0320
0000
2030
0000
0000
0001
3002
0000
,
0000
1000
2003
0000
0000
0000
3020
0000
,
0130
0010
1000
0011
0010
0000
0100
0000
0010
0000
0001
0000
0000
0000
0100
0000
,
0010
1000
1002
0000
1000
0000
1000
0000
,
1003
0000
0001
0100
0001
1000
0000
0100
,
0010
0100
2100
0000
0100
0000
0100
0000
,
3100
0000
1000
0010
0001
0010
1000
0001
,
0010
0001
0100
1000
0100
0001
0010
0100
,
1000
0100
0001
0100
1000
0010
0100
0001
,
1000
0100
0010
0010
0001
0100
0010
0010
,
0100
1001
0001
0010
1000
0010
0000
0100
,
0010
0001
0021
0000
0100
0000
0100
0000
,
0130
0000
0100
0001
0100
1000
0000
0100
,
0010
0001
0201
0000
0001
0000
0301
0100
,
0010
1000
1001
1000
0001
1000
0010
1000
,
0001
1000
0001
1000
0001
1000
0100
1000
,
0001
1000
0010
0100
0001
1000
0010
0100
,
0001
1000
0001
0001
1000
1000
0010
0010
,
0100
0100
1001
0000
0000
0000
0000
0000
;

//--------------- dance-single - Pandemonium X ----------------
#NOTES:
     dance-single:
     Pandemonium X:
     Hard:
     16:
     0,0,0,0,0:
0000
0000
0000
0000
,
0000
0000
0000
0000
,
0000
0000
0000
0000
,
0000
0000
0000
0000
,
0000
0000
0000
0000
0000
0000
0000
0110
,
1000
0000
0000
0001
0010
0000
0100
0000
0011
0000
0000
0010
0001
0100
0001
0010
,
0100
0000
0000
0001
0010
0000
0100
0000
1000
0100
0000
0100
1000
0010
0100
0010
,
1000
0000
0000
0100
0000
0000
0000
0000
0000
0100
0000
0000
1000
0000
0000
0010
0000
0000
0100
0000
0000
0010
0000
0000
1000
0000
0000
0000
0000
0000
0000
0000
0000
1010
0000
0000
0000
0000
0000
0000
0001
0000
0000
0000
0010
0000
0000
0000
,
0110
0000
0000
0000
0000
0000
0000
0000
0000
1100
0000
0000
0000
0000
0000
0000
1000
0000
0000
0000
0001
0000
0000
0000
1001
0000
0000
0000
0001
0000
0000
0000
1000
0000
0000
0000
1001
0000
0000
0000
1001
0000
0000
0000
1001
0000
0000
0000
,
1001
0000
0000
0000
0001
0000
0100
0000
0010
0000
1000
0100
1000
0000
0100
0000
,
1000
0000
0001
0100
0001
0000
0010
0000
0100
0000
0010
0001
0010
0000
0001
0000
,
0100
0000
0001
1000
0001
0000
1000
0000
0100
0000
0010
0100
0010
0000
0100
0000
,
1000
0000
0010
0100
0010
0000
0100
0000
0001
0000
1000
0100
1000
0000
0200
0000
,
0320
0000
0032
0000
0103
0000
0010
0000
1000
0000
0010
0100
0010
0000
0100
0000
,
0001
0000
0010
0100
0010
0000
0100
0000
1000
0000
0001
0100
0001
0000
1000
0000
,
0010
0000
1000
0100
1000
0000
0100
0000
0010
0000
0001
0010
0001
0000
0010
0000
,
0001
0000
1000
0010
1000
0000
0010
0000
0100
0000
0001
0100
0001
0000
0200
0000
,
0320
0000
2030
0000
3001
0000
0010
0000
0001
0100
0010
0100
0001
0000
1000
0000
,
0100
0010
0100
1000
0100
0000
1000
0000
0001
0010
0001
1000
0010
0000
1000
0000
,
0001
0010
0200
0000
0310
0000
0001
0000
0010
0100
1000
0010
0100
0000
0010
0000
,
0100
0001
0010
0001
0100
0000
0010
0000
1000
0010
1000
0001
0010
0000
0100
0000
,
1000
0100
0020
0000
0130
0000
1000
0000
0100
0010
0001
0100
0010
0000
0001
0000
,
0010
1000
0100
0000
1001
0000
1000
0000
0100
0010
0001
0100
0010
0000
0001
0000
,
0010
1000
0200
0000
1300
0010
0200
0000
0310
1000
0200
0000
1300
0010
0200
0000
,
0310
1000
0200
0000
0310
0001
0010
0001
1000
0010
1000
0010
0100
0010
0200
0000
,
0302
0000
2003
0000
3001
0000
0000
0000
0011
0000
0000
0001
0100
0010
0000
1010
,
0000
1000
0100
0000
0000
0010
0001
0000
1001
0000
0101
0000
1010
0000
0000
1100
,
0000
0001
0010
0000
1100
0000
0000
0000
1001
0000
0000
0001
1000
0100
0000
0011
,
0000
0001
0100
0000
0000
0010
1000
0000
0001
1000
0001
0000
1000
0000
0200
0000
,
0320
0000
0032
0000
1003
0000
0010
0000
1000
0000
0001
0000
0010
0001
1000
0000
,
0001
0100
0010
0000
0100
0001
0010
0000
0001
1000
0100
0000
0010
0100
0000
1000
,
0000
0010
0100
0000
0101
0000
0000
0000
1001
0000
0000
1000
0100
0010
0000
0011
,
0000
1000
1001
0000
0001
0000
0100
0000
0001
0010
0100
1000
0001
0000
1000
0000
,
0001
0010
0100
0010
0001
0000
1000
0000
0001
0010
0100
1000
0001
0000
0100
0000
,
0010
0100
0001
1000
0100
0000
0010
0000
0100
1000
0100
0010
0001
0000
0010
0000
,
0100
1000
0100
1000
0001
0000
0100
0000
0010
1000
0001
0010
0100
0000
0020
0000
,
0032
0000
2003
0000
3001
0000
0010
0000
0100
1000
0010
1000
0001
0000
1000
0000
,
0100
0010
0100
1000
0001
0000
0010
0000
0001
0010
0001
1000
0010
0000
0100
0000
,
0010
1000
0100
1000
0001
0000
0010
0000
0100
0010
0001
1000
0010
0000
1000
0000
,
0001
1000
0001
0010
0100
0000
0010
0000
0001
1000
0010
1000
0100
0000
0020
0000
,
0032
0000
2003
0000
3001
0000
0100
0000
0010
1000
0010
1000
0010
0000
0100
0000
,
0001
1000
0001
1000
0001
0000
0010
0000
0100
1000
0100
1000
0100
0000
0010
0000
,
0001
0100
0020
0000
0130
0000
0001
0000
0010
0100
0010
0100
0010
0000
0100
0000
,
1000
0001
1000
0001
1000
0000
0100
0000
0010
0001
0010
0001
0010
0000
0200
0000
,
2300
3002
2000
0000
0000
0000
0000
0000
,
0000
0000
0000
3003
,
0001
1000
0020
0000
1030
0001
0020
0000
0031
1000
0020
0000
1030
0001
0020
0000
,
0031
1000
0020
0000
1030
0001
1000
0001
1000
0001
1000
0001
1000
0001
1000
0001
,
1000
0000
0000
0000
2200
0000
0000
0000
0000
0000
0000
3000
0002
0000
0000
0300
,
0200
0000
0000
0303
2200
0000
0000
0300
0020
0000
0000
3000
0002
0000
0000
0030
,
0020
0000
0000
0033
2002
0000
0000
0000
0000
0000
0000
3003
0202
0000
0000
0300
,
0023
0000
0000
0030
2002
0000
0000
3000
2003
0000
0000
0000
0200
0000
0000
3000
,
0020
0000
0000
0330
2200
0000
0000
0000
0000
0000
0000
0300
3002
0000
0000
0000
,
0200
0000
0000
0303
2020
0000
0000
3000
0200
0000
0000
0030
0002
0000
0000
0300
,
2003
0000
0000
3000
2002
0000
0000
0000
0000
3000
2000
3003
2002
0000
0000
0000
,
0000
0003
0002
3003
2002
0000
0000
0000
0000
0000
0000
3003
0202
0000
0000
0003
,
0310
0000
0000
0200
0000
0000
0302
0000
0003
1010
0000
0000
1001
0000
0000
0000
0000
0000
0001
0000
0000
0100
0000
0000
0010
0000
0000
0000
0000
0000
0100
0000
0000
0001
0000
0000
1000
0000
0000
0000
0000
0000
0100
0000
0000
0010
0000
0000
,
0100
1000
0001
0100
0002
0000
0000
0000
0100
0000
0000
0000
0010
0000
0000
0000
,
1003
0000
0000
0000
0001
0000
0010
0100
0010
0000
0100
1000
0100
0000
1000
0010
,
0100
0001
0010
0100
2000
0000
0000
0000
0100
0000
0000
0000
3010
0000
2000
0000
,
3020
0000
0230
0000
0301
0010
0001
0000
1000
0010
1000
0000
0100
1000
0100
0000
,
0010
0001
0010
0000
0001
0100
0001
0000
1000
0010
1000
0000
0100
0010
0100
0000
,
1000
0100
1000
0000
0100
0010
0100
0000
0010
0001
0010
0000
0001
0100
0001
0000
,
1000
0010
1000
0000
0001
1000
0001
1000
0001
0000
0110
0000
1000
0001
1000
0001
,
1000
0000
0110
0000
1001
0000
0001
0010
0100
0000
0010
0001
1000
0000
0010
1000
,
0100
0010
0100
1000
0200
0000
0000
0000
1000
0000
0000
0000
0010
0000
0000
0000
,
1300
0000
0000
0000
0100
0000
1000
0010
0100
0000
0010
1000
0001
0000
0010
0100
,
0010
0001
0100
0010
0200
0000
0000
0000
0001
0000
0000
0000
0310
0000
0200
0000
,
0320
0000
2030
0000
3001
0010
0100
0000
1000
0100
0010
0000
0100
1000
0010
0000
,
0100
0001
1000
0000
0001
0010
0100
0000
0010
0001
1000
0000
0010
0100
0001
0000
,
0010
0100
1000
0000
0100
1000
0010
0000
0100
0001
0010
0000
0100
0010
0001
0000
,
0010
0100
1000
0000
0001
0100
0010
1000
0100
0010
0100
1000
0001
0010
0100
0010
,
0001
1000
0010
0100
0001
0000
0000
0000
0000
0000
0000
0000
0000
0000
0000
0000
;

//--------------- dance-double - Pandemonium X ----------------
#NOTES:
     dance-double:
     Pandemonium X:
     Easy:
     10:
     0,0,0,0,0:
00000000
00000000
00000000
00000000
,
00000000
00000000
00000000
00000000
,
00000000
00000000
00000000
00000000
,
00000000
00000000
00000000
00000000
,
00000000
00000000
00000000
00000000
00000000
00000000
00000000
00011000
,
00001000
00010000
00000100
00010000
,
00001000
00010000
00000100
00010000
,
00000100
00010000
00011000
00000000
,
00101000
00000000
01010000
01100000
,
10100000
10000000
00010000
00100000
,
00001000
00010000
00000010
00000100
,
00000001
00000010
00000100
00001000
,
00000100
00000000
00010000
00000000
00001000
00000000
01000000
00001000
,
00010000
00000100
00001000
00000000
00000010
00000000
00000100
00000000
,
00000001
00000010
00000100
00001000
,
00000100
00010000
00001000
01000000
,
00100000
00000000
10000000
00000000
00010000
00000000
00100000
01000000
,
10000000
00010000
01000000
00000000
00010000
00000000
00100000
00000000
,
00001000
00010000
00000010
00000100
,
00000001
00000010
00000100
00000000
00000010
00000000
00000001
00000000
,
00000100
00000000
00000010
00000000
00001000
00000000
00000100
00010000
,
00001000
01000000
00010000
00000000
00100000
00000000
01000000
00000000
,
10000000
00100000
01000000
00000000
00010000
00000000
00100000
00000000
,
01000000
10000000
00010000
10000000
00010000
10000000
00010000
10000000
,
00010000
10000000
00010000
01000000
00100000
10000000
00010000
01000000
,
00100000
10000000
01000000
00000000
01000000
00000000
00100000
00000000
,
00100000
00001000
00001000
00011000
,
00001100
00001000
00001000
00000001
,
00000001
00000100
00000100
00000101
,
00001010
00000000
00000000
00000010
00000000
00001000
00000000
00000100
,
00000000
00010000
00000000
00001000
00000000
01000000
00000000
00010000
,
00000000
00000000
00100000
00000000
01000000
00000000
00000000
00000000
01000000
00000000
00000000
00000000
00100000
00000000
00000000
00001000
,
00000000
00011000
00010000
00000000
00000100
00000000
00001000
00000000
,
00000010
00000100
00000001
00000010
,
00000100
00001000
00000100
00010000
,
00001000
00000000
01000000
00000000
00010000
00000000
00100000
00010000
,
10000000
01000000
00100000
00000000
01000000
00000000
10000000
00000000
,
00010000
01000000
00100000
10000000
,
00010000
00100000
00001000
00010000
,
00000010
00000000
00000100
00000000
00000001
00000000
00000010
00000001
,
00001000
00000100
00000010
00000000
00000010
00000000
00000100
00000000
,
00000100
00001000
00001000
00000100
,
00000100
00010000
00001000
00000000
00001000
00000000
01000000
00000000
,
01000000
00000000
00100000
00000000
00100000
00000000
01000000
00010000
,
00100000
01000000
20020000
00000000
00000000
00000000
00000000
00000000
,
00000000
30030000
00000000
00000000
,
10000000
10000000
10000000
10000000
,
10000000
00000000
00010000
01000000
00010000
01000000
00010000
01000000
,
00200000
10300000
00000000
00010000
,
00100000
00001000
00010000
00000010
,
00000100
00001001
00000000
00000001
,
00000100
00000010
00001000
00000100
,
00010000
00011000
00000000
00001000
,
01000000
00010000
00100000
01000000
,
10000000
00000000
00010000
00000000
00000000
10000000
10000000
00000000
,
00000000
00010000
00010000
00000000
00000000
00000000
10010000
00000000
,
01100000
00010000
01000000
00100000
,
10000000
01000000
00100000
00000000
00100000
00000000
00100000
00000000
,
00100000
00001000
00010000
00000010
,
00000100
00000001
00001000
00000000
00001000
00000000
00001000
00000100
,
00000010
00000001
00001001
00000000
00001000
00000000
00001000
00000000
,
00001100
00001100
00000100
00000010
,
00000011
00000011
00000001
00000100
,
00000010
00002010
00003100
00001200
,
00010300
00011000
00001000
00000000
00010000
00000000
00001000
00000000
,
01000000
00100000
10000000
00000000
10000000
00000000
10000000
00000000
,
10000000
00010000
00100000
01000000
,
00100000
00001000
00010000
00000000
00010000
00000000
00010000
00000100
,
00001000
00000010
00000110
00000000
00000100
00000000
00000001
00000000
,
00000011
00001100
00000100
00010000
,
00011000
00101000
00001000
00100000
,
00010000
00110000
11000000
10100000
,
01010000
10010000
00000000
00000000
;

//--------------- dance-double - Pandemonium X ----------------
#NOTES:
     dance-double:
     Pandemonium X:
     Medium:
     13:
     0,0,0,0,0:
00000000
00000000
00000000
00000000
,
00000000
00000000
00000000
00000000
,
00000000
00000000
00000000
00000000
,
00000000
00000000
00000000
00000000
,
00000000
00000000
00000000
00000000
00000000
00000000
00000000
00011000
,
00010000
00000000
00000100
00001000
00000010
00000000
00000101
00000000
,
00000001
00000000
00000010
00000100
00001000
00000000
00001100
00000000
,
00000100
00000000
00000000
00010000
00000000
00000000
00001000
00000000
00000000
00010000
00000000
00000000
00000100
00000000
00000000
00000000
00000100
00000000
00000000
00000000
00000100
00000000
00010000
00000000
,
00001000
00000000
00001000
00000000
00001000
00010000
00001000
00001000
01000000
00100000
00100000
00100000
,
00100000
00000000
01000000
00100000
10000000
01000000
00100000
01000000
,
10000000
00010000
00100000
01000000
00100000
00001000
00010000
00000100
,
00001000
00000010
00000100
00000001
00000010
00000100
00000010
00000001
,
00000100
00000010
00001000
00000100
00000010
00000001
00001000
00000100
,
00000001
00000100
00001000
00000100
00001000
00000100
00000010
00000001
,
00000010
00000001
00000100
00000010
00001000
00000010
00000100
00000010
,
00010000
00001000
00010000
00000100
00010000
00001000
01000000
00001000
,
00010000
00001000
00100000
00010000
10000000
01000000
00100000
10000000
,
00100000
00000000
00010000
00000000
10000000
00000000
00100000
00000000
01000000
00010000
00000000
00000000
00010000
00000000
00100000
00000000
,
00001000
00100000
00000000
00000000
00010000
00000000
00000100
00000000
00001000
00000010
00000000
00000000
00000100
00000000
00000010
00000000
,
00001000
00000001
00000010
00000000
00000100
00000000
00000010
00000000
00000001
00001000
00000000
00000000
00000100
00000000
00010000
00000000
,
00000100
00001000
00000000
00000000
00000100
00000000
00010000
00000000
00001000
00100000
00000000
00000000
00010000
00000000
00100000
00000000
,
01000000
10000000
00100000
00000000
01000000
00000000
00010000
00000000
10000000
00100000
00000000
10000000
01000000
00000000
00100000
00000000
,
00010000
00100000
00001000
00000000
00010000
00000000
00000100
00000000
00001000
00000010
00000000
00000100
00000010
00000000
00000100
00000000
,
00000001
00001000
00000001
00000000
00001000
00000000
00000010
00000000
00000001
00000000
00000010
00000000
00001000
00000000
00000010
00000000
,
00000001
00000010
00001000
00000100
00001000
00000100
00001000
00000100
,
00001000
00000000
00000100
00000000
00010000
00000000
00000000
00000000
00010000
00000000
00000000
00010000
00001000
01000000
00000000
01000000
,
00000000
01000000
00100000
00000000
00000000
10000000
01000000
00000000
10000000
00000000
00010000
00000000
01000000
00000000
00000000
00010000
,
00000000
00100000
00001000
00000000
00010000
00000000
00000000
00000000
00010000
00000000
00000000
00001000
00010000
00000100
00000000
00001000
,
00000000
00001000
00000010
00000000
00000000
00000010
00000100
00000000
00000001
00000000
00001000
00000000
00000100
00000000
00000001
00000000
,
00000100
00001000
00000001
00000100
00000001
00000100
00000010
00001000
,
00000010
00001000
00000100
00001000
00000100
00001000
00000100
00010000
,
00001000
00000000
01000000
00000000
01010000
00000000
00000000
00000000
01010000
00000000
00000000
00100000
10000000
01000000
00000000
00110000
,
00000000
00100000
00001000
00000000
00010000
00000000
00000100
00000000
00001000
00000000
00001000
00000000
00000100
00000000
00010000
00000000
,
00001000
00001000
00010000
00000010
00000100
00000100
00000010
00001000
,
00000100
00000100
00010000
00001000
01000000
01000000
00001000
00010000
,
00001000
00001000
00010000
00000100
00001000
00001000
00000010
00010000
,
00001000
01000000
00100000
00000000
10000000
00000000
01000000
00000000
00100000
00000000
00100000
00000000
01000000
00000000
10000000
00000000
,
00010000
00010000
00100000
00001000
00010000
00010000
00001000
00010000
,
00000100
00000100
00001000
00000010
00000100
00000100
00000001
00000010
,
00000100
00000100
00001000
00000100
00010000
00010000
00001000
01000000
,
00100000
10000000
01000000
00000000
00100000
00000000
01000000
00000000
00000000
00000000
01000000
00000000
00000000
00000000
10000000
00000000
,
00000000
10000000
00000000
00010000
00000000
00010000
00000000
00100000
,
00000000
00100000
00000000
00001000
00000000
00001000
00000000
00010000
,
00000000
00010000
00000000
00000100
00000000
00000100
00000000
00000100
,
00001000
00000010
00000202
00000000
00000000
00000000
00000000
00000000
,
00000000
00000000
00000000
00000303
,
00000002
00000203
00002300
00023000
,
00230000
00000000
10300000
00010000
10000000
00010000
10000000
00010000
,
00200000
02300000
00000000
03200000
,
00320000
00032000
00003020
00000032
,
00002003
00003020
00000000
00000230
,
00002300
00023000
00230000
02300000
,
03020000
20030000
00000000
32000000
,
03200000
00320000
00032000
00003200
,
00000320
00000000
00000032
00000000
00000000
00001000
00002000
00000000
,
00000003
00000010
00003020
00000000
00000000
00000000
00020030
00000000
,
00002000
00000000
00000000
00033000
00011000
00000000
00010000
00000000
00000100
00000000
00001000
00000000
00000000
00000000
00000010
00000000
,
00000100
00000001
00002001
00000000
00000001
00000000
00000001
00000000
,
00003001
00000000
00001000
00000100
00010000
00001000
00000000
00010000
,
00001000
01000000
02010000
00000000
00010000
00000000
03010000
01000000
,
10000000
01000000
00010000
01000000
00010000
01000000
00010000
01000000
,
00010000
10000000
00100000
10000000
01000000
10000000
01000000
00100000
,
00001000
00010000
00000100
00010000
00000100
00010000
00000100
00001000
,
00000010
00000100
00001000
00000100
00000001
00000010
00001000
00000010
,
00000001
00001001
00001000
00000100
00010000
00001000
00000000
00010000
,
00001000
00100000
00210000
00000000
01000000
00000000
01000000
00000000
,
01300000
00000000
00100000
00001000
00010000
00000010
00000000
00000100
,
00000001
00001000
00002001
00000000
00000010
00000000
00003010
00000100
,
00001000
00000100
00000001
00000100
00000001
00000100
00000001
00000100
,
00000010
00001000
00000100
00010000
00000100
00010000
00000100
00010000
,
00001000
01000000
00010000
00100000
00010000
00100000
00010000
00100000
,
01000000
00000000
10000000
00000000
00010000
01000000
00100000
00000000
10000000
00000000
00010000
00000000
00100000
00001000
00010000
00000000
,
00000010
00000100
00001001
00000000
00000000
00000000
00000000
00000000
;

//--------------- dance-double - Pandemonium X ----------------
#NOTES:
     dance-double:
     Pandemonium X:
     Hard:
     16:
     0,0,0,0,0:
00000000
00000000
00000000
00000000
,
00000000
00000000
00000000
00000000
,
00000000
00000000
00000000
00000000
,
00000000
00000000
00000000
00000000
,
00000000
00000000
00000000
00000000
00000000
00000000
00000000
00011000
,
00010000
00000000
00000000
00000100
00001000
00000000
00000010
00000000
00000100
00000000
00000000
00000100
00000001
00000010
00000100
00001000
,
00000001
00000000
00000000
00000001
00001000
00000000
00000100
00000000
00010000
00000000
00000000
00001000
00100000
00010000
00100000
01000000
,
00100000
00000000
00000000
00010000
00000000
00000000
00000000
00000000
00000000
00100000
00000000
00000000
00010000
00000000
00000000
00100000
00000000
00000000
01000000
00000000
00000000
10000000
00000000
00000000
00010000
00000000
00000000
00000000
00000000
00000000
00000000
00000000
10100000
00000000
00000000
00000000
00000000
00000000
00000000
00000000
10000000
00000000
00000000
00000000
01000000
00000000
00000000
00000000
,
00100000
00000000
00011000
00000000
00010000
00000100
00001100
00001000
00000010
00000100
00000100
00000100
,
00000100
00000000
00000000
00000000
00000001
00000000
00001000
00000000
00000100
00000000
00010000
00000100
00001000
00000000
00010000
00000000
,
00001000
00000000
01000000
00010000
00100000
00000000
01000000
00000000
00100000
00000000
00001000
00010000
00000100
00000000
00001000
00000000
,
00000010
00000000
00000100
00000001
00000010
00000000
00000100
00000000
00001000
00000000
00000100
00010000
00001000
00000000
00010000
00000000
,
00001000
00000000
01000000
00010000
00100000
00000000
01000000
00000000
00100000
00000000
00010000
01000000
00100000
00000000
02000000
00000000
,
03002000
00000000
00023000
00000000
00030100
00001000
00000100
00000000
00000100
00000000
00001000
00000100
00000010
00000000
00000001
00000000
,
00000100
00000000
00000010
00001000
00000001
00000000
00000010
00000000
00000100
00000000
00001000
00000100
00010000
00000000
00001000
00000000
,
00100000
00000000
00010000
10000000
01000000
00000000
00100000
00000000
01000000
00000000
10000000
00010000
01000000
00000000
00010000
00000000
,
00100000
00000000
00001000
00010000
00000010
00000000
00000100
00000000
00000001
00000000
00000010
00000100
00001000
00000000
00000200
00000000
,
00020300
00000000
00032000
00000000
00013000
00000000
00100000
00000000
01000000
10000000
01000000
10000000
01000000
00000000
10000000
00000000
,
00010000
01000000
00010000
01000000
00010000
00000000
10000000
00000000
01000000
10000000
01000000
10000000
01000000
00000000
00100000
00000000
,
00010000
00100000
00002000
00000000
00013000
00000000
00000100
00000000
00001000
00000010
00001000
00000010
00001000
00000000
00000001
00000000
,
00000010
00000001
00000010
00000001
00000010
00000000
00000001
00000000
00001000
00000010
00001000
00000010
00001000
00000000
00000001
00000000
,
00000010
00000100
00001000
00000100
00010000
00000000
00001000
00000000
00010000
00000100
00010000
00000100
00010000
00000000
00001000
00000000
,
00010000
00001000
02000000
00000000
03001000
00000000
00010000
00000000
00000100
00001000
00000100
00001000
00000100
00000000
00010000
00000000
,
00001000
01000000
00200000
00000000
01300000
00001000
00020000
00000000
00030100
00010000
00000020
00000000
00000130
00000010
00020000
00000000
,
00031000
01000000
00200000
00000000
10300000
00010000
10000000
00010000
10000000
00010000
10000000
00010000
10000000
00010000
10000000
00010000
,
00200000
00000000
00000000
00000000
01300000
00000000
00000000
00000000
00100000
00000000
00000000
00100000
00001000
00010000
00000000
00001000
,
00000000
00010000
00000100
00000000
00000000
00001000
00000010
00000000
00000100
00000000
00000001
00000000
00000010
00000000
00000000
00000010
,
00000000
00000010
00000100
00000000
00001000
00000000
00000000
00000000
00001000
00000000
00000000
00001000
00000100
00010000
00000000
00010000
,
00000000
00010000
00001000
00000000
00000000
00001000
01000000
00000000
00100000
00000000
01000000
00000000
00010000
00000000
00200000
00000000
,
02300000
23000000
30010000
10000000
00010000
10000000
00010000
00100000
,
00010000
00000000
00100000
00000000
00001000
00000000
00010000
00000000
00001000
00000000
00010000
00000000
00000100
00001000
00000000
00000010
,
00000000
00000100
00000001
00000000
00001001
00000000
00000000
00000000
00010100
00000000
00000000
00010000
00001000
01000000
00000000
00100000
,
00000000
01000000
00001000
00000000
00010000
00000000
00000100
00000000
00001000
00000010
00000100
00000010
00001000
00000000
00000010
00000000
,
00000100
00000001
00000010
00000001
00000100
00000000
00000010
00000000
00001000
00000010
00000100
00000010
00001000
00000000
00000001
00000000
,
00001000
00000010
00000100
00000010
00001000
00000000
00000001
00000000
00000100
00000001
00000010
00000001
00000100
00000000
00000010
00000000
,
00001000
00000010
00000100
00000010
00001000
00000000
00000001
00000000
00000100
00000001
00000010
00000001
00001000
00000000
00000200
00000000
,
00020300
00001000
00230000
00000000
00310000
00000000
10000000
00000000
00010000
10000000
00100000
10000000
00010000
00000000
10000000
00000000
,
00010000
10000000
01000000
10000000
00010000
00000000
10000000
00000000
00010000
10000000
00100000
10000000
00010000
00000000
10000000
00000000
,
00010000
10000000
01000000
10000000
00010000
00000000
10000000
00000000
00010000
10000000
00100000
10000000
00010000
00000000
10000000
00000000
,
00010000
10000000
01000000
10000000
00010000
00000000
10000000
00000000
10000000
00010000
00100000
00010000
10000000
00000000
00010000
00000000
,
10000000
00010000
01000000
00010000
10000000
00000000
00000000
00000000
01000000
00000000
00000000
00000000
00100000
00000000
00000000
00000000
,
00010000
00001000
00000100
00000010
,
00000010
00000001
00000100
00000000
00001000
00000000
00000000
00000000
00010000
00000000
00000000
00000000
00100000
00000000
00000000
00000000
,
01000000
00000000
10000000
00000000
01000000
00000000
00100000
00001000
,
00010000
00000100
00010000
00002000
00020000
00000000
00000000
00000000
00000000
00000000
00000000
00000000
00000000
00000000
00000000
00000000
,
00000000
00000000
00000000
00033000
,
00010000
00001000
00020000
00000000
00031000
00010000
00002000
00000000
00013000
00001000
00020000
00000000
00031000
00010000
00002000
00000000
,
00013000
00001000
00020000
00000000
00031000
00010000
00001000
00010000
00001000
00010000
00001000
00010000
00001000
00010000
00001000
00010000
,
00001000
00000000
00220000
00000000
00000000
00030000
02300000
00000000
,
03200000
00320000
00032000
00003020
,
00000032
00000000
00000000
00000000
00002000
00000000
00000000
00000000
00000000
00000000
00000000
00003003
00002002
00000000
00000000
00003003
,
00002020
00000000
00000000
00003030
00000220
00000000
00000000
00000300
00000230
00000000
00000000
00000000
00002300
00000000
00000000
00000000
,
00023000
00000000
00000000
00030000
02200000
00000000
00000000
00000000
00000000
00000000
00000000
03300000
20020000
00000000
00000000
00030000
,
00020000
00000000
00000000
30030000
22000000
00000000
00000000
03000000
32000000
00000000
00000000
00000000
03020000
00000000
00000000
00000000
,
00002000
00000000
00033000
00000000
00022000
00000000
00000000
00000000
00000000
00003000
00002000
00033000
00022000
00000000
00000000
00000000
,
00000000
00030000
00020000
00033000
00022000
00000000
00000000
00000000
00000000
00000000
00000000
00003000
00030200
00000000
00000000
00000000
,
02000000
00000000
00000000
03000300
00011000
00000000
00001000
00100000
00010000
00000000
10000000
00000000
00000000
00000000
01000000
10000000
,
00100000
01000000
02010000
00000000
00100000
00000000
00100000
00000000
,
03100000
00000000
00000000
00000000
01000000
00000000
00010000
00100000
00001000
00000000
00010000
00000000
00000000
00000000
00001000
00010000
,
00000100
00001000
00001002
00000000
00000100
00000000
00000103
00000001
,
00000010
00000000
00000100
00000000
00001000
00000100
00001000
00000000
00000010
00001000
00000010
00000000
00000100
00000001
00000100
00000000
,
00000001
00000010
00000001
00000000
00000010
00000100
00000010
00000000
00000100
00001000
00000100
00000000
00010000
00000100
00010000
00000000
,
00001000
00010000
00001000
00000000
00100000
00010000
00100000
00000000
01000000
10000000
01000000
00000000
10000000
00100000
10000000
00000000
,
00010000
01000000
00010000
00000000
10000000
01000000
00010000
00000000
01000000
00000000
10000000
00000000
00010000
01000000
10000000
00000000
,
01000000
00000000
00010000
00000000
00110000
00000000
00100000
00001000
00010000
00000000
00000100
00000000
00000000
00000000
00001000
00000010
,
00000100
00000001
00000201
00000000
00000010
00000000
00000010
00000000
,
00000310
00000000
00000000
00000000
00000100
00000000
00000010
00010000
00000100
00000000
00001000
00000000
00000000
00000000
00001000
00010000
,
00001000
00100000
00102000
00000000
00010000
00000000
00010000
00000000
,
00013000
00000000
00000000
00000000
00001000
01000000
00001000
00000000
01000000
00100000
01000000
00000000
00100000
10000000
00100000
00000000
,
10000000
01000000
10000000
00000000
01000000
00100000
01000000
00000000
00100000
00010000
00100000
00000000
00001000
00010000
00001000
00000000
,
00010000
00000100
00010000
00000000
00000010
00001000
00000010
00000000
00000100
00000001
00000100
00000000
00000001
00001000
00000001
00000000
,
00001000
00000100
00001000
00000000
00000100
00010000
00000100
00010000
00000100
00010000
00000100
00010000
00001000
00010000
00001000
00010000
,
00001000
00010000
00001000
00010000
00002000
00000000
00000000
00000000
00000000
00000000
00000000
00000000
00000000
00000000
00000000
00000000
,
00000000
00000000
00000000
00000000
,
00003000
00000000
00000000
00000000
;
