#TITLE:IIDX RED Ending (Ryu☆ Remix);
#SUBTITLE:;
#ARTIST:Remixed by Ryu☆;
#TITLETRANSLIT:;
#SUBTITLETRANSLIT:;
#ARTISTTRANSLIT:;
#GENRE:;
#CREDIT:;
#MUSIC:IIDX RED Ending (Ryu Remix).ogg;
#BANNER:;
#BACKGROUND:;
#CDTITLE:;
#SAMPLESTART:79.473;
#SAMPLELENGTH:12.403;
#SELECTABLE:YES;
#OFFSET:1.043;
#BPMS:0.000=155.000;
#STOPS:;
#BGCHANGES:;
#FGCHANGES:;

//--------------- dance-single - Pandemonium X ----------------
#NOTES:
     dance-single:
     Pandemonium X:
     Beginner:
     3:
     0,0,0,0,0:
0000
0000
0000
0000
,
0000
0000
0000
0000
,
0000
0000
0000
0000
,
0000
0000
0000
0000
,
0000
0000
0000
0000
,
0000
0000
0000
0000
,
0001
0000
0000
0000
,
1000
0000
0000
0000
,
0020
0000
0000
0000
,
0030
0000
0000
0000
,
0100
0000
0000
0000
,
0010
0000
0000
0000
,
1000
0000
0000
0000
,
0001
0000
0000
0000
,
0010
0001
0000
0001
,
0000
1000
0000
1000
,
0000
0010
0000
0010
,
0000
0100
0000
0100
,
0010
0000
0000
0000
,
1000
0000
0000
0000
,
0100
0000
0000
0000
,
1000
0000
0000
0000
,
0010
0000
0010
0000
,
0001
0000
0001
0000
,
0100
0000
0010
0000
,
1001
0000
0000
0000
,
0110
0000
0000
0000
,
1000
0000
0000
0000
,
0001
0000
0000
0000
,
0010
0000
0001
0000
,
0100
0000
0000
0000
,
0010
0000
0000
0000
,
1000
0000
0000
0000
,
0100
0000
0000
0000
,
1000
0000
0000
0000
,
0001
0000
0000
0000
,
0100
0000
0000
0000
,
0010
0000
0100
0000
,
0001
0000
0000
0000
,
0010
0000
0000
0000
,
0001
0000
0000
0000
,
1000
0000
0100
0000
,
1000
0000
0000
0000
,
0010
0000
0000
0000
,
0100
0000
0000
0000
,
0010
0000
1000
0000
,
0001
0000
0000
0000
,
0010
0000
0000
0000
,
0001
0000
0000
0000
,
1000
0000
0001
0000
,
0110
0000
0000
0000
,
0200
0000
0000
0300
,
1001
0000
0000
0000
,
1000
0000
0010
0000
,
0100
0000
0000
0000
,
0010
0000
0100
0000
,
0001
0000
0000
0000
,
0010
0000
0100
0000
,
1000
0000
0000
0000
,
0001
0000
1000
0000
,
0010
0000
0000
0000
,
0100
0000
0000
0000
,
0001
0000
0000
0000
,
1000
0000
0001
0000
,
1000
0000
0000
0000
,
0010
0000
0000
0000
,
1000
0000
0000
0000
,
0100
0000
0010
0000
,
0100
0000
0000
0000
,
1000
0000
0000
0000
,
0010
0000
0100
0000
,
0001
1000
0001
1000
,
0020
0000
0000
0000
,
0030
0000
0000
0000
;

//--------------- dance-single - Pandemonium X ----------------
#NOTES:
     dance-single:
     Pandemonium X:
     Easy:
     7:
     0,0,0,0,0:
0000
0000
0000
0000
,
0000
0000
0000
0000
,
0000
0000
0000
0000
,
0000
0000
0000
0000
,
0000
0000
0000
0000
,
0000
0000
0000
0000
,
0001
1000
0001
1000
,
0010
0100
0010
0100
,
0001
0100
0010
1000
,
1001
0000
0000
0000
,
0001
0001
1000
1000
,
0010
0010
0100
0100
,
0001
0001
0010
0010
,
0100
0100
1000
1000
,
0001
0101
0100
0110
,
0010
1010
1000
1100
,
0100
0110
0010
0011
,
0001
0101
0100
0010
,
2000
0100
0100
0100
,
0001
0001
0001
3001
,
0002
0100
0100
0100
,
1000
1000
1000
1003
,
0010
0010
0100
0100
,
0001
0001
1000
1000
,
0001
0000
0000
0000
0100
0000
0000
0000
0010
0000
0000
1000
0000
0000
0000
0000
,
1001
0000
0000
0000
,
0110
0000
0000
0000
,
1000
0000
0000
0000
,
0001
0000
0000
0000
,
1000
0000
0001
0000
,
0200
0000
0000
0000
,
0310
0000
0000
0000
,
0100
0000
0000
0000
,
0010
0000
0100
0000
,
0000
0002
0000
0000
0000
0000
0000
0003
,
0000
2000
0000
0000
0000
0000
0000
3000
,
0000
0020
0000
0000
0000
0000
0030
0000
,
0100
0000
0010
0000
,
1000
0200
0000
0000
0000
0000
0000
0300
,
0000
0020
0000
0000
0000
0000
0000
0030
,
0000
0002
0000
0000
0000
0000
0000
0003
,
1000
0000
0001
0000
,
0100
0020
0000
0000
0000
0000
0000
0030
,
0000
0102
0000
0000
0000
0000
0000
0003
,
0000
2001
0000
0000
0000
0000
0000
0000
,
3100
0000
0010
0000
,
0001
2000
0000
0000
0000
0000
0000
3000
,
0000
1020
0000
0000
0000
0000
0000
0030
,
0000
0102
0000
0000
0000
0000
0000
0000
,
1003
0000
0001
0000
,
0220
0000
0000
0330
,
2000
3020
0230
0301
,
1000
0100
1000
1100
,
0010
0002
0013
0001
,
0100
0010
0100
0010
,
1000
0000
0000
0000
0001
0000
0000
0000
0100
0000
0000
0100
0000
0000
0100
0000
,
0010
1000
0001
0010
,
0001
2000
3100
0010
,
0100
1000
0010
0100
,
0001
0000
0000
0000
1000
0000
0000
0000
0010
0000
0000
0010
0000
0000
0010
0000
,
0100
0001
0010
0100
,
1000
0100
0010
0001
,
0100
0010
1000
0001
,
0010
0000
0000
0000
0001
0000
0000
0000
0100
0000
0000
0100
0000
0000
0100
0000
,
0010
1000
0001
0010
,
0001
1000
0100
0010
,
0100
1000
0010
0100
,
0001
0000
0000
0000
1000
0000
0000
0000
0010
0000
0000
1000
0000
0000
0001
0000
,
1001
0000
0000
0000
,
0110
0000
0000
0000
,
1001
0000
0110
0000
,
1001
0110
1001
0110
,
2002
0000
0000
0000
,
0000
3003
0000
0000
0000
0000
0000
0000
0000
0000
0000
0000
0000
0000
0000
0000
;

//--------------- dance-single - Pandemonium X ----------------
#NOTES:
     dance-single:
     Pandemonium X:
     Medium:
     11:
     0,0,0,0,0:
0000
0000
0000
0000
,
0000
0000
0000
0000
,
0000
0000
0000
0000
,
0000
0000
0000
0000
,
0000
0000
0000
0000
,
0000
0000
0000
0000
,
1000
1000
1000
1000
,
0001
0001
0001
0001
,
0100
0010
0100
0010
0100
0010
0100
0010
,
2002
0000
0000
0000
0000
0000
0000
3003
0000
0000
0000
0000
0000
0000
0000
0000
,
0001
0100
0001
0100
,
0010
0000
1000
0000
0010
0000
1000
0100
,
0010
0100
0010
0100
,
1000
0000
0000
0000
0100
0000
0000
0000
1000
0000
0000
1000
0000
0000
1000
0000
,
0001
1010
1000
0011
,
0100
0000
1001
0000
0010
0000
1100
1000
,
0010
0110
0100
1001
,
0001
0000
0000
0000
0011
0000
0000
0000
0001
0000
0000
1000
0000
0000
0010
0000
,
0200
0001
0010
0001
,
0010
0000
0001
0000
0310
0000
0010
1000
,
0002
0010
1000
0010
,
1000
0010
1000
0010
,
1003
1000
0010
0000
0100
0000
0001
0000
,
1000
0100
0010
0001
,
1000
0000
0001
0100
0010
1000
0100
0010
,
2002
0000
0000
0000
0000
0000
0000
3003
0000
0000
0000
0000
0000
0000
0000
0000
,
2010
0000
0000
0000
,
3002
0000
0000
0000
,
2003
0000
0000
0000
,
3200
0000
2300
0000
,
3020
0000
0000
0000
,
0230
0000
0000
0000
,
0302
0000
0000
0000
,
0023
0000
0000
0000
,
0130
0000
1000
0000
0000
1000
0000
0000
1000
0000
0000
0010
0000
0000
1000
0000
,
0000
0000
0001
0000
0000
0001
0000
0000
0001
0000
0000
0010
0000
0000
0001
0000
,
0000
0000
0100
0000
0000
0100
0000
0000
0100
0000
0000
0100
0000
0000
0010
0000
,
0100
0000
0000
0001
0000
0000
0100
0000
0010
0000
0000
1000
0000
0000
1001
0000
,
0000
0000
0001
0000
0000
0001
0000
0000
0001
0000
0000
0100
0000
0000
0001
0000
,
0000
0000
1000
0000
0000
1000
0000
0000
1000
0000
0000
0100
0000
0000
1000
0000
,
0000
0000
0010
0000
0000
0010
0000
0000
0010
0000
0000
0010
0000
0000
0100
0000
,
0010
0000
0000
1000
0000
0000
0010
0000
0100
0000
0000
0001
0000
0000
0011
0000
,
0001
1000
0010
0100
,
0001
0000
0010
0000
0100
0000
1000
0001
,
0100
0010
1000
0001
,
0010
0000
0000
0001
0000
0000
0100
0000
0010
0000
0000
1000
0000
0000
0100
0000
,
0010
0001
0100
0001
,
1000
0010
0100
0010
,
1000
0100
0010
0001
,
0010
0000
0000
0001
0000
0000
0100
0000
0010
0000
0000
1000
0000
0000
0001
0000
,
0220
0000
0000
0000
0000
0000
0000
0330
0000
0000
0000
0000
0000
0000
0000
0000
,
0001
0001
1000
1000
0010
0010
1001
0000
,
0101
0000
0100
0000
0000
0001
0000
0000
0010
0000
0000
0001
0000
0000
0100
0000
,
0000
0000
0010
0000
0000
1000
0000
0000
0100
0000
0000
0010
0000
0000
0100
0000
,
0000
0000
1000
0000
0000
0001
0000
0000
0010
0000
0000
0001
0000
0000
1000
0000
,
1000
0000
0000
0001
0000
0000
0100
0000
0101
0000
0000
0011
0000
0000
1100
0000
,
0000
0000
0100
0000
0000
1000
0000
0000
0010
0000
0000
0100
0000
0000
0010
0000
,
0000
0000
0100
0000
0000
0001
0000
0000
0010
0000
0000
0100
0000
0000
0010
0000
,
0000
0000
0001
0000
0000
1000
0000
0000
0010
0000
0000
1000
0000
0000
0001
0000
,
0100
0000
0000
0001
0000
0000
1000
0000
1100
0000
0000
0110
0000
0000
0011
0000
,
0000
0000
0001
0000
0000
0010
0000
0000
0100
0000
0000
1000
0000
0000
1001
0000
,
0000
0000
1000
0000
0000
0100
0000
0000
0010
0000
0000
0001
0000
0000
0101
0000
,
0000
0000
0001
0000
0000
0100
0000
0000
0010
0000
0000
1000
0000
0000
0010
0000
,
0110
0000
0000
0100
0000
0000
0001
0000
1001
0000
0000
0110
0000
0000
1001
0000
,
0000
0000
1000
0000
0000
0100
0000
0000
0010
0000
0000
0001
0000
0000
0011
0000
,
0000
0000
0001
0000
0000
0010
0000
0000
0100
0000
0000
1000
0000
0000
1100
0000
,
0000
0000
0100
0000
0000
1000
0000
0000
0010
0000
0000
0100
0000
0000
0001
0000
,
1000
0000
0000
0001
0000
0000
0100
0000
0101
0000
0000
1010
0000
0000
1001
0000
,
0000
0000
0001
0000
0000
1000
0000
0000
0100
0000
0000
0010
0000
0000
0001
0000
,
0000
0000
0010
0000
0000
0100
0000
0000
1000
0000
0000
0010
0000
0000
0000
0000
,
0000
0000
0100
0000
0000
0100
0000
0000
0000
0000
0010
0000
0000
0010
0000
0000
,
0100
0000
0001
0000
0100
0000
0001
0000
1000
0000
0001
0000
1000
0001
1000
0001
,
2000
0000
0000
0000
,
3000
0000
0000
0000
;

//--------------- dance-single - Pandemonium X ----------------
#NOTES:
     dance-single:
     Pandemonium X:
     Hard:
     15:
     0,0,0,0,0:
0000
0000
0000
0000
,
0000
0000
0000
0000
,
0000
0000
0000
0000
,
0000
0000
0000
0000
,
0000
0000
0000
0000
,
0000
0000
0000
0000
,
0001
0001
0001
0001
,
1000
0100
1000
0100
1000
0100
1000
0100
,
0010
0001
0010
0001
0100
0001
0100
0001
0100
0010
0100
0010
1000
0010
1000
0010
,
0200
0000
0000
0000
0000
0000
0000
0300
0000
0000
0000
0000
0000
0000
0000
0000
,
0001
1000
0001
1000
0001
1000
0001
1000
,
0001
0100
0001
0100
0001
0100
0001
0001
,
0010
0100
0010
0100
0010
0100
0010
0100
,
1000
0000
0001
0000
1000
0000
0001
0000
1000
0000
0000
1000
0000
0000
1000
0000
,
0001
0100
0110
0000
0010
1000
1100
0000
,
0100
0010
0011
0000
0001
0100
0110
0010
,
0100
0001
1001
0000
1000
0100
0110
0000
,
0100
0000
1000
0000
1100
0000
0000
0000
0001
1000
0000
1000
0001
0000
1000
0000
,
2001
0001
0010
0010
,
0100
0000
0100
0000
0010
0000
3010
0100
,
0002
0100
0010
0010
,
1000
0000
1000
0000
0100
0000
0103
0010
,
1000
0001
1000
0001
0010
0001
0010
0001
,
1000
0100
1000
0100
1000
0010
0100
0001
,
1000
0100
1000
0100
0010
0100
0010
0100
0010
0001
0010
0001
0100
0001
0100
0001
,
0020
0000
0000
0000
0000
0000
0000
0030
0000
0000
0000
0000
0000
0000
0000
0000
,
2001
0000
0000
0000
,
0002
0000
0000
3000
,
0200
0000
0000
0003
,
0020
0300
2000
0030
,
0200
0000
0000
3000
,
0020
0000
0000
0300
,
0200
0000
0000
0030
,
0020
0300
0002
0030
,
1003
0000
0001
0000
0000
0100
0000
0000
0001
0000
0000
0010
0000
0000
0100
0000
,
0000
0000
0010
0000
0000
0100
0000
0000
1000
0000
0000
0010
0000
0000
0100
0000
,
0000
0000
0001
0000
0000
1000
0000
0000
0010
0000
0000
1000
0000
0000
0001
0000
,
0001
0000
0000
0100
0000
0000
0010
1000
0010
0000
0000
0100
0000
0000
0001
0000
,
0000
0000
1000
0000
0000
0010
0000
0000
1000
0000
0000
0100
0000
0000
0010
0000
,
0000
0000
0100
0000
0000
0010
0000
0000
0001
0000
0000
0100
0000
0000
0010
0000
,
0000
0000
1000
0000
0000
0001
0000
0000
0100
0000
0000
0001
0000
0000
1000
0000
,
1000
0000
0000
0010
0000
0000
0100
0001
0100
0000
0000
0010
0000
0000
1000
0000
,
0001
0000
2001
0000
0000
0010
0000
0000
0001
0000
0000
0010
0000
0000
3001
0000
,
0000
0000
1002
0000
0000
0100
0000
0000
1000
0000
0000
0100
0000
0000
1003
0000
,
0000
0000
0201
0000
0000
0010
0000
0000
0001
0000
0000
0010
0000
0000
0301
0000
,
2001
0000
0000
0100
0000
0000
3010
0000
0102
0000
0000
0010
0000
0000
1003
0000
,
0001
0000
0201
0000
0000
1000
0000
0000
0001
0000
0000
0310
0000
0000
1001
0000
,
0000
0000
0021
0000
0000
1000
0000
0000
0001
0000
0000
0130
0000
0000
1001
0000
,
0000
0000
0021
0000
0000
0130
0000
0000
2100
0000
0000
3010
0000
0000
0100
0000
,
0102
0000
0000
0013
0000
0000
1100
0000
1020
0000
0000
0130
0000
0000
1010
0000
,
0200
0000
0000
0000
0000
0000
0000
0300
0000
0000
0000
0000
0000
0000
0000
0000
,
0001
0100
0001
0100
0010
1000
0010
1000
0001
1000
0001
1000
0020
0000
0000
0000
,
0130
0000
0001
0000
1000
0001
0000
0001
0010
0000
0010
0100
0000
0100
1000
0000
,
0000
0000
0001
0000
1000
0100
0000
0100
0010
0000
0010
0001
0000
0001
0100
0000
,
0001
0000
1000
0000
0010
0100
0000
0100
0001
0000
0001
1000
0000
1000
0100
0000
,
2100
0000
0000
0000
3001
0010
0001
0010
0100
0000
0000
0110
0000
0000
1100
0000
,
1000
0000
0010
0000
0100
0001
0000
0001
0010
0000
0010
0100
0000
0100
1000
0000
,
0001
0000
1000
0000
0010
1000
0000
1000
0010
0000
0010
0100
0000
0100
0001
0000
,
0010
0000
0100
0000
0010
0001
0000
0001
1000
0000
1000
0010
0000
0010
0100
0000
,
0001
0000
1000
0000
0010
0100
0010
0100
0001
0000
0000
1010
0000
0000
0011
0000
,
1001
0000
0001
0000
0100
0001
0000
0010
0100
0000
0010
0001
0000
1000
0010
0000
,
0100
0000
0001
0000
1000
0100
0000
0010
0001
0000
0100
0010
0000
1000
0001
0000
,
0010
0000
0100
0000
0010
0001
0000
0010
0100
0000
0010
0001
0000
1000
0010
0000
,
0100
0000
0000
0000
0010
1000
0010
1000
0100
0000
0000
0110
0000
0000
0011
0000
,
0001
0000
1000
0000
0001
0010
0000
0100
0010
0000
0100
1000
0000
0010
0100
0000
,
0010
0000
0100
0000
0001
1000
0000
0100
0010
0000
0100
1000
0000
0010
0100
0000
,
0010
1000
0010
1000
0001
0100
0001
0100
0001
0010
0001
0010
0100
1000
0100
1000
,
0001
0000
1000
0000
0010
0100
0001
1000
0100
0000
0000
0110
0000
0000
0011
0000
,
1001
0000
0001
0000
0000
0100
0000
0000
0010
0000
0000
1000
0000
0000
0001
1000
,
0100
0000
0010
0000
0000
0001
0000
0000
0100
0000
0000
0010
0000
0000
1000
0001
,
0010
0000
0021
0000
0000
0130
0010
0001
1000
0000
1020
0000
0000
0130
0010
1000
,
0010
0000
1001
0000
0100
0000
1001
0000
0110
0000
0110
0000
0001
0100
0010
2000
,
0002
0000
0000
0000
,
3003
0000
0000
0000
;

//--------------- dance-double - Pandemonium X ----------------
#NOTES:
     dance-double:
     Pandemonium X:
     Easy:
     7:
     0,0,0,0,0:
00000000
00000000
00000000
00000000
,
00000000
00000000
00000000
00000000
,
00000000
00000000
00000000
00000000
,
00000000
00000000
00000000
00000000
,
00000000
00000000
00000000
00000000
,
00000000
00000000
00000000
00000000
,
00010000
00000000
00001000
00000000
,
00010000
00001000
00010000
00001000
,
00010000
00001000
00010000
00001000
,
00022000
00000000
00033000
00000000
,
00001000
01000000
00001000
01000000
,
00100000
01000000
00100000
01000000
,
00010000
00100000
00010000
00100000
,
00001000
00100000
00001000
00100000
,
00001000
00010000
00000100
00001000
,
00000010
00001000
00000010
00000100
,
00000001
00000010
00000100
00001000
,
00000100
00010000
00001000
01000000
,
10010000
00010000
00010000
00010000
,
10000000
10000000
10000000
10000000
,
01000000
01000000
01000000
01000000
,
00100000
00100000
00100000
00100000
,
00001000
00001000
00010000
00010000
,
00000100
00000100
00001000
00001000
,
00000010
00000100
00001000
00010000
,
00022000
00000000
00033000
00000000
,
01001000
00000000
00000000
00000000
,
01000000
00000000
00000000
00000000
,
00100000
00000000
00000000
00000000
,
10000000
00000000
00010000
00000000
,
00200000
00000000
00000000
00000000
,
01300000
00000000
00000000
00000000
,
00100000
00000000
00000000
00000000
,
00001000
00000000
00000000
00000000
,
00011000
00000000
00010000
00000000
,
00000200
00000000
00001300
00000000
,
00000010
00000000
00000100
00000000
,
00000001
00000010
00000001
00000000
,
00001000
00000000
00000100
00000000
,
00010000
00000000
00001000
00000000
,
01000000
00000000
00010000
00000000
,
00100000
00000000
01000000
10000000
,
01000000
01000000
01000000
00000000
,
00120000
00100000
00130000
00000000
,
00010000
00010000
00010000
00100000
,
00001000
00001000
00010000
00010000
,
00000100
00000100
00000100
00000000
,
00000010
00000010
00000010
00000000
,
00000001
00000001
00000001
00000000
,
00001001
00000000
00000110
00000000
,
00001001
00000000
00000000
00000000
,
00000020
00020030
00032000
00013000
,
00001000
01000000
00001000
01000000
,
00010000
00100000
00010000
00100000
,
01000000
10000000
01000000
10000000
,
01000000
00000000
00000000
00000000
10000000
00000000
00100000
00000000
10000000
00000000
00000000
10000000
00000000
00000000
10000000
00000000
,
00010000
10000000
00010000
10000000
,
00010000
00100000
00010000
00100000
,
00001000
00100000
00001000
00100000
,
00001000
00000000
00000000
00000000
00010000
00000000
00000000
00000000
00000100
00000000
00000000
00000100
00000000
00000000
00000100
00000000
,
00001000
00000010
00001000
00000010
,
00000100
00000001
00000100
00000001
,
00000010
00000100
00000010
00000001
,
00001000
00000000
00000000
00000000
00000100
00000000
00010000
00000000
00000100
00000000
00000000
00000100
00000000
00000000
00010000
00000000
,
00001000
00010000
00001000
00010000
,
00001000
01000000
00001000
01000000
,
00010000
00100000
01000000
10000000
,
00010000
00000000
00000000
00000000
01000000
00000000
00000000
00000000
00001000
00000000
00000000
00010000
00000000
00000000
00000100
00000000
,
00001000
00000000
00000000
00000000
,
00001001
00000000
00000000
00000000
,
00010010
00000000
00011000
00000000
,
01001000
01100000
10010000
01100000
,
20000000
00000000
00000000
00000000
,
30000000
00000000
00000000
00000000
;

//--------------- dance-double - Pandemonium X ----------------
#NOTES:
     dance-double:
     Pandemonium X:
     Medium:
     11:
     0,0,0,0,0:
00000000
00000000
00000000
00000000
,
00000000
00000000
00000000
00000000
,
00000000
00000000
00000000
00000000
,
00000000
00000000
00000000
00000000
,
00000000
00000000
00000000
00000000
,
00000000
00000000
00000000
00000000
,
00011000
00010000
00010000
00010000
,
00000100
00000100
00001000
00001000
,
00000010
00000100
00000010
00000100
00000010
00000100
00000010
00000100
,
00002002
00000000
00000000
00000000
00000000
00000000
00000000
00003003
00000000
00000000
00000000
00000000
00000000
00000000
00000000
00000000
,
00000001
00000100
00000010
00001000
,
00000100
00000000
00010000
00000000
00001000
00000000
01000000
00010000
,
00100000
01000000
00100000
00010000
,
10000000
00000000
00000000
00000000
00100000
00000000
00000000
00000000
01000000
00000000
00000000
00001000
00000000
00000000
00010000
00000000
,
00000100
00001100
00001000
00001010
,
00000010
00000000
00000110
00000000
00000100
00000000
00000101
00000001
,
00000010
00000110
00000100
00001100
,
00000100
00000000
00000000
00000000
00010100
00000000
00000000
00000000
00010000
00001000
00000000
00010000
00001000
00000000
00010000
00000000
,
00000200
00001000
00010000
00001000
,
00020300
00000100
00001000
00000100
,
00032000
01000000
00010000
01000000
,
00203000
00010000
00001000
00010000
,
00301000
01000000
00001000
00000000
01000000
00100000
01000000
00000000
,
00010000
00100000
00010000
00000000
00100000
00001000
00100000
00000000
,
00001000
00010000
00001000
00010000
00001000
00010000
00001000
00010000
,
00022000
00000000
00000000
00033000
00000000
00000000
00000000
00000000
,
00010100
00000000
00000000
00000000
,
00000100
00000000
00000000
00000000
,
00001000
00000000
00000000
00000000
,
00000010
00000000
00000100
00000000
,
00000002
00000000
00000000
00000000
,
00000013
00000000
00000000
00000000
,
00000001
00000000
00000000
00000000
,
00000100
00000000
00000000
00000000
,
00001001
00000001
00000100
00000010
,
00001000
00000000
00000100
00010000
00010000
00000000
00001000
00000000
,
01000000
00100000
10000000
00010000
,
00210000
00301000
00010200
00001300
,
00001010
00000010
00000100
00000001
,
00000010
00000000
00000100
00000010
00000010
00000000
00000001
00000000
,
00000100
00000010
00001000
00000100
,
00010200
00001300
02001000
03100000
,
10010000
00000000
10000000
00000000
00010000
00000000
01000000
00010000
,
01000000
00000000
00010000
00000000
00100000
00000000
00001000
00010000
,
00010000
00000000
00000100
00000000
00001000
00000000
00000010
00001000
,
00001020
00000130
00002001
00003100
,
00000011
00000010
00000001
00000000
00000100
00000010
00000100
00000000
,
00000010
00001000
00000010
00000000
00001000
00000100
00001000
00000000
,
00000100
00010000
00000100
00010000
00001000
00010000
00001000
00010000
,
00001000
00000000
00000000
01000000
00000000
00000000
00100000
00000000
10000000
00000000
00000000
01000000
00000000
00000000
00100000
00000000
,
00002000
00000000
00000000
00000000
00000000
00000000
00000000
00003000
00000000
00000000
00000000
00000000
00000000
00000000
00000000
00000000
,
00010000
00001000
00010000
00000000
00001000
00010000
00001000
00000000
00010000
00001000
00010000
00000000
00011000
00000000
00000000
00000000
,
00001000
00000000
01000000
00000000
00000000
00010000
00000000
00000000
00100000
00000000
00000000
01000000
00000000
00000000
00100000
00000000
,
00000000
00000000
00001000
00000000
00000000
00010000
00000000
00000000
00000100
00000000
00000000
00001000
00000000
00000000
00000010
00000000
,
00000000
00000000
00000100
00000000
00000000
00000001
00000000
00000000
00000010
00000000
00000000
00000001
00000000
00000000
00000100
00000000
,
00000010
00000000
00000000
00000000
00000001
00000000
00000100
00000000
00000110
00000000
00000000
00001010
00000000
00000000
00001100
00000000
,
00000000
00000000
00000100
00000000
00000000
00010000
00000000
00000000
00001000
00000000
00000000
01000000
00000000
00000000
00010000
00000000
,
00000000
00000000
00100000
00000000
00000000
01000000
00000000
00000000
10000000
00000000
00000000
00010000
00000000
00000000
01000000
00000000
,
00000000
00000000
00100000
00000000
00000000
01000000
00000000
00000000
00001000
00000000
00000000
00010000
00000000
00000000
00000100
00000000
,
00001000
00000000
00000010
00000000
00000100
00000000
00000001
00000000
00000011
00000000
00000000
00001100
00000000
00000000
00000011
00000000
,
00000001
00000000
00000100
00000000
00000000
00000010
00000000
00000000
00010000
00000000
00000000
00001000
00000000
00000000
01000000
00000000
,
00000000
00000000
00010000
00000000
00000000
00100000
00000000
00000000
01000000
00000000
00000000
10000000
00000000
00000000
00010000
00000000
,
00000000
00000000
10000000
00000000
00000000
00100000
00000000
00000000
01000000
00000000
00000000
00010000
00000000
00000000
00100000
00000000
,
00101000
00000000
00000000
00000000
00100000
00000000
00010000
00000000
01010000
00000000
00000000
00110000
00000000
00000000
00101000
00000000
,
00010000
00001000
00000100
00000000
00001000
00000010
00000100
00000000
,
00000010
00000001
00000010
00000000
00000100
00000001
00000100
00000000
,
00000001
00000010
00000100
00000000
00000010
00000001
00001000
00000000
,
00000100
00000000
00000000
00010000
00000000
00000000
00001000
00000000
01000000
00000000
00000000
00010000
00000000
00000000
00100000
00000000
,
01000000
00000000
00100000
00000000
00000000
00001000
00000000
00000000
00010000
00000000
00000000
00000100
00000000
00000000
00001000
00000000
,
00000000
00000000
00000010
00000000
00000000
00000100
00000000
00000000
00000001
00000000
00000000
00000010
00000000
00000000
00000000
00000000
,
00000000
00000000
00000100
00000000
00000000
00000100
00000000
00000000
00000000
00000000
00010000
00000000
00000000
00010000
00000000
00000000
,
00001000
00000000
00010000
00000000
00001000
00000000
00010000
00000000
00001000
00000000
00010000
00000000
00001000
00010000
00001000
00010000
,
00002000
00000000
00000000
00000000
,
00003000
00000000
00000000
00000000
;

//--------------- dance-double - Pandemonium X ----------------
#NOTES:
     dance-double:
     Pandemonium X:
     Hard:
     15:
     0,0,0,0,0:
00000000
00000000
00000000
00000000
,
00000000
00000000
00000000
00000000
,
00000000
00000000
00000000
00000000
,
00000000
00000000
00000000
00000000
,
00000000
00000000
00000000
00000000
,
00000000
00000000
00000000
00000000
,
00010200
00010000
00001000
00010300
,
00001000
00010000
00001000
00010000
00001000
01000000
00001000
01000000
,
00100000
10000000
00100000
10000000
00010000
01000000
00010000
01000000
00010000
00100000
00010000
00100000
00001000
00100000
00001000
00100000
,
00020000
00000000
00000000
00000000
00000000
00000000
00000000
00030000
00000000
00000000
00000000
00000000
00000000
00000000
00000000
00000000
,
01000000
00010000
01000000
00010000
00100000
00001000
00100000
00001000
,
00010000
00001000
00010000
00001000
00010000
00000100
00010000
00000100
,
00001000
00000010
00001000
00000010
00000100
00000001
00000100
00000001
,
00001000
00000000
00000001
00000000
00001000
00000000
00000001
00000000
00001000
00000000
00000000
00001000
00000000
00000000
00001000
00000000
,
00000100
00010000
00011000
00000000
00001000
01000000
01100000
00000000
,
01000000
00010000
00110000
00000000
01000000
10000000
11000000
01000000
,
00100000
00010000
01010000
00000000
01000000
00001000
00011000
00000000
,
00010000
00000000
00000100
00000000
00001100
00000000
00000000
00000000
00001010
00000000
00000000
00001010
00000000
00000000
00001010
00000000
,
00000201
00000010
00000001
00000310
,
00002010
00000100
00000010
00003100
,
00012000
00100000
00010000
00103000
,
21000000
00100000
01000000
00100000
,
30010000
01000000
00010000
01000000
00010000
00100000
00010000
00100000
,
00001000
00100000
00001000
00100000
00001000
00010000
00001000
00010000
,
00000100
00001000
00000100
00001000
00000001
00000010
00000001
00000010
00000001
00000100
00000001
00000100
00000010
00001000
00000010
00001000
,
00000200
00000000
00000000
00000000
00000000
00000000
00000000
00000300
00000000
00000000
00000000
00000000
00000000
00000000
00000000
00000000
,
00012000
00000000
00000000
00000000
,
02003000
00000000
00000000
00000000
,
03200000
00000000
00000000
00000000
,
20300000
00000000
00000000
30000000
,
22000000
00000000
00000000
00000000
00000000
00000000
00000000
30000000
,
03200000
00000000
00000000
00000000
,
00302000
00000000
00000000
00000000
,
00023000
00000000
00000000
00000000
,
00031000
00000000
00010000
00000000
00000000
00010000
00000000
00000000
00000100
00000000
00000000
00001000
00000000
00000000
00000010
00000000
,
00000000
00000000
00000100
00000000
00000000
00000100
00000000
00000000
00000001
00000000
00000000
00000010
00000000
00000000
00000001
00000000
,
00000000
00000000
00001000
00000000
00000000
00001000
00000000
00000000
00000100
00000000
00000000
00000100
00000000
00000000
00010000
00000000
,
00001000
00000000
00000000
01000000
00000000
00000000
00010000
00000000
00110000
00000000
00000000
11000000
00000000
00000000
10010000
00000000
,
00000000
00000000
10000000
00000000
00000000
10000000
00000000
00000000
00100000
00000000
00000000
01000000
00000000
00000000
00010000
00000000
,
00000000
00000000
00100000
00000000
00000000
00100000
00000000
00000000
00001000
00000000
00000000
00010000
00000000
00000000
00000010
00000000
,
00000000
00000000
00000100
00000000
00000000
00000100
00000000
00000000
00000010
00000000
00000000
00001000
00000000
00000000
00000100
00000000
,
00000010
00000000
00000000
00000100
00000000
00000000
00001000
00000000
00001010
00000000
00000000
00000101
00000000
00000000
00001001
00000000
,
00000000
00000000
00000002
00000000
00000000
00000203
00000000
00000000
00002300
00000000
00000000
00023000
00000000
00000000
00031000
00000000
,
00000000
00000000
00002000
00000000
00000000
02003000
00000000
00000000
03200000
00000000
00000000
20300000
00000000
00000000
31000000
00000000
,
00000000
00000000
00200000
00000000
00000000
00302000
00000000
00000000
00023000
00000000
00000000
00030200
00000000
00000000
00002300
00000000
,
00003020
00000000
00000000
00000230
00000000
00000000
00002300
00000000
00023000
00000000
00000000
00230000
00000000
00000000
10300000
00000000
,
01000000
00100000
00010000
01000000
00010000
00100000
00001000
00010000
,
00000010
00000100
00000001
00000010
00000100
00001000
00000100
00010000
,
00001000
01000000
00100000
01000000
00010000
00100000
01000000
10000000
,
11000000
00000000
00000000
00110000
00000000
00000000
00101000
00000000
00011000
00000000
00000000
00010100
00000000
00000000
00011000
00000000
,
00002000
00000000
00000000
01003000
,
00001000
00010000
00000100
00010000
00001000
01000000
00001000
00010000
00000010
00010000
00001000
00100000
00010000
00000000
00000000
00000000
,
10000000
00000000
00010000
00000000
01000000
00010000
00000000
00100000
00001000
00000000
00010000
00001000
00000000
00010000
00000010
00000000
,
00000000
00000000
00000100
00000000
00000010
00001000
00000000
00000100
00000010
00000000
00000001
00000010
00000000
00000001
00000100
00000000
,
00000000
00000000
00000010
00000000
00000100
00000001
00000000
00001000
00000100
00000000
00000010
00000001
00000000
00000000
00001000
00000000
,
00001010
00000000
00000000
00000000
00010000
00001000
00010000
00001000
00010000
00000000
00000000
00011000
00000000
00000000
01001000
00000000
,
00000000
00000000
00010000
00000000
01000000
00100000
00000000
01000000
00010000
00000000
00100000
01000000
00000000
10000000
00010000
00000000
,
00000000
00000000
10000000
00000000
00100000
01000000
00000000
00010000
00100000
00000000
00001000
00010000
00000000
00001000
01000000
00000000
,
00000000
00000000
00100000
00000000
01000000
00010000
00000000
00100000
00001000
00000000
00010000
00001000
00000000
00010000
00000010
00000000
,
00000010
00000000
00000010
00000000
00000010
00000001
00000010
00001000
00000100
00000000
00000000
00001100
00000000
00000000
00000011
00000000
,
00000000
00000000
00001001
00000000
00000001
00000100
00000000
00000010
00001000
00000000
00000100
00010000
00000000
00001000
00010000
00000000
,
00000000
00000000
01001000
00000000
00001000
01000000
00000000
00010000
00100000
00000000
01000000
10000000
00000000
00010000
10000000
00000000
,
00000000
00000000
10100000
00000000
01000000
00010000
00000000
00100000
01000000
00000000
10000000
00100000
00000000
01000000
00001000
00000000
,
00011000
00000000
00000000
00000000
00010000
00000100
00001000
00000010
00000100
00000000
00000000
00000110
00000000
00000000
00001001
00000000
,
00000001
00000000
00000100
00000000
00000010
00000000
00001000
00000000
00000100
00010000
00000100
00000000
00010000
00001000
00010000
00000000
,
00001000
00000000
01000000
00000000
00010000
00000000
00100000
00000000
01000000
10000000
01000000
00000000
10000000
00100000
10000000
00000000
,
00010000
01000000
00010000
01000000
00100000
01000000
00100000
10000000
00100000
10000000
00010000
10000000
00010000
00100000
00010000
00100000
,
00001000
00000000
00010000
00000000
00000100
00001000
00000010
00000100
00000001
00000000
00000000
00001010
00000000
00000000
00001100
00000000
,
00000000
00000000
00000200
00000000
00000000
00020300
00000000
00000000
00032000
00000000
00000000
02003000
00000000
00000000
03100000
10000000
,
01000000
00000000
00200000
00000000
00000000
00302000
00000000
00000000
00023000
00000000
00000000
00030200
00000000
00000000
00001300
00000010
,
00000100
00000000
00000002
00000000
00000000
00000013
00000100
00001000
00000100
00000000
00020000
00000000
00000000
00031000
01000000
00001000
,
00100000
00000000
00110000
00000000
10000000
00000000
11000000
00000000
10010000
00000000
10010000
00000000
00010000
01000000
00100000
10000000
,
00020000
00000000
00000000
00000000
,
00030000
00000000
00000000
00000000
;
