#TITLE:Hypersonik;
#SUBTITLE:;
#ARTIST:Eagle;
#TITLETRANSLIT:;
#SUBTITLETRANSLIT:;
#ARTISTTRANSLIT:;
#GENRE:;
#CREDIT:;
#MUSIC:Hypersonik.ogg;
#BANNER:;
#BACKGROUND:Hypersonik-bg.png;
#CDTITLE:;
#SAMPLESTART:98.838;
#SAMPLELENGTH:12.364;
#SELECTABLE:YES;
#OFFSET:-0.095;
#BPMS:0.000=87.500
,16.000=175.000
;
#STOPS:76.000=0.343
,77.000=0.343
,266.000=0.343
,267.000=0.343
;
#BGCHANGES:;
#FGCHANGES:;

//--------------- dance-single - Pandemonium X ----------------
#NOTES:
     dance-single:
     Pandemonium X:
     Beginner:
     6:
     0,0,0,0,0:
0000
0000
0000
0000
,
0000
0000
0000
0000
,
0000
0000
0000
0000
,
0000
0000
0000
0000
,
0001
0000
0000
0000
1000
0000
0000
0001
,
0000
1000
1000
0000
,
0001
0000
0000
0000
1000
0000
0000
0001
,
0000
0000
1000
0000
,
0001
0000
0000
0000
1000
0000
0000
0001
,
0000
1000
0001
0000
,
1000
0000
0001
0000
,
1000
0000
0001
0000
,
0110
0000
0000
0000
,
0000
0000
0000
0000
,
0000
0000
0000
0000
,
0000
0000
0000
0000
,
1000
0000
0100
0000
,
0010
0000
0001
0000
,
1000
0000
0100
0000
,
1001
0110
1001
0000
,
0000
0000
0001
0000
,
0000
0000
0010
0100
,
0000
0010
0000
0001
,
0000
0000
1000
0000
,
0000
0000
0010
0000
,
0000
0000
1000
0000
,
0001
0000
0010
0000
,
0100
0100
1000
0000
,
0000
0000
0010
0000
,
0000
0000
0100
0000
,
0010
0000
1000
0000
,
0000
0000
0001
0000
,
0000
0000
0010
0000
,
0000
0000
0200
0000
,
0000
0000
0000
0000
1300
0000
0000
1000
,
0000
0000
1001
0000
,
0001
0000
1000
0000
,
0010
0000
1000
1000
,
1000
0000
0001
0001
,
0001
0000
0110
0000
,
1000
0000
0001
0000
,
0010
0000
0100
0100
,
0100
0000
0010
0010
,
0010
0000
0100
0000
,
1001
0000
0001
0000
,
1000
0000
0010
0010
,
0010
0000
0100
0100
,
0100
0000
0001
0000
,
1000
0000
0010
0000
,
1000
0000
0100
0100
,
0100
0000
0010
0010
,
0010
0000
1001
0000
,
0000
0000
0000
0000
,
0000
0000
0000
0000
,
0000
0000
0000
0000
,
0000
0000
0001
0000
,
0000
1000
0000
0000
,
0000
0000
0001
0000
,
0000
1000
0010
0000
,
0100
0000
1001
0000
,
0000
0000
0001
0000
,
0000
0000
1000
0000
,
0000
0000
0010
0000
,
0000
0000
0100
0000
,
0010
0000
0100
0000
,
0010
0000
0100
0000
,
0010
0000
1001
0110
,
1001
0000
1000
0000
,
0001
0000
0010
0000
,
0100
0000
0010
0000
,
0001
0000
1000
0100
,
1000
0000
0100
0000
,
1000
0000
0010
0000
,
0100
0000
0010
0000
,
1000
0100
0010
0001
,
0000
0000
1000
0000
0000
0002
0000
0000
,
0103
0000
0000
0000
,
0010
0000
0000
0000
0000
0200
0000
0000
,
0310
0000
0000
0000
,
1000
0000
0000
0000
0000
0200
0000
0000
,
0310
0000
0001
0000
,
1000
0000
0001
0000
,
0100
0000
0010
0000
,
1001
0000
0000
0000
;

//--------------- dance-single - Pandemonium X ----------------
#NOTES:
     dance-single:
     Pandemonium X:
     Easy:
     9:
     0,0,0,0,0:
0000
0000
0000
0000
,
0000
0000
0000
0000
,
0010
0010
1001
0000
0000
0000
0000
0000
,
0000
0000
0000
0000
,
0001
0000
0001
0000
1000
0000
0001
1000
,
0000
0001
0001
0000
1000
0000
0000
0000
,
0001
0000
0001
0000
1000
0000
0100
0010
,
0000
0000
0010
0000
0010
0000
0000
0000
0001
0000
0000
0001
0000
0000
0001
0000
,
1000
0000
1000
0000
0001
0000
1000
0001
,
0000
1000
1000
0000
0001
0000
0000
0000
,
1000
0000
1000
0000
0001
0000
0010
0100
,
2000
3100
0020
0031
,
1001
0000
0001
0000
,
0100
0000
0010
0000
,
1000
0000
0010
0000
,
0100
0000
0001
0000
,
1000
0100
0010
0001
,
1000
0100
0010
0001
,
1000
0100
0010
0001
1000
0100
0010
0000
,
1001
0110
0001
0100
,
0010
0100
0001
0010
,
0100
0010
0001
2000
,
0100
3020
1030
0200
,
0310
0001
0100
0001
0010
0000
0001
0000
,
1000
0100
1000
0010
,
0100
1000
0200
0301
,
0200
0310
0200
0301
,
0010
0100
2000
0000
3001
0000
1000
0000
,
0100
0010
0001
0010
,
0001
1000
0010
2000
,
0100
3020
0130
0002
,
1003
0100
0010
0100
1000
0000
0001
0000
,
1000
0100
1000
0010
,
0100
0010
0100
0001
,
1000
0100
0100
0100
0020
0000
0000
0000
,
0030
0000
0001
0010
,
0001
0100
0010
1000
,
0001
0010
0002
0203
,
0310
1000
0100
0000
0020
0000
0032
0000
,
0023
0230
1300
0100
,
1000
0010
1000
0001
,
0010
0100
0020
0032
,
1003
0001
0010
0000
0001
0000
1000
0000
,
2020
3030
0010
1001
,
1000
0100
1000
0010
,
1000
0001
0020
0230
,
0310
0001
1000
0000
0020
0000
0230
0000
,
1300
0100
0002
0000
1003
0000
0100
0000
,
0010
0100
1000
0001
,
0010
0100
2000
3002
,
0203
0000
0000
0000
0300
0010
0000
0010
,
0010
0000
0100
0000
,
0000
0000
0000
0000
,
0000
0000
0001
0000
,
0000
1000
0000
0100
,
0000
1000
0000
0010
,
0000
0100
0000
0001
,
0000
1001
0000
1000
,
0000
0001
0020
0031
,
0100
0020
1030
0100
,
0010
0001
1000
0100
,
0010
0001
1000
0100
,
0010
0001
1000
0100
,
0010
0001
1000
1100
,
0100
0110
0010
0011
,
0001
0000
0101
0000
0001
0100
0010
1000
,
0001
0100
0010
0000
1001
0000
0110
0000
,
0001
0000
1000
0000
0100
0000
0010
0100
,
1000
0000
0100
0000
1000
0000
0010
0100
,
0001
0000
0010
0000
0001
0000
1000
0100
,
0010
0000
0100
0000
1000
0000
0001
0010
,
0100
0000
0010
0000
0001
0000
1000
0010
,
0100
0000
0010
0000
1000
0000
0001
0010
,
0100
0100
1000
1000
,
0001
0000
0000
0010
0000
0000
0100
0000
0000
1000
0000
0000
0001
0000
0000
0000
,
1000
0000
0000
0000
0000
0002
0020
0003
,
0130
0010
0001
1000
,
0101
0000
0000
0000
0000
2000
0020
3000
,
0130
0001
0010
0001
,
1001
0000
0000
0000
0000
2000
0200
3000
,
0310
0100
1000
0001
,
1001
0010
1001
0100
,
0101
1010
1100
0011
,
1001
0000
0000
0000
;

//--------------- dance-single - Pandemonium X ----------------
#NOTES:
     dance-single:
     Pandemonium X:
     Medium:
     14:
     0,0,0,0,0:
0000
0000
0000
0000
,
0000
0000
0000
0000
,
1000
0001
0110
0000
0000
0000
0000
0000
,
0000
0000
0000
0000
0000
0000
0000
0000
2000
0000
0000
0000
3100
0010
0001
1000
,
0010
1000
0010
0100
0010
1000
0010
0100
,
0010
1000
0010
0100
0001
0010
0100
1000
,
0001
0000
0100
0000
0010
0000
0100
0000
0001
0000
0010
0000
0001
0000
1000
0001
,
1000
0000
0001
0000
0100
0000
0010
0000
1000
0010
1000
0000
0010
0000
0100
0000
,
0010
0001
0010
0100
0010
0001
0010
0100
,
0010
0001
0010
0100
1000
0010
0100
0001
,
1000
0100
0010
0100
1000
0010
1000
0001
,
1000
0100
1000
0000
0100
0000
0010
0000
0001
0000
0010
0100
0010
0000
0100
0000
,
1000
0000
0001
0100
0020
0000
1030
0001
,
0020
0000
0130
1000
0020
0000
0130
0001
,
0020
0000
0130
1000
0020
0000
0130
0001
,
0020
0000
0130
1000
0020
0000
0130
0001
,
1000
0100
0010
0001
1000
0100
0010
0001
,
1000
0100
0010
0001
1000
0100
0010
0001
,
1000
0100
0010
0001
0010
0100
1000
0000
,
1001
0000
0000
0000
0110
0000
0000
0000
0001
0000
0000
0000
0100
0000
0000
0010
,
0000
0000
1000
0000
1001
0000
0000
0000
1000
0000
0000
0000
0100
0000
0000
0010
,
0000
0100
1100
0000
0100
1000
0020
0230
,
0000
0000
0301
1000
0001
0000
1000
0000
0100
0000
0000
0000
0021
0000
0000
0000
,
0130
0000
1000
0000
1000
0000
0001
0000
0100
0000
0000
0000
0001
0000
0000
0010
,
0000
0000
0001
0000
1001
0000
0000
0000
1000
0000
0000
0000
0001
0000
0000
1000
,
0000
0010
1010
0000
0010
0100
0001
0010
,
0100
0010
0010
0010
0000
0100
1000
0100
,
0010
0000
0001
1000
0020
0000
0000
0000
0130
0000
0000
0000
0001
0000
0000
0010
,
0000
0000
0001
0000
1001
0000
0000
0000
0001
0000
0000
0000
1000
0000
0000
0010
,
0000
1000
1100
0000
0100
0010
0002
0000
,
0000
0000
1003
0010
1000
0000
0001
0000
1000
0000
0000
0000
0201
0000
0000
0000
,
0000
0000
0310
0000
0010
0000
1000
0000
0100
0000
0000
0000
0010
0000
0000
0001
,
0000
0000
1000
0000
1010
0000
0000
0000
1000
0000
0000
0000
0001
0000
0000
0010
,
0000
0001
0101
0000
0001
0100
0010
1000
,
0001
1000
1000
1000
0100
0000
2000
0002
,
0000
0000
3003
0000
0021
0000
0130
0010
,
0100
0000
0000
0100
0000
0000
1000
0000
0001
0000
0100
0000
0001
0000
0000
1000
,
0000
0100
0010
0000
0200
0000
2300
0000
,
3010
0100
0001
0020
0000
0000
0032
0000
0000
2003
0000
0000
,
3020
0000
0230
0000
0310
1000
0010
0100
,
0001
0000
0000
0001
0000
0000
0001
0000
0010
0000
0100
0000
1000
0000
0000
1000
,
0000
0100
1000
0000
0200
0000
2300
0000
,
3010
0100
0001
0010
0000
0000
0200
0000
0000
0310
0000
0000
,
0012
0000
0103
0000
1010
0000
0101
0100
,
0010
0000
0000
0010
0000
0000
0010
0000
0100
0000
0001
0000
1000
0000
0000
1000
,
0000
0010
1000
0000
1200
0000
0320
0000
,
0031
0010
0100
1000
0000
0000
0002
0000
0000
2003
0000
0000
,
3010
0000
0100
0000
0001
0000
0020
0000
0000
0000
0000
0000
0130
0000
0000
0010
0000
0000
0001
0000
0000
1000
0000
0000
,
0010
0000
0000
0010
0000
0000
0010
0000
0100
0000
0001
0000
0010
0000
0000
0100
,
0000
0000
0010
0000
0001
0000
0000
0000
1000
0000
0000
0001
0000
0000
0100
0000
,
2001
0000
0000
0000
0000
0000
0000
0000
3000
0000
0001
0100
0000
0000
0100
0000
,
0020
0000
0000
0000
0000
1000
0000
0000
0130
0000
0000
0000
0001
0000
0000
0000
,
0010
0001
1000
0010
,
1000
0100
0010
0100
1000
0000
0001
0000
,
0100
0000
0000
0000
0001
0000
0010
0001
0010
0000
0000
0000
0001
0000
0000
0000
,
1000
0100
0010
0100
1000
0000
0001
0000
,
0100
0000
0001
0010
0100
0000
0010
0000
,
0001
1000
0010
0000
1000
0000
0001
0000
,
0010
0000
0000
0000
0100
0000
0000
0000
1000
0100
1000
0000
0001
0000
0100
0000
,
0010
0000
1000
0010
1000
0000
0001
0000
1000
0000
0000
0000
0100
0000
1000
0000
,
0020
0000
0130
0001
2000
0000
3010
0100
,
2000
0000
3100
0010
0002
0000
0103
0001
,
0020
0000
0130
1000
0002
0000
0103
0010
,
0002
0000
1003
0001
1000
0100
0010
0001
,
1000
0100
0010
0001
1000
0100
0010
0001
,
1000
0100
0010
0001
1000
0100
0010
0001
,
0010
0100
1000
0000
1001
0000
0110
0000
,
1001
0000
0000
1000
0000
0000
0100
0010
0000
0100
0000
0010
0001
0000
1000
0000
,
0010
0000
0000
0100
0000
0000
0001
0010
0000
0001
0000
1000
0000
0001
0010
0000
,
0100
0000
0000
0010
0000
0000
0001
0010
0000
0001
0000
0100
0010
0000
1000
0000
,
0100
0000
0000
0010
0000
0000
0100
1000
0000
0010
0000
0100
0000
0001
1000
0000
,
0100
0000
0000
1000
0000
0000
0010
0100
0000
0001
0000
0010
0001
0000
1000
0000
,
0100
0000
0000
0010
0000
0000
0100
1000
0000
0001
0000
1000
0010
0000
0100
0000
,
0001
0000
0000
0001
0010
0000
0000
0010
0100
0000
0000
0100
1000
0000
0000
1000
,
0200
0000
0000
0320
0000
0000
0032
0000
0000
2003
0000
0000
3020
0000
0000
0000
,
0130
0010
1000
0000
0100
0020
0002
0030
,
0103
1000
0100
0001
0010
1000
0010
0100
,
1000
0001
0100
0000
0001
0020
0200
0030
,
1300
0100
0001
0100
0010
0001
1000
0100
,
0010
0100
1000
0000
0100
2000
0020
3000
,
0130
1000
0100
0001
0010
0100
1000
0001
,
0100
0000
0001
0100
0110
0000
0010
1000
,
1100
0000
0000
1000
0100
0000
0000
0100
0010
0000
0000
0010
0001
0000
1000
0000
,
0110
0000
0000
0000
;

//--------------- dance-single - Pandemonium X ----------------
#NOTES:
     dance-single:
     Pandemonium X:
     Hard:
     16:
     0,0,0,0,0:
0000
0000
0000
0000
,
0000
0000
0000
0000
,
0001
0000
0000
0000
0001
0000
0000
0000
0220
0000
0000
0000
0000
0000
0000
0000
0330
0000
0000
0000
0000
0000
0000
0000
0000
0000
0000
0000
0000
0000
1000
0100
,
1000
0000
0000
0100
0000
0010
0100
0000
1002
0000
0000
0000
0103
1000
0100
0001
,
1000
0100
1000
0010
0100
0001
0010
0001
,
0010
0100
0010
0001
0100
0010
1000
0001
,
1000
0000
0000
0100
0000
0000
0010
0000
0000
0001
0000
0000
1000
0000
0000
0010
0000
0000
0100
0000
0000
0001
1000
0001
,
1000
0000
0000
0010
0000
0000
0100
0000
0000
0010
0000
0000
1000
0100
1000
0100
0000
0000
0010
0000
0000
0001
0000
0000
,
1000
0010
0100
0010
1000
0001
0010
0100
,
0010
0001
1000
0001
0010
0100
0010
0001
,
1000
0010
1000
0001
0010
0100
0010
0001
,
1000
0100
1000
0100
0000
0000
1000
0000
0000
0001
0000
0000
0010
0000
0000
0100
0010
0100
0010
0000
0000
0001
0000
0000
,
1000
0100
0010
0001
1000
0100
0010
0001
,
1000
0100
0010
0001
1000
0100
0010
0001
,
1000
0100
0010
0001
1000
0100
0010
0001
,
1000
0100
0010
0001
1000
0100
0010
0001
,
1100
0100
0010
0001
1100
0100
0010
0001
,
1100
0100
0010
0001
1100
0100
0010
0001
,
1100
0000
0100
0000
0010
0000
0001
0000
0011
0000
0010
0000
0100
1000
0000
0000
,
0011
0000
0000
0000
1100
0000
0000
0000
2001
0000
0000
0000
0010
0000
0000
0001
,
0000
0000
3001
0000
1001
0000
0000
0000
0021
0000
0000
0000
0100
0000
0000
0001
,
0000
0130
1001
0000
0101
0000
0200
0000
,
0301
0000
0010
0100
2000
0000
3002
0000
0013
0000
0000
0000
0100
0000
0100
0010
,
0001
0000
0100
0000
0100
0000
0010
0000
2001
0000
0000
0000
0010
0000
0000
0100
,
0000
0000
3001
0000
1001
0000
0000
0000
1200
0000
0000
0000
0010
0000
0000
1000
,
0000
0310
1001
0000
0000
1000
0010
0010
,
0100
0001
0001
0001
0010
0001
0100
1000
,
0100
0000
0010
1000
0200
0000
0000
0000
0310
0000
0000
0000
0021
0000
0000
0100
,
0000
0000
0031
0000
1001
0000
0000
0000
1001
0000
0000
0000
1200
0000
0000
0001
,
0000
1300
1001
0000
0001
0000
0200
0302
,
0023
0000
0130
1000
0020
0000
0230
0000
0301
0000
0000
0000
2000
0000
0000
0000
,
3100
0000
0010
0000
0010
0000
0100
0000
1002
0000
0000
0000
0100
0000
0000
0010
,
0000
0000
1003
0000
1001
0000
0000
0000
2100
0000
0000
0000
0010
0000
0000
0100
,
0000
0000
3010
0000
1010
0000
0000
0000
0001
0100
0010
1000
0001
0010
0100
1000
,
0001
0100
0010
1000
0001
0010
0100
1000
0001
0000
0000
0000
1000
0000
2000
0000
,
0000
0000
3001
0100
0020
0000
0130
0001
0020
0000
0230
0000
1300
0000
0100
0000
,
0110
0000
0000
1100
0000
0000
1010
0000
0101
0000
0001
0000
0011
0000
0000
1100
,
0000
0010
1001
0000
0102
0000
0023
0000
,
0100
0100
0100
0230
0000
0000
0320
0000
0000
0230
0000
0000
,
2300
0000
3002
0000
0013
0001
0101
0001
,
0011
0000
0000
0011
0000
0000
0010
0000
0110
0000
0100
0000
1100
0000
0000
1010
,
0000
0100
1001
0000
1020
0000
0230
0000
,
0010
0000
0010
0000
0010
0000
0320
0000
0000
0000
0000
0000
1030
0000
0000
0100
0000
0000
0010
0000
0000
0000
0000
0000
,
0021
0000
0130
1000
1001
0000
1100
1000
,
1010
0000
0000
1010
0000
0000
0010
0000
0110
0000
0100
0000
0101
0000
0000
0011
,
0000
1000
1001
0000
0101
0000
0021
0000
,
0100
0100
0100
0230
0000
0000
2300
0000
0000
3020
0000
0000
,
0130
0000
1000
0000
0100
0000
0002
0000
0000
0000
0000
0000
0013
0000
0000
0001
0000
0000
1000
0000
0000
0010
0000
0000
,
0110
0000
0000
0101
0000
0000
0001
0000
0011
0000
0010
0000
0011
0000
0000
1001
,
0000
0000
1000
0000
0011
0000
0000
0000
1001
0000
0000
0110
0000
0000
1001
0000
,
0220
0000
0000
0000
0000
0000
0000
0000
0330
0000
0002
2000
0000
0003
0200
3000
,
0320
0000
0000
0000
0000
0130
0000
0000
1001
0000
1000
0000
0001
0000
0010
0000
,
0100
1000
0010
1000
0010
0100
0010
1000
,
0100
0010
0001
1000
0001
0100
0010
1000
,
0001
0000
0000
0010
0000
0000
0100
0000
0000
1000
0001
1000
0001
0000
0000
0010
0000
0000
0100
0000
0000
0010
0000
0000
,
0001
0100
0001
0100
0000
0000
0010
0000
0000
1000
0000
0000
0001
0000
0000
0010
0000
0000
0100
0000
0000
0010
0000
0000
,
0001
1000
0010
0100
0010
1000
0001
1000
,
0010
0100
0010
1000
0001
0010
0001
1000
,
0010
0000
0000
0100
0000
0000
0010
0000
0000
1000
0000
0000
0001
0100
0001
0100
0000
0000
0001
0000
0000
1000
0000
0000
,
0010
0000
0000
0000
0000
0000
0100
0000
0010
0000
0100
0000
0010
0000
0000
0000
0000
0000
1000
0000
0000
0000
0000
0000
1001
0000
0000
0000
0000
0000
0001
0000
0000
0010
0000
0000
0000
0000
0000
0100
0000
0000
1000
0000
0000
0000
0000
0000
,
0020
0000
0000
0000
0130
0000
0001
0000
0010
0000
0100
1000
0000
0100
0010
0000
,
0002
0000
0000
0000
1003
0000
0010
0000
0100
0000
0001
0010
0000
0001
1000
0000
,
0200
0000
0000
0000
0310
0000
0100
0000
1000
0000
0010
0100
0000
0001
0010
0000
,
0200
0000
0310
0001
1001
1000
0100
0010
,
1001
0001
0010
0100
1001
1000
0100
0010
,
1001
0001
0010
0100
1001
1000
0100
0010
,
1001
0000
0001
0000
0010
0100
0000
0000
1001
0000
0000
0000
0110
0000
0000
0000
,
0101
0000
0000
0001
0010
0000
0010
0100
0000
1000
0000
0100
1000
0000
0010
0000
,
1010
0000
0000
1000
0100
0000
0100
0010
0000
0100
0000
1000
0000
0010
0100
0000
,
1001
0000
0000
0001
0100
0000
0010
0100
0000
0001
0000
0010
0000
0100
0010
0000
,
0001
0000
1000
0100
0000
1000
0010
0100
0000
1000
0000
0100
0000
0001
1000
0000
,
1010
0000
0000
1000
0100
0000
0100
0010
0000
0001
0000
0010
0001
0000
0100
0000
,
0101
0000
0000
0001
0010
0000
0010
0100
0000
0010
0000
0001
0000
0100
0010
0000
,
1000
0000
0001
0010
0100
0000
0100
0010
0001
0000
0001
1000
0010
0000
0010
1000
,
0200
0000
0310
0002
0000
0103
0020
0000
1030
0002
0000
0013
0100
1000
0001
1000
,
0001
0000
0000
0000
1010
0000
0000
0101
0000
0000
0002
0000
0023
0000
0000
0000
,
0130
0010
0001
0100
0010
0100
0001
0010
0100
1000
0100
1000
0010
1000
0001
0000
,
1001
0000
0000
0000
0101
0000
0000
1010
0000
0000
2000
0000
3200
0000
0000
0000
,
0310
0100
1000
0010
0100
0010
1000
0100
0010
0001
0010
0001
0100
0010
0100
0000
,
0101
0000
0100
0000
0010
0000
0000
1010
0000
0000
2000
0000
3200
0000
0000
0000
,
0310
0001
0100
0001
1000
0010
0100
0010
1000
0100
0010
0001
0100
0010
0100
0010
,
2000
0000
0000
3010
1000
0000
0001
0000
0020
0000
0000
0130
0010
0000
0001
0000
,
1000
0000
0001
0100
0010
0000
0100
0001
1000
0100
0010
0001
1000
0010
0100
0001
,
0020
0000
0000
0000
,
0030
0000
0000
0000
;

//--------------- dance-double - Pandemonium X ----------------
#NOTES:
     dance-double:
     Pandemonium X:
     Easy:
     9:
     0,0,0,0,0:
00000000
00000000
00000000
00000000
,
00000000
00000000
00000000
00000000
,
00010000
00010000
00011000
00000000
00000000
00000000
00000000
00000000
,
00000000
00000000
00000000
00000000
,
00000100
00000000
00001000
00000000
00000010
00000000
00000000
00000100
,
00000000
00000010
00000010
00000000
,
00000100
00000000
00000001
00000000
00001000
00000000
00000000
00000100
,
00000000
00010000
00001000
00001000
,
01000000
00000000
00010000
00000000
00100000
00000000
00000000
01000000
,
00000000
00100000
00010000
00000000
,
10000000
00100000
10000000
00010000
,
00100000
10000000
00100000
00010000
,
00022000
00000000
00000000
00000000
,
00033000
00000000
00000000
00000000
,
00000000
00000000
00000000
00000000
,
00000000
00000000
00000000
00000000
,
00010000
00000100
00001000
00000010
,
00000100
00000001
00000010
00000100
,
00001000
00000100
00010000
00001000
,
00011000
00110000
11000000
10000000
,
00100000
00100000
01000000
00010000
,
00100000
00100000
00001000
00020000
,
00000000
00030200
00000300
00002000
,
00000000
00003010
00000100
00000010
00001000
00000000
00000001
00000000
,
00000010
00000100
00000010
00000001
,
00001000
00000000
00000100
00000000
00000000
00010000
00002000
00000000
,
01003000
00100000
10000000
00100000
00000000
10000000
01000000
00000000
,
00200000
00302000
00013000
00001000
,
00100000
00010000
10000000
01000000
,
00100000
00001000
00000000
00020000
,
00000000
00032000
00003000
00200000
,
00000000
00310000
01000000
00010000
10000000
00000000
01000000
00000000
,
00100000
00010000
01000000
00010000
,
00100000
00001000
00010000
00000010
,
00000100
00000001
00000010
00000100
00002000
00000000
00000000
00000002
,
00003003
00000000
00000201
00000310
,
00000100
00000001
00001000
00000100
,
00010000
00001000
02000000
03020000
,
00230000
20300000
30200000
00320000
,
00031000
00011000
00010000
00000100
,
00001000
00000010
00000100
00001000
,
00000100
00000001
00000020
00002030
,
00003020
00000230
00020300
00032000
,
00200000
00303000
00210000
01300000
,
00100000
00001000
00010000
00000010
,
00000100
00000001
00000200
00002300
,
00023000
00032000
00023000
00032000
,
02003000
03020000
00130000
10010000
,
10000000
00010000
00100000
00001000
,
00010000
00000100
00002000
00003020
,
00000230
00000000
00000300
00000000
00000000
00000020
00000000
00000000
,
00000200
00000000
00000000
00000000
00000000
00000330
00000000
00000000
00002002
00000000
00000000
00000000
00000000
00000000
00000000
00000000
,
00000000
00000000
00000000
00000000
,
00000000
00003003
00001000
00000000
,
00000000
00000001
00001000
00000000
,
00000001
00000000
00001000
00000100
,
00001000
00000100
00010000
00000100
,
00010000
00000100
00010000
00001000
,
00010000
00001000
01000000
00001000
,
00010000
00100000
11000000
00000000
,
10000000
00000000
00100000
00000000
,
01000000
00000000
00010000
00000000
,
00100000
00000000
00001000
00000000
,
00010000
00000000
00000100
00001000
,
00000010
00000100
00000001
00000010
,
00000100
00001000
00000100
00010000
,
00001000
01000000
00011000
00001100
,
00000011
00000011
00000001
00000100
,
00001010
00001010
00001000
00000100
,
00010100
00010100
00010000
00001000
,
01001000
01010000
00010000
00100000
,
01100000
01100000
01000000
10000000
,
10010000
01010000
00010000
01000000
,
00020000
00230000
00302000
00023000
,
00030020
00000230
00000302
00002003
,
00003000
00000000
00000110
00000000
00000000
00000002
00000023
00000000
,
00000130
00000010
00000001
00001000
,
00000000
00000000
00001100
00000000
00000000
00000200
00020300
00000000
,
00031000
00100000
00001000
01000000
,
00010000
00000000
01100000
00000000
00000000
20000000
32000000
00000000
,
03100000
01000000
10000000
00010000
,
01010000
00000000
00110000
00000000
,
00100000
00001000
00010000
00000010
,
00011000
00000000
00000000
00000000
;

//--------------- dance-double - Pandemonium X ----------------
#NOTES:
     dance-double:
     Pandemonium X:
     Medium:
     13:
     0,0,0,0,0:
00000000
00000000
00000000
00000000
,
00000000
00000000
00000000
00000000
,
00001000
00000000
00001000
00000000
00011000
00000000
00000000
00000000
00000000
00000000
00000000
00000000
00000000
00000000
00000000
00100000
,
00000000
00000000
00000000
00010000
00000000
01000000
00010000
00000000
00200000
00000000
00000000
00000000
01300000
00100000
00010000
00001000
,
00000100
00000000
00010000
00000000
00001100
00000000
00001000
00001010
,
00000000
00000100
00000001
00000000
00001001
00000000
00000000
00000000
,
00000001
00000000
00000010
00000000
00000011
00000000
00000000
00001000
,
00000000
00000000
00000100
00000000
00000100
00000000
00000000
00000000
00010000
00000000
00000000
00010000
00000000
00000000
00010000
00000000
,
00001000
00000000
01000000
00000000
01010000
00000000
00010000
00110000
,
00000000
01000000
10000000
00000000
10010000
00000000
00000000
00000000
,
10000000
00000000
10000000
00000000
00010000
01000000
00010000
00100000
,
00002000
00023000
00030100
00001000
00000010
00000200
00002300
00003200
,
00000301
00000100
00001000
00010000
,
00100000
10000000
01000000
00100000
,
00010000
00001000
00000100
00000001
,
00000100
00001000
00010000
00100000
,
10000000
00100000
10000000
00100000
01000000
00010000
01000000
00010000
,
00100000
00010000
00100000
00010000
00100000
00001000
00100000
00001000
,
00010000
00000100
00001000
00000010
00000100
00000001
00000010
00000000
,
00001100
00000000
00000000
00000000
00000011
00000000
00000000
00000000
00001001
00000000
00000000
00000000
00001000
00000000
00000000
00000100
,
00000000
00000000
00010000
00000000
00011000
00000000
00000000
00000000
00001000
00000000
00000000
00000000
01000000
00000000
00000000
00001000
,
00000000
00100000
00101000
00000000
00001000
00000000
00200000
00000000
,
00000000
00000000
01300000
10000000
01000000
00000000
10000000
00000000
00010000
00000000
00000000
00000000
02000000
00000000
00000000
00000000
,
00000000
03000000
00010000
00000000
00010000
00000000
00100000
00000000
00001000
00000000
00000000
00000000
00100000
00000000
00000000
00001000
,
00000000
00000000
00010000
00000000
00001000
00000000
00000000
00000000
00010000
00000000
00000000
00000000
00000010
00000000
00000000
00000100
,
00000000
00000001
00001000
00000000
00000000
00000100
00001000
00001000
,
00000001
00000100
00000100
00000100
00000000
00000010
00000100
00000001
,
00001000
00000000
00000100
00010000
00000200
00000000
00000000
00000000
00001300
00000000
00000000
00000000
00000010
00000000
00000000
00010000
,
00000000
00000000
00001000
00000000
00010000
00000000
00000000
00000000
00001000
00000000
00000000
00000000
01000000
00000000
00000000
00010000
,
00000000
00100000
01000000
00000000
00100000
00000000
00001000
02000000
,
00000000
00000000
03100000
10000000
00100000
00000000
10000000
00000000
00000000
00000000
00000000
00000000
02000000
00000000
00000000
00000000
,
00000000
00000000
03100000
00000000
00010000
00000000
00001000
00000000
00000100
00000000
00000000
00000000
00010000
00000000
00000000
00001000
,
00000000
00000000
01000000
00000000
00010000
00000000
00000000
00000000
00100000
00000000
00000000
00000000
01000000
00000000
00000000
10000000
,
00000000
00010000
01000000
00000000
00010000
00100000
00001000
00010000
,
00000010
00000100
00000100
00000100
00000002
00000000
00002003
00000200
,
00000000
00000000
00003300
00000000
00001002
00000000
00000103
00000010
,
00001000
00000000
00000000
00001000
00000000
00000000
00000100
00000000
00001000
00000000
00000010
00000000
00010000
00000000
00000000
00010000
,
00000000
00000000
00000000
00001000
00000000
00000000
00100000
00000000
00000000
00000000
00000000
00000000
02000000
00000000
00000000
00000000
03000000
00000000
20000000
00000000
00000000
00000000
00000000
00000000
,
30010000
01000000
00010000
01000000
00000000
00000000
00200000
00000000
00000000
02300000
00000000
00000000
,
03001000
00000000
00011000
00000000
00010200
00000000
00001300
00000010
,
00000100
00000000
00000000
00000100
00000000
00000000
00000010
00000000
00001000
00000000
00000100
00000000
00000010
00000000
00000000
00000010
,
00000000
00000001
00001000
00000000
00000020
00000000
00020030
00000000
,
00031000
00100000
00001000
00100000
00000000
00000000
00020000
00000000
00000000
02030000
00000000
00000000
,
03200000
00000000
00300000
00000000
20010000
00000000
31000000
00100000
,
00010000
00000000
00000000
00010000
00000000
00000000
00010000
00000000
00100000
00000000
00001000
00000000
00010000
00000000
00000000
00000010
,
00000000
00000100
00000010
00000000
00000200
00000000
00000302
00000000
,
00001003
00000100
00001000
00000100
00000000
00000000
00000010
00000000
00000000
00000001
00000000
00000000
,
00001000
00000000
00000100
00000000
00000010
00000000
00000200
00000000
00000000
00000000
00000000
00000000
00020300
00000000
00000000
00000000
00000000
00000000
00031000
00000000
00000000
01000000
00000000
00000000
,
00100000
00000000
00000000
00100000
00000000
00000000
01000000
00000000
00010000
00000000
00100000
00000000
01000000
00000000
00000000
01000000
,
00000000
00000000
10000000
00000000
00010000
00000000
00000000
00000000
11000000
00000000
00000000
00010000
00000000
00000000
01000000
00000000
,
01100000
00000000
00000000
00000000
00000000
00000000
00000000
00000000
00000000
00000000
10000000
00010000
00000000
00000000
00010000
00000000
,
00210000
00000000
00301000
00100000
,
00001000
00010000
00000010
00000100
,
00000001
00000010
00000100
00001000
00000100
00000000
00010000
00000000
,
00001000
00000000
01000000
00001000
00010000
00000000
00001000
00000000
,
00100000
00010000
10000000
01000000
10000000
00000000
00100000
00000000
,
01000000
00010000
00100000
00001000
,
00010000
00000100
00001100
00000000
00000010
00000000
00000100
00000000
,
00000001
00000000
00000010
00000000
00000001
00000100
00001000
00000100
,
00000001
00000010
00001000
00000010
00000002
00000000
00001003
00000010
,
00000200
00000000
00000310
00010000
00002000
00000000
00013000
00001000
,
02000000
00000000
03010000
00100000
02000000
00000000
03100000
00010000
,
20000000
00000000
30100000
10000000
02000000
00000000
03100000
00010000
,
20000000
00000000
30010000
00000000
00010000
00100000
00010000
00100000
,
00001000
00100000
00001000
00100000
00001000
00010000
00001000
00010000
,
00000100
00010000
00000100
00010000
00001000
01000000
00100000
10000000
,
00010000
00100000
01000000
00000000
00110000
00000000
11000000
00000000
,
10010000
00000000
10100000
00000000
10000000
00010000
00100000
00001000
,
00011000
00000000
00010100
00000000
00000100
00001000
00000010
00000100
,
00000101
00000000
00000011
00000000
00000001
00000010
00001000
00000010
,
00000100
00000000
00001100
00000000
00000100
00000001
00000100
00001000
,
00000001
00000000
00001010
00000000
00000010
00010000
00001000
00100000
,
00110000
00000000
11000000
00000000
10000000
01000000
00100000
00010000
,
01000000
00000000
00000000
01000000
00010000
00000000
00000000
00010000
00100000
00000000
00000000
00100000
00001000
00000000
00000000
00001000
,
00010000
00000000
00000000
00000100
00000000
00000000
00001000
00000000
00000000
00000010
00000000
00000000
00000100
00000001
00000100
00000001
,
00000000
00001001
00000000
00000000
00001100
00000100
00020000
00000000
,
00031000
00000000
00000000
01000000
00000000
00000000
00010000
00100000
00000000
01000000
00000000
00100000
00000000
00010000
10000000
00000000
,
00010000
01010000
00000000
00000000
10100000
10000000
00020000
00000000
,
00130000
00000000
00000000
01000000
00000000
00000000
00100000
00010000
00000000
01000000
00000000
00001000
00000000
00010000
00001000
00000000
,
00010000
00010100
00000000
00000000
00001010
00000010
00000200
00000000
,
00000301
00000000
00000000
00000010
00000000
00000000
00000100
00000010
00000000
00000001
00000000
00001000
00000000
00000010
00000100
00000000
,
00000001
00000000
00000000
00001000
00000100
00000000
00000000
00000000
00010000
00000000
00000000
00001000
01000000
00000000
00000000
00000000
,
00100000
00000000
10000000
00000000
00010000
00000000
00100000
00000000
01000000
10000000
00000000
01000000
00000000
00100000
00001000
00000000
,
00011000
00000000
00000000
00000000
;

//--------------- dance-double - Pandemonium X ----------------
#NOTES:
     dance-double:
     Pandemonium X:
     Hard:
     16:
     0,0,0,0,0:
00000000
00000000
00000000
00000000
,
00000000
00000000
00000000
00000000
,
00010000
00000000
00000000
00000000
00001000
00000000
00000000
00000000
01000100
00000000
00000000
00000000
00000000
00000000
00000000
00000000
00000000
00000000
00000000
00000000
00000000
00000000
00000000
00000000
00000000
00000000
00000000
00000000
00000000
00000000
00100000
00001000
,
00010000
00000000
00000000
00001000
00000000
00010000
00000100
00000000
00002000
00000000
00000000
00000000
00003010
00000001
00000010
00001000
,
00000001
00000001
00000010
00000100
00001000
00000001
00000100
00000100
,
00000001
00001000
00000100
00001000
00000100
00010000
00001000
01000000
,
00010000
00000000
00000000
00010000
00000000
00000000
00100000
00000000
00000000
01000000
00000000
00000000
00100000
00000000
00000000
00010000
00000000
00000000
10000000
00000000
00000000
00010000
01000000
00010000
,
01000000
00000000
00000000
00010000
00000000
00000000
00100000
00000000
00000000
01000000
00000000
00000000
10000000
01000000
10000000
01000000
00000000
00000000
00100000
00000000
00000000
00001000
00000000
00000000
,
00010000
00010000
00000100
00001000
00000010
00000100
00000001
00000001
,
00000010
00000100
00000010
00000001
00001000
00000100
00010000
00001000
,
01000000
01000000
00010000
00100000
01000000
01000000
10000000
00010000
,
01000000
00010000
01000000
00010000
00000000
00000000
00100000
00000000
00000000
00001000
00000000
00000000
00010000
00000000
00000000
00000100
00001000
00000100
00001000
00000000
00000000
00000001
00000000
00000000
,
00002002
00000000
00000000
00000000
,
00000000
00000000
00000000
00000000
,
00000000
00000000
00000000
00000000
,
00000000
00000000
00003003
00000000
,
00000001
00000100
00001000
00000100
00000010
00010000
00001000
01000000
,
00010000
00100000
10000000
00100000
01000000
00100000
00010000
00001000
,
00000100
00001000
00000010
00000100
00000001
00000010
00001001
00000000
,
00011000
00000000
00000000
00000000
01100000
00000000
00000000
00000000
10020000
00000000
00000000
00000000
00130000
00000000
00000000
11000000
,
00000000
00000000
10000000
00000000
10010000
00000000
00000000
00000000
10100000
00000000
00000000
00000000
01010000
00000000
00000000
00010000
,
00000000
00000000
00100000
00000000
00101000
00000000
00000000
00000000
00020000
00000000
00000000
00000000
00030100
00001000
00000001
00000000
,
00000000
00000000
00000100
00000010
00000100
00000000
00000001
00000000
00001000
00000000
00000000
00000000
00001200
00000000
00000000
00000000
,
00010300
00000000
00001000
00000000
00001000
00000000
00100000
00000000
00110000
00000000
00000000
00000000
10000000
00000000
00000000
00110000
,
00000000
00000000
00100000
00000000
00101000
00000000
00000000
00000000
00011000
00000000
00000000
00000000
00000100
00000000
00000000
00001100
,
00000000
00000010
00001001
00000000
00000001
00000100
00000100
00000010
,
00001000
00000100
00000100
00000100
00000000
00000010
00000001
00001000
,
00000100
00000000
00010000
00001000
00200000
00000000
00000000
00000000
00310000
00000000
00000000
00000000
01000000
00000000
00000000
10010000
,
00000000
00000000
00010000
00000000
00110000
00000000
00000000
00000000
01010000
00000000
00000000
00000000
00010000
00000000
00000000
00101000
,
00000000
00010000
00010100
00000000
00002000
00000000
00003010
00000200
,
00000000
00000000
00000310
00001000
00000010
00000000
00001000
00000000
00000100
00000000
00000000
00000000
00000012
00000000
00000000
00000013
,
00000100
00000000
00001000
00000000
00001000
00000000
00000010
00000000
00010010
00000000
00000000
00000000
00010000
00000000
00000000
00010100
,
00000000
00000000
00001000
00000000
01001000
00000000
00000000
00000000
00110000
00000000
00000000
00000000
00100000
00000000
00000000
11000000
,
00000000
00000000
00010000
00000000
10010000
00000000
00000000
00000000
10000000
01000000
00100000
00001000
00010000
00000100
00001000
00000010
,
00000100
00000001
00000001
00000001
00001000
00000000
00000200
00020300
,
00000000
00000000
00031000
00010000
00002000
00000000
00013000
00001000
00020000
00000000
00000000
00000000
00030100
00000000
00001000
00000000
,
00001010
00000000
00000000
00000101
00000000
00000000
00000001
00000000
00000010
00000000
00000100
00000000
00001100
00000000
00000000
00010100
,
00000000
00001000
00011000
00000000
00011000
00000000
00110000
00000000
,
00100000
01000000
10000000
00200000
00000000
00000000
01300000
00000000
00000000
10010000
00000000
00000000
,
12000000
00000000
03020000
00000000
00031000
00010000
00000100
00001000
,
00001010
00000000
00000000
00000110
00000000
00000000
00000100
00000000
00000001
00000000
00000010
00000000
00000110
00000000
00000000
00000011
,
00000000
00001000
00000110
00000000
00000002
00000000
00002003
00000000
,
00003100
00000000
00010000
00000000
00000010
00000000
00000200
00000000
00000000
00000000
00000000
00000000
00000310
00000000
00000000
00001000
00000000
00000000
00000100
00000000
00000000
00000000
00000000
00000000
,
00012000
00000000
01003000
00000000
00210000
00000000
01300000
00100000
,
00110000
00000000
00000000
00101000
00000000
00000000
00010000
00000000
00000100
00000000
00001000
00000000
00001010
00000000
00000000
00000101
,
00000000
00000100
00001001
00000000
00001200
00000000
00020300
00000000
,
00031000
01000000
00010000
00200000
00000000
00000000
02300000
00000000
00000000
23000000
00000000
00000000
,
31000000
00000000
00100000
00000000
00010000
00000000
00002000
00000000
00000000
00000000
00000000
00000000
00023000
00000000
00000000
00000000
00000000
00000000
00030010
00000000
00000000
00000100
00000000
00000000
,
00000101
00000000
00000000
00000011
00000000
00000000
00000001
00000000
00000010
00000000
00000100
00000000
00001100
00000000
00000000
00011000
,
00000000
00000000
01000000
00000000
01100000
00000000
00000000
00000000
10010000
00000000
00000000
00100000
00000000
00000000
10000000
00000000
,
10010000
00000000
00000000
00000000
00000000
00000000
00000000
00000000
00000000
00000000
00010000
00100000
00000000
00000000
00100000
00000000
,
00110000
00000000
00000000
00000000
00000000
00021000
00000000
00000000
00030010
00000000
00000010
00000000
00000100
00000000
00000001
00000000
,
00000010
00000100
00001000
00001000
00000100
00000001
00000100
00000010
,
00001000
00000100
00010000
00001000
01000000
01000000
00010000
00100000
,
01000000
00000000
00000000
10000000
00000000
00000000
01000000
00000000
00000000
00100000
00010000
00100000
00010000
00000000
00000000
01000000
00000000
00000000
00100000
00000000
00000000
10000000
00000000
00000000
,
00010000
01000000
00010000
01000000
00000000
00000000
00001000
00000000
00000000
00010000
00000000
00000000
00000100
00000000
00000000
00000100
00000000
00000000
00001000
00000000
00000000
00000010
00000000
00000000
,
00000100
00000001
00001000
00001000
00000100
00000010
00000001
00000010
,
00000001
00000100
00001000
00010000
00100000
00100000
01000000
00010000
,
00100000
00000000
00000000
01000000
00000000
00000000
10000000
00000000
00000000
00010000
00000000
00000000
10000000
00100000
10000000
00100000
00000000
00000000
01000000
00000000
00000000
00001000
00000000
00000000
,
00010000
00000000
00000000
00000000
00000000
00000000
00001000
00000000
00010000
00000000
00001000
00000000
00010000
00000000
00000000
00000000
00000000
00000000
00000100
00000000
00000000
00000000
00000000
00000000
00001000
00000000
00000000
00000000
00000000
00000000
00000010
00000000
00000000
00000100
00000000
00000000
00000000
00000000
00000000
00000001
00000000
00000000
00000010
00000000
00000000
00000000
00000000
00000000
,
00001200
00000000
00000000
00000000
00010300
00000000
00001000
00000000
01000000
00000000
00010000
00100000
00000000
01000000
10000000
00000000
,
20010000
00000000
00000000
00000000
31000000
00000000
00100000
00000000
00010000
00000000
00100000
00001000
00000000
00010000
00000010
00000000
,
00000210
00000000
00000000
00000000
00000301
00000000
00000010
00000000
00000100
00000000
00001000
00000010
00000000
00000100
00000001
00000000
,
00002001
00000000
00003001
00000100
00000010
00000010
00000010
00000010
,
00001000
00001000
00001000
00001000
00000100
00000100
00000100
00000100
,
00010000
00010000
00010000
00010000
00001000
01000000
10000000
01000000
,
00001000
00100000
00101000
00000000
00011000
00000000
00000110
00000000
,
00001001
00000000
00000000
00000001
00000000
00000000
00000000
00000010
00000000
00000001
00000000
00000100
00000010
00000000
00001000
00000000
,
00001100
00000000
00000000
00010100
00000000
00000000
00010000
00001000
00000000
01000000
00000000
00010000
00000000
00100000
01000000
00000000
,
11000000
00000000
00000000
10100000
00000000
00000000
00000000
00010000
00000000
00100000
00000000
01000000
00100000
00000000
00001000
00000000
,
00011000
00000000
00000000
00010100
00000000
00000000
00000100
00001000
00000000
00000010
00000000
00000100
00000001
00000000
00000010
00000001
,
00001000
00000000
00000000
00011000
00000000
00000000
00010000
00001000
00000000
01000000
00000000
00010000
00100000
00000000
01000000
00000000
,
11000000
00000000
00000000
10100000
00000000
00000000
10000000
00010000
00000000
00100000
00000000
00001000
00010000
00000000
00000100
00000000
,
00001000
00000000
00000010
00000100
00000001
00000000
00000010
00000100
00001000
00000000
00000100
00010000
00001000
00000000
00010000
00001000
,
02000000
00000000
00000000
03002000
00000000
00000000
00023000
00000000
00000000
00030200
00000000
00000000
00002300
00000000
00003020
00000000
,
00010030
00000000
00001000
00000000
01000000
00000000
00000000
01010000
00000000
00000000
00020000
00000000
00200000
00000000
00030000
00000000
,
01300000
00100000
00010000
00000000
00100000
00000000
00001000
00010000
00000000
00000100
00000000
00001000
00000000
00000010
00000100
00000000
,
00001001
00000000
00000001
00000000
00000011
00000000
00000000
00001100
00000000
00000000
00002000
00000000
00000020
00000000
00003000
00000000
,
00000130
00000000
00000010
00000000
00001000
00000000
00000100
00010000
00000000
00001000
00000000
01000000
00000000
00010000
00100000
00000000
,
11000000
00000000
10000000
00000000
10100000
00000000
00000000
01010000
00000000
00000000
00020000
00000000
20000000
00000000
00030000
00000000
,
31000000
00000000
00100000
00001000
00000000
00010000
00001000
00010000
00000000
00000100
00000000
00010000
00001000
00000000
00010000
00000000
,
00000010
00000000
00000000
00000100
00000001
00000000
00000010
00000000
00000200
00000000
00000000
00001300
00000100
00000000
00010000
00000000
,
00001000
00000000
01000000
00000000
00100000
10000000
00100000
01000000
00010000
00100000
00001000
00010000
00000010
00000100
00000001
00000000
,
00002002
00000000
00000000
00000000
,
00003003
00000000
00000000
00000000
;
