#TITLE:Houdini (Initial Talk Dua Goes Freestyle Remix);
#SUBTITLE:;
#ARTIST:Dua Lipa;
#TITLETRANSLIT:;
#SUBTITLETRANSLIT:;
#ARTISTTRANSLIT:;
#GENRE:;
#CREDIT:;
#MUSIC:Houdini (Initial Talk Dua Goes Freestyle Remix).ogg;
#BANNER:;
#BACKGROUND:;
#CDTITLE:;
#SAMPLESTART:50.805;
#SAMPLELENGTH:16.421;
#SELECTABLE:YES;
#OFFSET:0.466;
#BPMS:0.000=117.000;
#STOPS:;
#BGCHANGES:;
#FGCHANGES:;

//--------------- dance-single - Pandemonium X ----------------
#NOTES:
     dance-single:
     Pandemonium X:
     Beginner:
     2:
     0,0,0,0,0:
0000
0000
0000
0000
,
0000
0000
0000
0000
,
0000
0000
0000
0000
,
0000
0000
0000
0000
,
0000
0000
0000
0000
,
0001
0000
0000
0000
,
1000
0000
0000
0000
,
0100
0000
0000
0000
,
1000
0000
0000
0000
,
0010
0100
0000
0000
,
0001
0000
0000
0000
,
0000
1000
0000
0000
,
0100
0000
0000
0000
,
0000
0010
0000
0000
,
0100
0000
0000
0000
,
0000
1000
0000
0000
,
0001
0000
0000
0000
,
0200
0000
0300
0000
,
0010
0000
0000
1000
,
0002
0000
0003
0000
,
0010
0000
0000
0100
,
2000
0000
3000
0000
,
0010
0000
0000
0100
,
0020
0000
0030
0000
,
0100
0000
0000
0001
,
1001
0000
1000
0000
,
0002
0000
0003
0000
,
0100
0000
0010
0000
,
0200
0000
0300
0000
,
1001
0000
1000
0000
,
0200
0000
0300
0000
,
0010
0000
0001
0000
,
2000
0000
3000
0001
,
0100
0000
0000
0000
,
0010
0000
0000
0000
,
1000
0000
0000
0000
,
0100
0000
0000
0010
,
0001
0000
0000
0000
,
0100
0000
0000
0000
,
0010
0000
0000
0000
,
1000
0000
0001
0000
,
0100
0000
0000
0000
,
0100
0000
0000
0000
0000
0000
0000
0000
0000
0000
0000
0000
0020
0000
0000
0030
;

//--------------- dance-single - Pandemonium X ----------------
#NOTES:
     dance-single:
     Pandemonium X:
     Easy:
     6:
     0,0,0,0,0:
0000
0000
0000
0000
,
0000
0000
0000
0000
,
0000
0000
0000
0000
,
0000
0000
0000
0000
,
0000
0000
0000
0000
,
0001
1000
0100
0010
,
0100
0000
1000
0000
0010
0200
0000
0000
,
0301
1000
0001
0010
,
0100
0010
0001
1000
,
0110
0001
1000
0100
,
0010
0000
0001
0200
0000
0000
0300
0000
,
0010
0100
0001
1000
,
0010
0000
0100
2000
0000
0000
3000
0000
,
0001
1000
0100
1000
,
0010
0000
0100
0002
0000
0000
0003
0000
,
0010
0001
1000
0100
,
0010
0000
0100
0020
0000
0000
0030
0000
,
0001
0000
0000
0000
1000
0000
0000
0100
0000
0000
0000
0000
0000
0000
0000
0000
,
1000
0000
0000
0000
0010
0000
0000
0100
0000
0000
0001
0000
1000
0000
1000
0000
,
0001
0000
0000
0000
0010
0000
0000
0100
0000
0000
0000
0000
0000
0000
0000
0000
,
0010
0000
0000
0000
0001
0000
0000
1000
0000
0000
0001
0000
0001
0000
0001
0000
,
1000
0000
0000
0000
0001
0000
0000
0100
0000
0000
0000
0000
0000
0000
0000
0000
,
0010
0000
0000
0000
1000
0000
0000
0100
0000
0000
0010
0000
0100
0000
0100
0000
,
0010
0000
0000
0000
0100
0000
0000
1000
0000
0000
0000
0000
0000
0000
0000
0000
,
0010
0000
0000
0000
0100
0000
0000
0001
0000
0000
1000
0000
1000
0000
1000
0000
,
1001
0000
1000
0001
,
0010
0000
0000
0000
0100
0000
0000
0100
0000
0000
0000
0000
0000
0000
0000
0000
,
0000
0000
0010
0100
,
1000
0000
0000
0000
0001
0000
0000
0001
0000
0000
0000
0000
0000
0000
0000
0000
,
1010
0000
0010
0100
,
0001
0000
0000
0000
0010
0000
0000
0010
0000
0000
0000
0000
0000
0000
0000
0000
,
0100
0000
0010
0100
,
1000
0000
0000
0000
0001
0000
0000
0001
0000
0000
0000
0000
1000
0000
0001
0000
,
0100
0001
0010
0001
,
1000
0000
0100
0000
0010
0200
0000
0000
,
1300
0100
1000
0001
,
0100
0001
0010
0100
,
0011
0001
0100
0001
,
1000
0100
1000
0001
,
1000
0010
1000
0001
,
0010
0001
1000
0001
,
0110
0001
0000
1000
,
0000
0000
0000
0000
0001
0000
0000
0000
0000
0000
0000
0000
0200
0000
0000
0300
;

//--------------- dance-single - Pandemonium X ----------------
#NOTES:
     dance-single:
     Pandemonium X:
     Medium:
     11:
     0,0,0,0,0:
0000
0000
0000
0000
,
0000
0000
0000
0000
,
0000
0000
0000
0000
,
0001
0000
0100
0000
0001
0000
0010
0000
0100
0010
0000
0010
0000
0000
0000
0000
,
0100
0000
1000
0000
0010
0000
0100
0000
0010
0100
0000
0100
0000
0100
0010
0000
,
1001
0000
1000
0000
0100
0000
0000
0100
0000
1000
0000
0001
0000
1000
0001
0000
,
0010
0000
0001
0000
0100
0010
0000
1000
0000
0001
2000
0000
0000
0000
3000
0000
,
1001
0000
1000
0000
0100
0000
0000
0010
0000
0100
0000
1000
0000
0010
0100
0000
,
0001
0000
0010
0000
0100
0000
0000
0010
0000
0001
0100
0000
0010
1000
0000
0000
,
1001
0000
0001
0010
0100
1000
0010
1000
,
0001
0100
0001
0020
0000
0000
0030
0000
,
0000
0000
0100
1000
0010
1000
0001
0010
,
0001
0100
0010
2000
0000
0000
3000
0000
,
0000
0000
0001
0010
0001
1000
0100
0010
,
0100
1000
0001
0200
0000
0000
0300
0000
,
0000
0000
0010
1000
0001
0100
0001
0010
,
0001
1000
0100
0020
0000
0000
0130
1000
,
0001
0000
1000
0000
0010
0000
0100
0001
0000
0000
0000
0000
0000
0000
0000
0000
,
0010
0000
0100
0000
1000
0000
0100
0010
0000
0000
0100
0000
0010
0000
0010
0000
,
0001
0000
0100
0000
0010
0000
1000
0001
0000
0000
0000
0000
0000
0000
0000
0000
,
0010
0000
0100
0000
1000
0000
0001
0100
0000
0000
0100
0000
0010
0000
0010
0000
,
0100
0000
0010
0000
1000
0000
0001
0010
0000
0000
0000
0000
0000
0000
0000
0000
,
0100
0000
1000
0000
0001
0000
0010
0100
0000
0000
0010
0000
0100
0000
0100
0000
,
0001
0000
0100
0000
0001
0000
0010
0100
0000
0000
0000
0000
0000
0000
0000
0000
,
0010
0000
0001
0000
0100
0000
0010
1000
0000
0000
0001
0000
1000
0000
1000
0000
,
0001
0010
0100
1000
0010
0010
0100
0001
,
0010
0000
0000
0000
0011
0000
0000
1100
0000
0000
0000
0000
0000
0000
0000
0000
,
1000
0100
0010
0001
0100
0100
0010
1000
,
0100
0000
0000
0000
1100
0000
0000
1001
0000
0000
0001
0000
0100
0010
0000
0010
,
1000
0100
0010
0001
0100
0100
0001
1000
,
0100
0000
0000
0000
1100
0000
0000
1010
0000
0000
0000
0000
0000
0000
0000
0000
,
0001
0010
0100
1000
0010
0010
0100
0001
,
0010
0000
0000
0000
0011
0000
0000
0101
0000
0000
0000
0000
0001
1000
0000
1000
,
0100
0000
0010
0000
0100
0000
0000
0010
0000
0001
0000
0100
0000
0000
0000
0000
,
0010
0000
1000
0000
0001
0000
0000
1000
0000
0100
0020
0000
0000
0000
0000
0000
,
0130
0000
1000
0000
0010
0000
0000
0100
0000
0001
0000
1000
0000
0000
0000
0000
,
0001
0000
1000
0000
0100
0000
0000
0010
0000
0100
1000
0000
0020
0000
0000
0000
,
0130
0000
0000
0000
0000
0000
0001
0000
0000
0000
0000
1000
0000
0000
0000
0000
,
0100
0000
0000
0000
0000
0000
0010
0000
0000
0000
0000
0100
0000
0000
1000
0000
,
0001
0000
0000
0000
0000
0000
0100
0000
0000
0000
0000
0010
0000
0000
0000
0000
,
1000
0000
0000
0000
0000
0000
0001
0000
0000
0000
1000
0000
1000
0100
0000
0010
,
0001
0000
0000
0000
0100
0000
0000
0010
0000
0000
1000
0000
0001
0000
0000
0000
,
0100
0000
0000
0000
0010
0000
0000
1000
0000
0000
0001
0000
1000
0100
1000
0100
;

//--------------- dance-single - Pandemonium X ----------------
#NOTES:
     dance-single:
     Pandemonium X:
     Hard:
     13:
     0,0,0,0,0:
0000
0000
0000
0000
,
0000
0000
0000
0000
,
0000
0000
0000
0000
,
0001
0000
1000
0000
0100
0000
1000
0000
0010
0000
1000
0100
0000
0100
1000
0000
,
0001
0000
1000
0000
0100
0010
0001
0000
0010
0100
0000
0010
0000
0001
0100
0000
,
1010
0000
1000
0000
0001
0010
0000
0001
0000
1000
0000
0100
0000
0010
0100
0000
,
0010
0000
0001
0000
0010
0100
0000
0010
0000
0001
2000
0000
0000
0000
3001
0000
,
0110
0000
1000
0000
0001
0010
0000
0001
0000
0100
0000
0010
0000
1000
0100
0000
,
0010
0000
0001
0000
1000
0100
0000
0010
0000
0100
0010
0000
0010
0100
0000
0000
,
1001
0000
0001
0100
0001
1000
0100
0010
,
0100
1000
0001
0200
0010
0000
0301
0000
,
1000
0000
0001
0010
0001
1000
0010
1000
,
0100
0010
0001
2000
0100
0000
3010
0000
,
1000
0000
0001
0010
0100
1000
0100
0010
,
0100
0010
0001
0200
0010
0000
0301
0000
,
1000
0000
0001
0100
0010
1000
0100
0010
,
0100
0010
0001
0200
0010
0000
0301
0000
,
1000
0000
0000
0000
0000
0000
0000
0000
0020
0030
0000
0000
0000
0000
0000
0000
0020
0030
0000
0000
0000
0000
0000
0000
0001
0000
0000
0000
1000
0000
0000
0000
0000
0000
0000
0000
0000
0000
0000
0000
0000
0000
0000
0000
0000
0000
0000
0000
0000
0000
0000
0000
0000
0000
0000
0000
0000
0000
0000
0000
0000
0000
0000
0000
,
0001
0000
0000
0000
0000
0000
0000
0000
0200
0300
0000
0000
0000
0000
0000
0000
0200
0300
0000
0000
0000
0000
0000
0000
1000
0000
0000
0000
0001
0000
0000
0000
0000
0000
0000
0000
0000
0000
0000
0000
0100
0000
0000
0000
0000
0000
0000
0000
0101
0000
0000
0000
0000
0000
0000
0000
1010
0000
0000
0000
0000
0000
0000
0000
,
1000
0000
0000
0000
0000
0000
0000
0000
0200
0300
0000
0000
0000
0000
0000
0000
0200
0300
0000
0000
0000
0000
0000
0000
0001
0000
0000
0000
1000
0000
0000
0000
0000
0000
0000
0000
0000
0000
0000
0000
0000
0000
0000
0000
0000
0000
0000
0000
0000
0000
0000
0000
0000
0000
0000
0000
0000
0000
0000
0000
0000
0000
0000
0000
,
1000
0000
0000
0000
0000
0000
0000
0000
0020
0030
0000
0000
0000
0000
0000
0000
0020
0030
0000
0000
0000
0000
0000
0000
0001
0000
0000
0000
1000
0000
0000
0000
0000
0000
0000
0000
0000
0000
0000
0000
0110
0000
0000
0000
0000
0000
0000
0000
1001
0000
0000
0000
0000
0000
0000
0000
0110
0000
0000
0000
0000
0000
0000
0000
,
1000
0000
0000
0000
0000
0000
0000
0000
0200
0300
0000
0000
0000
0000
0000
0000
0200
0300
0000
0000
0000
0000
0000
0000
0001
0000
0000
0000
1000
0000
0000
0000
0000
0000
0000
0000
0000
0000
0000
0000
0000
0000
0000
0000
0000
0000
0000
0000
0000
0000
0000
0000
0000
0000
0000
0000
0000
0000
0000
0000
0000
0000
0000
0000
,
1000
0000
0000
0000
0000
0000
0000
0000
0020
0030
0000
0000
0000
0000
0000
0000
0020
0030
0000
0000
0000
0000
0000
0000
0001
0000
0000
0000
1000
0000
0000
0000
0000
0000
0000
0000
0000
0000
0000
0000
0001
0000
0000
0000
0000
0000
0000
0000
0011
0000
0000
0000
0000
0000
0000
0000
1100
0000
0000
0000
0000
0000
0000
0000
,
0001
0000
0000
0000
0000
0000
0000
0000
0200
0300
0000
0000
0000
0000
0000
0000
0200
0300
0000
0000
0000
0000
0000
0000
1000
0000
0000
0000
0001
0000
0000
0000
0000
0000
0000
0000
0000
0000
0000
0000
0000
0000
0000
0000
0000
0000
0000
0000
0000
0000
0000
0000
0000
0000
0000
0000
0000
0000
0000
0000
0000
0000
0000
0000
,
0001
0000
0000
0000
0000
0000
0000
0000
0020
0030
0000
0000
0000
0000
0000
0000
0020
0030
0000
0000
0000
0000
0000
0000
1000
0000
0000
0000
0001
0000
0000
0000
0000
0000
0000
0000
0000
0000
0000
0000
1100
0000
0000
0000
0000
0000
0000
0000
0001
0000
0000
0000
0010
0000
0000
0000
0000
0000
0000
0000
0100
0000
0000
0000
,
1000
0000
0100
0000
0010
0000
0001
1000
0100
0000
0001
0000
0100
0000
1000
0000
,
0020
0000
0000
0000
0230
0000
0000
0301
0000
1000
0001
0000
0010
0000
0100
0000
,
1000
0000
0100
0000
1000
0000
0001
0100
0010
0000
0001
0000
0010
0000
1000
0000
,
2001
0000
0000
0000
0010
0000
0000
3001
0000
0001
1000
0000
0100
0010
0000
0010
,
0100
0000
1000
0000
0010
0000
0100
0010
1000
0000
0010
0000
0001
0000
0010
0000
,
2000
0000
0000
0000
3200
0000
0000
0310
0000
0010
0100
0000
1000
0000
0010
0000
,
1000
0000
0100
0000
0010
0000
0100
1000
0010
0000
0001
0000
0010
0000
1000
0000
,
1002
0000
0000
0000
0100
0000
0000
1003
0000
0001
1000
0000
0100
0010
0000
0010
,
0100
0000
1000
0000
0001
0100
0000
0010
0000
1000
0000
0001
0000
1000
0100
0000
,
0010
0000
0001
0000
0100
0001
0000
1000
0000
0100
0020
0000
0000
0000
0130
0000
,
1001
0000
1000
0000
0001
0010
0000
0001
0000
0100
0000
0010
0000
1000
0100
0000
,
0010
0000
0100
0000
1000
0001
0000
0100
0000
0001
0010
0000
0010
0001
0100
0010
,
1000
0000
0001
0000
0110
0000
1000
0001
0000
1000
0001
0000
0110
0000
0000
0000
,
0110
0000
0001
0000
1000
0001
1000
0000
0110
0000
0001
1000
0000
1000
0001
0000
,
0110
0000
1000
0000
0010
1000
0100
0000
0010
0001
0000
1000
0000
0100
0010
0000
,
0011
0000
0001
0000
1000
0001
1000
0000
0110
0000
0101
0000
1000
0100
0010
0001
,
1000
0000
0000
0000
0001
0000
0000
0100
0000
0000
0001
0000
0010
0000
0000
0000
,
0100
0000
0000
0000
1000
0000
0010
0100
0000
0010
0100
0000
0001
1000
0001
1000
;

//--------------- dance-double - Pandemonium X ----------------
#NOTES:
     dance-double:
     Pandemonium X:
     Easy:
     6:
     0,0,0,0,0:
00000000
00000000
00000000
00000000
,
00000000
00000000
00000000
00000000
,
00000000
00000000
00000000
00000000
,
00000000
00000000
00000000
00000000
,
00000000
00000000
00000000
00000000
,
00010000
00000100
00001000
00000010
,
00000001
00000000
00000010
00000000
00001000
00000200
00000000
00010000
,
00010300
00001000
01000000
00010000
,
00100000
00000000
00010000
00000000
01000000
00100000
10000000
00000000
,
10010000
00010000
00100000
00001000
,
00010000
00000000
00000010
00000200
00000000
00000000
00000300
00000000
,
00000000
00000010
00000100
00000001
,
00001000
00000000
00000100
00020000
00000000
00000000
00030000
00000000
,
00000000
00001000
01000000
00010000
,
01000000
00000000
00001000
00020000
00000000
00000000
00030000
00000000
,
00000000
00001000
01000000
00100000
,
10000000
00000000
01000000
20000000
00000000
00000000
30010000
00000000
,
01000000
00000000
00000000
00000000
00001000
00000000
00000000
00010000
00000000
00000000
00000000
00000000
00000000
00000000
00000000
00000000
,
00000100
00000000
00000000
00000000
00001000
00000000
00000000
00000010
00000000
00000000
00000100
00000000
00000001
00000000
00000000
00000000
,
00000010
00000000
00000000
00000000
00000001
00000000
00000000
00001000
00000000
00000000
00000000
00000000
00000000
00000000
00000000
00000000
,
00000100
00000000
00000000
00000000
00010000
00000000
00000000
00001000
00000000
00000000
01000000
00000000
00100000
00000000
00000000
00000000
,
01000000
00000000
00000000
00000000
00010000
00000000
00000000
00100000
00000000
00000000
00000000
00000000
00000000
00000000
00000000
00000000
,
01000000
00000000
00000000
00000000
10000000
00000000
00000000
00010000
00000000
00000000
00100000
00000000
00001000
00000000
00000000
00000000
,
00010000
00000000
00000000
00000000
00000010
00000000
00000000
00000100
00000000
00000000
00000000
00000000
00000000
00000000
00000000
00000000
,
00000010
00000000
00000000
00000000
00010000
00000000
00000000
00001000
00000000
00000000
00010000
00000000
00000100
00000000
00000000
00000000
,
00001100
00000000
00001000
00000001
,
00000100
00000000
00000000
00000000
00000001
00000000
00000000
00001000
00000000
00000000
00000000
00000000
00000000
00000000
00000000
00000000
,
00000000
00000000
00000100
00010000
,
00001000
00000000
00000000
00000000
01000000
00000000
00000000
00100000
00000000
00000000
00000000
00000000
01000000
00000000
00000000
00000000
,
10010000
00000000
10000000
00010000
,
00100000
00000000
00000000
00000000
00001000
00000000
00000000
00010000
00000000
00000000
00000000
00000000
00000000
00000000
00000000
00000000
,
00000000
00000000
00001000
00010000
,
00000010
00000000
00000000
00000000
00000100
00000000
00000000
00000001
00000000
00000000
00000000
00000000
00000010
00000000
00000000
00000000
,
00001100
00000100
00010000
00001000
,
01000000
00000000
00001000
00000000
00010000
00000020
00000000
00000100
,
00000130
00000010
00010000
00001000
,
00100000
00000000
00010000
00000000
10000000
00100000
01000000
00000000
,
10010000
00000000
00010000
00000000
,
00100000
00001000
00100000
00000000
,
00001000
00000000
00010000
00000000
,
00000100
00001000
00000100
00010000
,
00001000
00000000
00000000
00000000
00010000
00000000
00000000
00001000
00000000
00000000
00000000
00000000
00010000
00000000
00000000
00000000
,
00001000
00000000
00000000
00000000
00010000
00000000
00000000
00001000
00000000
00000000
00000000
00000000
00020000
00000000
00000000
00030000
;

//--------------- dance-double - Pandemonium X ----------------
#NOTES:
     dance-double:
     Pandemonium X:
     Medium:
     12:
     0,0,0,0,0:
00000000
00000000
00000000
00000000
,
00000000
00000000
00000000
00000000
,
00000000
00000000
00000000
00000000
,
00000000
00000000
00000000
00000000
,
00000000
00000000
00000000
00000000
,
00001000
00000000
01000000
00000000
00100000
00000000
00000000
01000000
00000000
00010000
00000000
00100000
00000000
01000000
00100000
00000000
,
00001000
00000000
00010000
00000000
00000100
00001000
00000000
00000010
00000000
00000100
00000002
00000000
00000000
00000000
00001003
00000000
,
00001001
00000000
00000001
00000000
00000010
00000000
00000000
00000100
00000000
00001000
00000000
00000010
00000000
00010000
00001000
00000000
,
00010000
00000000
00000100
00000000
00010000
00000100
00000000
00001000
00000000
00000010
00000100
00000000
00000001
00001000
00000000
00000000
,
00001100
00000000
00000100
00010000
00001000
01000000
00001000
00100000
,
00010000
10000000
00100000
20000000
00000000
00000000
30000000
00000000
,
00000000
00000000
00010000
00100000
00001000
00010000
00000010
00010000
,
00000100
00010000
00000100
00002000
00000000
00000000
00003000
00000000
,
00000000
00000000
00000001
00000100
00000010
00001000
00000100
00010000
,
00001000
00010000
00000010
00000200
00000000
00000000
00000300
00000000
,
00000000
00000000
00000010
00001000
00000100
00010000
00001000
01000000
,
00100000
10000000
01000000
00200000
00000000
00000000
01000000
01300000
,
10000000
00000000
01000000
00000000
10000000
00000000
00000000
00100000
00000000
00000000
00000000
00000000
00000000
00000000
00000000
00000000
,
01000000
00000000
00010000
00000000
00100000
00000000
00000000
00001000
00000000
00000000
00010000
00000000
00010000
00000000
00010000
00000000
,
00000100
00000000
00001000
00000000
00000010
00000000
00000000
00000100
00000000
00000000
00000000
00000000
00000000
00000000
00000000
00000000
,
00000010
00000000
00000100
00000000
00000001
00000000
00000000
00001000
00000000
00000000
00000100
00000000
00010100
00000000
00010100
00000000
,
00010000
00000000
00001000
00000000
01000000
00000000
00000000
00100000
00000000
00000000
00000000
00000000
00000000
00000000
00000000
00000000
,
01000000
00000000
00010000
00000000
00100000
00000000
00000000
00001000
00000000
00000000
00100000
00000000
00100000
00000000
00100000
00000000
,
00001000
00000000
00010000
00000000
00000100
00000000
00000000
00001000
00000000
00000000
00000000
00000000
00000000
00000000
00000000
00000000
,
00000010
00000000
00000100
00000000
00000001
00000000
00000000
00000010
00000000
00000000
00000100
00000000
00000110
00000000
00001100
00000000
,
00010100
00000000
00000000
00000100
00010000
00001000
01000000
00100000
,
20000000
00000000
00000000
00000000
01000000
00000000
00000000
30010000
00000000
00000000
00000000
00000000
00000000
00000000
00000000
00000000
,
00000000
00000000
00000000
00100000
00001000
00010000
00000010
00001000
,
00001020
00000000
00000000
00000000
00000100
00000000
00000000
00001030
00000000
00000000
00000000
00000000
00000010
00000100
00000000
00000001
,
00001000
00000000
00000000
00000100
00010000
00001000
01000000
00100000
,
20000000
00000000
00000000
00000000
00010000
00000000
00000000
30100000
00000000
00000000
00000000
00000000
00000000
00000000
00000000
00000000
,
00000000
00000000
00000000
01000000
00010000
00100000
00001000
00010000
,
00000100
00000000
00000000
00000000
00001100
00000000
00000000
00000011
00000000
00000000
00000000
00000000
00000101
00000000
00000000
00001000
,
00000010
00000000
00000100
00000000
00000001
00000000
00000000
00001000
00000000
00000100
00000000
00010000
00000000
00001000
00010000
00000000
,
00001000
00000000
01000000
00000000
00100000
10000000
00000000
00010000
00000000
00100000
02000000
00000000
00000000
00000000
13000000
00000000
,
11000000
00000000
01000000
00000000
10000000
00000000
00000000
00010000
00000000
01000000
00000000
00010000
00000000
00000000
00100000
00000000
,
00001000
00000000
00010000
00000000
00000100
00001000
00000000
00000010
00000000
00000100
00000001
00000000
00000010
00000200
00000000
00000000
,
00010300
00000000
00001000
00000000
00010000
00000100
00010000
00000000
,
00001000
00000000
00100000
00000000
00010000
01000000
00010000
00000000
,
00100000
00000000
00001000
00000000
00010000
00000010
00010000
00000000
,
00000010
00000000
00000000
00000000
00000100
00000000
00000000
00000000
00000001
00000000
00001000
00000000
00000001
00000020
00000000
00000000
,
00000130
00000000
00000000
00000000
00000010
00000000
00000000
00000001
00000000
00000000
00001000
00000000
00000100
00000000
00000000
00000000
,
00010000
00000000
00000000
00000000
00001000
00000000
00000000
01000000
00000000
00000000
00001000
00000000
00010000
00001000
00010000
00001000
;

//--------------- dance-double - Pandemonium X ----------------
#NOTES:
     dance-double:
     Pandemonium X:
     Hard:
     14:
     0,0,0,0,0:
00000000
00000000
00000000
00000000
,
00000000
00000000
00000000
00000000
,
00000000
00000000
00000000
00000000
,
00010000
00000000
00000100
00000000
00001000
00000010
00001000
00000000
00000010
00000000
00000100
00000001
00000000
00000001
00000010
00000000
,
00000100
00000000
00010000
00000000
00001000
01000000
00001000
00000000
01000000
00100000
00000000
10000000
00000000
00210000
00000000
00000000
,
00301000
00000000
00100000
00000000
00001000
00010000
00000000
00000100
00000000
00001000
00000000
00000010
00000000
00000001
00000010
00000000
,
00000100
00000000
00000010
00000000
00001000
00000100
00000000
00010000
00000000
00001000
00200000
00000000
00000000
00000000
01300000
00000000
,
10010000
00000000
10000000
00000000
00100000
00010000
00000000
00100000
00000000
10000000
00000000
00100000
00000000
01000000
00010000
00000000
,
00100000
00000000
00001000
00000000
00010000
00000100
00000000
00001000
00000000
00000010
00000100
00000000
00000001
00001000
00000000
00000000
,
00001001
00000000
00000002
00000203
00002300
00023000
00230000
20300000
,
30020000
20030000
32000000
23000000
00000000
00000000
30000000
00000000
,
00000000
00000000
20000000
32000000
03200000
00320000
00032000
00003200
,
00000320
00000032
00002003
00003002
00000000
00000000
00000003
00000000
,
00000000
00000000
00000002
00000203
00002300
00023000
00230000
20300000
,
30020000
00230000
00302000
00023000
00000000
00000000
00030000
00000000
,
00000000
00000000
00000200
00002300
00003020
00000032
00000023
00002030
,
00023000
02030000
03200000
20300000
00000000
30000000
01000000
10000000
,
00020000
00000000
01030000
00000000
00020000
00000000
00100000
00130000
00000000
00000000
00000000
00000000
00000000
00000000
00000000
00000000
,
00100000
00000000
00001000
00000000
00010000
00000000
00000100
00001000
00000000
00000000
00001100
00000000
01010000
00000000
00011000
00000000
,
00020000
00000000
00030100
00000000
00002000
00000000
00000010
00003010
00000000
00000000
00000000
00000000
00000000
00000000
00000000
00000000
,
00000010
00000000
00001000
00000000
00000100
00000000
00010000
00000100
00000000
00000000
00001010
00000000
00110000
00000000
00011000
00000000
,
00002000
00000000
01003000
00000000
00200000
00000000
10000000
10300000
00000000
00000000
00000000
00000000
00000000
00000000
00000000
00000000
,
10000000
00000000
01000000
00000000
00100000
00000000
00001000
00010000
00000000
00000000
00011000
00000000
00100010
00000000
00011000
00000000
,
00020000
00000000
00030010
00000000
00000200
00000000
00000001
00000301
00000000
00000000
00000000
00000000
00000000
00000000
00000000
00000000
,
00000020
00000000
00000130
00000000
00000200
00000000
00010000
00010300
00000000
00000000
00011000
00000000
01000100
00000000
00011000
00000000
,
00101000
00000000
00100000
00000000
00010000
00000000
10000000
01000000
00100000
00000000
00001000
00000000
00010000
00000000
00000010
00000000
,
00001020
00000000
00000000
00000000
00010000
00000000
00000000
00001030
00000000
00000100
00000000
00000010
00000000
00000001
00000010
00000000
,
00001100
00000000
00000100
00000000
00010000
00000000
00001000
01000000
00100000
00000000
10000000
00000000
01000000
00000000
00100000
00000000
,
00200000
00000000
00000000
00000000
00001000
00000000
00000000
00310000
00000000
00000000
00000000
00000000
00100000
00001000
00000000
00010000
,
00000010
00000000
00000100
00000000
00000001
00000000
00000010
00001000
00000010
00000000
00000001
00000000
00000100
00000000
00001000
00000000
,
00020000
00000000
00000000
00000000
00000010
00000000
00000000
00030100
00000000
00000100
00001000
00000000
00000100
00000000
00010000
00000000
,
00001000
00000000
01000000
00000000
10000000
00000000
01000000
00100000
10000000
00000000
00010000
00000000
10000000
00000000
00010000
00000000
,
02010000
00000000
00000000
00000000
00010000
00000000
00000000
03001000
00000000
00001000
00010000
00000000
00000010
00000100
00000000
00000001
,
00001000
00000000
00000100
00000000
00000001
00000100
00000000
00001000
00000000
00000100
00000000
00010000
00000000
00001000
01000000
00000000
,
00100000
00000000
00010000
00000000
00100000
10000000
00000000
01000000
00000000
00100000
00002000
00000000
00000000
00000000
00013000
00000000
,
00011000
00000000
00001000
00000000
00010000
00000010
00000000
00000001
00000000
00000010
00000000
00000100
00000000
00001000
00000100
00000000
,
00000010
00000000
00010000
00000000
00001000
01000000
00000000
00100000
00000000
10000000
01000000
00000000
00100000
00010000
00000000
00000000
,
00021000
00000000
00000000
00000000
00000000
00000000
00030100
00000000
00000000
00000000
00000000
00000000
00001000
00000000
00000000
00000010
00000000
00000000
00000100
00000000
00000000
00000000
00000000
00000000
00000001
00000000
00000000
00000000
00000000
00000000
00000001
00000000
00000000
00000020
00000030
00000000
00000000
00000000
00000000
00000020
00000030
00000000
00001000
00000000
00000000
00000000
00000000
00000000
,
00000100
00000000
00000000
00000000
00000000
00000000
00000000
00000000
00000000
00000000
00000000
00000000
00010000
00000000
00000000
00000000
00000000
00000000
00000000
00000000
00000000
00000000
00000000
00000000
00001000
00000000
00000000
00000000
00000000
00000000
01000000
00000000
00000000
00000000
00000000
00000000
00100000
00000000
00000000
00000000
00000000
00000000
00000000
00000000
00000000
00000000
00000000
00000000
10000000
00000000
00000000
00000000
00000000
00000000
00000000
00000000
00000000
00000000
00000000
00000000
00010000
00000000
00000000
00000000
00000000
00000000
02000000
00000000
03000000
00000000
00000000
00000000
00000000
00000000
00000000
00000000
00000000
00000000
02000000
00000000
00000000
03000000
00000000
00000000
10000000
00000000
00000000
00000000
00000000
00000000
00000000
00000000
00000000
00000000
00000000
00000000
,
00110000
00000000
00000000
00000000
00000000
00000000
00000000
00000000
00000000
00000000
00000000
00000000
00100000
00000000
00000000
00000000
00000000
00000000
00000000
00000000
00000000
00000000
00000000
00000000
00001000
00000000
00000000
00000000
00000000
00000000
00010000
00000000
00000000
00000000
00000000
00000000
00000100
00000000
00000000
00000000
00000000
00000000
00000000
00000000
00000000
00000000
00000000
00000000
00001000
00000000
00000000
00000000
00000000
00000000
00000000
00000000
00000000
00000000
00000000
00000000
00001000
00000000
00000000
00000000
00000000
00000000
00000200
00000000
00000300
00000000
00000000
00000000
00000000
00000000
00000000
00000000
00000000
00000000
00000200
00000000
00000000
00000300
00000000
00000000
00000001
00000000
00000000
00000000
00000000
00000000
00000000
00000000
00000000
00000000
00000000
00000000
,
00001000
00000000
00000000
00000000
00000010
00000000
00000000
00000000
00010000
00000000
00001000
00000000
01000000
00000000
00000000
00000000
00100000
00000000
00000000
00000000
10000000
00000000
00200000
00300000
00000000
00000000
00200000
00300000
00010000
00000000
00000000
00000000
,
10010000
00000000
00000000
00000000
00101000
00000000
00000000
00011000
00000000
00000000
00001100
00000000
00000011
00000000
00000000
00000000
,
00000110
00000000
00000000
00000000
00001100
00000000
00000100
00010000
00000000
00010000
00010000
00000000
00001000
00001000
00001000
00001000
;
