#TITLE:High Enough (feat. Will Jay);
#SUBTITLE:;
#ARTIST:Grant;
#TITLETRANSLIT:;
#SUBTITLETRANSLIT:;
#ARTISTTRANSLIT:;
#GENRE:;
#CREDIT:;
#MUSIC:High Enough (feat. Will Jay).ogg;
#BANNER:High Enough (feat. Will Jay).png;
#BACKGROUND:High Enough (feat. Will Jay)-bg.png;
#CDTITLE:;
#SAMPLESTART:96.592;
#SAMPLELENGTH:18.261;
#SELECTABLE:YES;
#OFFSET:0.772;
#BPMS:0.000=110.000;
#STOPS:;
#ORIGIN:;
#TAGS:;
#PREVIEWVID:;
#JACKET:High Enough (feat. Will Jay)-jacket.png;
#CDIMAGE:;
#DISCIMAGE:;
#BGCHANGES:2.000=High Enough (feat. Will Jay).mp4=1.000=0=0=1,
99999.000=-nosongbg-=1.000=0=0=0=StretchNoLoop====
;
#FGCHANGES:;

//--------------- dance-single - ----------------
#NOTES:
     dance-single:
     :
     Beginner:
     2:
     0.130494,0.249017,0.119147,0.12709,0,115,100,15,16,0,0,0,0,0,0.130494,0.249017,0.119147,0.12709,0,115,100,15,16,0,0,0,0,0:
0000
0000
0000
0000
,
0000
0000
0000
0000
,
0000
0000
0000
0000
,
0000
0000
0000
0000
,
0000
0000
0000
1001
,
0001
0000
0000
0000
,
1000
0000
0000
0010
,
0100
0000
0000
0000
,
0001
0000
0000
0010
,
0100
0000
0000
0000
,
1000
0000
0000
0010
,
0100
0000
0000
0000
,
0001
0000
1001
0110
,
1001
0000
1000
0001
,
1000
0000
1001
0110
,
1001
0000
0001
1000
,
0001
0000
0110
1001
,
0110
0001
1000
0000
,
0100
1000
0010
0000
,
0100
0001
0010
0000
,
0100
0000
0000
0000
,
0010
0001
0000
1000
,
0000
0010
0000
0100
,
0002
0000
0000
0003
0000
0000
0000
0000
,
2000
0000
0000
3000
0000
0000
0000
0000
,
0001
0000
1000
0000
,
0100
1000
0001
0000
,
0200
0000
0000
0300
0000
0000
0000
0000
,
0020
0000
0000
0030
0000
0000
0100
0000
,
0002
0000
0000
0003
,
0010
0000
0100
0000
,
2000
0000
3000
0000
,
0001
0000
1000
0000
,
0010
0000
0100
0000
,
0001
0000
1000
0000
,
0001
0000
1000
0000
,
0110
0000
0000
1001
,
2000
0000
3000
0000
,
0020
0000
0030
0000
,
0200
0000
0300
0000
,
0002
0000
0003
0000
,
0010
0001
0100
0000
,
0010
1000
0100
0000
,
0100
1000
0010
0000
,
0100
0001
0010
0100
,
1000
1001
0001
0000
,
1000
0000
0010
0000
,
0200
0000
0000
0300
0000
0000
0000
0000
,
0020
0000
0000
0030
0000
0000
0000
0000
,
1000
0000
0001
0000
,
0010
0001
1000
0000
,
0001
0000
1000
0000
,
0110
0000
2002
0000
,
3003
0000
0000
0000
,
0000
0000
0020
0000
,
0230
0000
0000
0000
,
0000
0000
0000
0000
,
0300
0000
0000
0000
;

//--------------- dance-single - ----------------
#NOTES:
     dance-single:
     :
     Easy:
     6:
     0.224677,0.316931,0.206521,0.135033,0.047659,198,172,26,17,0,0,0,0,0,0.224677,0.316931,0.206521,0.135033,0.047659,198,172,26,17,0,0,0,0,0:
0000
0000
0000
0000
,
0000
0000
0000
0000
,
0000
0000
0000
0000
,
0000
0000
0000
0000
,
0000
0000
0000
1001
,
0001
0010
0001
1000
,
0020
0000
0000
0000
0130
0000
0001
1000
,
0001
0010
0001
0100
,
0010
0000
1000
0000
0100
0000
0010
0001
,
0100
0010
1000
0001
,
0020
0000
0000
0000
0130
0000
0010
0001
,
1000
0000
0010
0000
0100
0000
0010
0100
,
0001
0000
0000
1000
0000
0000
0000
0000
1001
0000
0000
0000
0110
0000
0000
0000
,
1001
0000
0001
0010
,
0100
0100
1100
0011
,
1100
0100
1000
0010
,
0100
0100
0101
1010
,
1001
0001
1010
0000
,
1001
1000
0011
0000
,
1001
0000
0001
0000
0110
0000
0000
1000
,
0001
0000
0000
0000
,
1000
0101
0001
0010
,
0001
1000
0010
0100
,
0001
0000
0000
0001
0000
0000
0001
0000
0000
0000
0000
0000
0000
0000
0000
0000
,
1000
0000
0000
1000
0000
0000
1000
0000
0000
0000
0000
0000
0000
0000
0000
0000
,
0100
1001
0001
1000
,
0001
0010
0100
0010
,
0001
0000
0000
1000
0000
0000
0010
0000
0000
0000
0000
0000
0000
0000
0000
0000
,
0010
0000
0000
1000
0000
0000
0001
0000
0000
0000
0000
0000
0010
0000
0000
0000
,
0200
0000
0000
0300
,
1000
0100
0010
0001
,
2000
0000
3000
0000
,
0001
1000
0001
0010
,
0100
0010
0001
0100
,
0010
1000
0001
1000
,
0110
0000
1001
0000
,
0001
0000
0000
1000
0000
0000
0010
0000
0000
0000
0000
0000
1001
0000
0000
0000
,
0002
0000
0000
0000
0000
0000
0000
0003
0000
0000
0000
0000
0100
0000
0000
0000
,
0020
0000
0000
0000
0000
0000
0000
0030
0000
0000
0000
0000
1000
0000
0000
0000
,
0200
0000
0310
0001
,
2000
0000
3001
0100
,
0020
2030
3100
0000
,
0020
0032
0103
0010
,
0200
0302
1003
0000
,
1001
0110
1001
0110
,
2000
3100
1000
0010
,
0100
0001
0010
0100
,
1000
0000
0000
1000
0000
0000
1000
0000
0000
0000
0000
0000
0000
0000
0000
0000
,
0001
0000
0000
0001
0000
0000
0001
0000
0000
0000
0000
0000
0000
0000
0000
0000
,
0100
0101
0001
0010
,
0001
1000
0001
1000
,
0010
0100
0001
0010
,
0110
0000
0000
0000
0000
0000
0000
0000
0001
0000
0000
1000
0000
0000
0010
0000
,
0200
0000
0000
0000
,
0000
0000
0000
0000
0000
0000
0000
0000
0310
0000
0000
1000
0000
0000
0002
0000
,
0000
0000
0000
0000
,
0000
0000
0000
0000
,
0003
0000
0000
0000
;

//--------------- dance-single - ----------------
#NOTES:
     dance-single:
     :
     Medium:
     11:
     0.372192,0.54331,0.317725,0.230351,0.349498,328,288,40,29,0,0,0,0,0,0.372192,0.54331,0.317725,0.230351,0.349498,328,288,40,29,0,0,0,0,0:
0000
0000
0000
0000
,
0000
0000
0000
0000
,
0000
0000
0000
0000
,
0001
0000
1000
0000
0100
0000
0010
0100
,
1000
0001
0100
1001
,
0000
0000
0001
0100
0000
0001
0000
0010
0000
0001
0000
1000
0000
0100
0000
0010
,
0000
0000
0000
0000
0000
0000
0100
1000
0000
0000
0000
0000
0002
0000
2003
0000
,
3000
0000
0001
0100
0000
0001
0000
0010
0000
0001
0000
0100
0000
0010
0000
0100
,
0000
0000
0100
0000
0010
0000
0100
1000
0000
0000
0000
0000
0100
0010
0001
2000
,
0000
0000
3010
0100
0000
0010
0000
1000
0000
0001
0000
1000
0000
0100
0000
0010
,
0000
0000
0000
0000
0000
0000
0001
1000
0000
0000
0000
0000
0001
0100
0010
2000
,
0000
3000
0000
0000
0000
0000
0000
0100
,
0010
0000
0100
0010
0000
0000
0000
0000
0011
0000
0000
0000
1010
0000
0000
0000
,
1001
0000
0000
0001
0000
0100
1000
0100
,
0002
0013
0101
1100
,
1001
0000
1010
0000
1000
0100
0001
0100
,
0020
0000
0031
0000
1000
0001
0100
0010
,
0110
0000
0010
0100
0000
0100
0001
0000
0001
1000
0000
0000
0000
0000
0000
0000
,
1001
0000
1000
0100
0000
0100
0010
0000
0010
0001
0000
0000
0000
0000
0000
0000
,
0011
0000
0010
0100
0000
0100
1000
0000
1000
0001
0000
0000
0000
0000
0100
0000
,
0200
0000
0310
0000
,
0100
0000
1001
0001
1000
0100
1000
0002
,
0000
0000
0013
1001
0000
0000
0001
0010
,
0001
0000
0000
0100
0000
0000
1020
0000
0000
0000
1000
0000
1030
0000
0000
0000
,
0010
0000
0000
0100
0000
0000
2001
0000
0000
0000
0001
0000
3001
0000
0020
0000
,
0000
0000
0130
1000
0001
0100
0010
2000
,
0000
0000
3001
1001
0000
0000
0001
0100
,
0010
0000
0000
1000
0000
0000
0021
0000
0000
0000
0100
0000
0130
0000
0000
0000
,
0010
0000
0000
0001
0000
0000
1010
0000
0000
0000
1000
0000
0001
0000
0020
0000
,
0000
0000
0000
0000
0000
0000
0000
0000
0000
0000
0000
0000
0030
0000
0100
0010
,
0000
0001
0000
0010
0000
0100
0000
1000
0000
0000
0001
0000
1000
0000
0020
0000
,
0000
0000
0000
0000
0000
0000
0000
0000
0030
0000
0000
0000
0000
0000
0100
0010
,
0000
1000
0000
0001
0000
0010
0000
0001
0000
0000
1000
0000
0001
0000
0200
0000
,
0000
0000
0310
1000
0001
0010
0100
2000
,
0000
0000
3010
1010
0000
0000
1000
0001
,
1001
0000
0000
1001
0000
0000
1001
0000
0000
1001
0000
0000
1001
0000
0110
0000
,
0001
0100
0000
0100
0010
0000
0010
1000
0000
1000
0001
0000
0110
0000
0000
0000
,
2001
0000
0000
0001
0000
0001
0000
3001
0000
0000
0000
0000
1000
0000
0010
0000
,
0102
0000
0000
0010
0000
0010
0000
0013
0000
0000
0000
0000
0100
0000
1000
0000
,
2010
0000
0000
0100
0000
0100
0000
3100
0000
0000
0010
0000
0000
0010
0000
0000
,
0210
0000
0000
1000
0000
1000
0000
1300
0100
0000
0000
0010
0000
0000
0001
0000
,
2001
0000
0000
0000
0010
0000
0000
3001
0000
0000
0000
0000
1010
0000
0000
0000
,
0102
0000
0000
1000
0000
1000
0000
1003
0000
0000
0000
0000
0001
0000
0100
0000
,
0120
0000
0000
0100
0000
0100
0000
0130
0000
0000
0010
0000
0000
0010
0000
0000
,
0110
0000
0010
0000
1001
0001
0010
0200
,
0000
0000
0310
0001
0100
0001
1000
0200
,
0000
0000
0310
1001
0000
0000
1000
0100
,
0010
0000
0001
0010
0000
0010
0001
0000
0000
0000
1000
0000
1000
0000
0000
0000
,
0001
0000
0001
0100
0000
0100
0010
0000
0000
0000
1000
0000
0001
0000
0020
0000
,
0000
0000
0130
0010
0001
0010
0001
2000
,
0000
0000
3010
1010
0000
0000
1000
0001
,
0010
0000
0001
1000
0010
0000
1000
0001
,
0010
0000
0000
0000
0000
0000
0000
0000
1001
0000
0001
0100
0000
0010
1000
0000
,
1001
0000
0000
0000
,
0000
0000
0000
0000
0000
0000
0000
0000
0001
0000
0001
1000
0000
1000
0020
0000
,
0000
0000
0000
0000
,
0000
0000
0000
0000
,
0030
0000
0000
0000
;

//--------------- dance-single - ----------------
#NOTES:
     dance-single:
     :
     Hard:
     13:
     0.451624,0.588586,0.4051,0.301839,0.460701,398,347,51,38,0,0,0,0,0,0.451624,0.588586,0.4051,0.301839,0.460701,398,347,51,38,0,0,0,0,0:
0000
0000
0000
0000
,
0000
0000
0000
0000
,
0000
0000
0000
0000
,
0001
0100
0001
0100
0000
0100
0000
0010
0000
1000
0000
0001
0000
0010
0001
0000
,
1000
0100
1000
0100
0000
1000
0000
0010
0000
0100
0001
0010
1001
0000
0000
0000
,
1001
0000
1000
0001
0000
0010
0000
0001
0000
0100
0000
0010
0000
1000
0000
0002
,
0000
0000
0000
0000
0000
0000
0010
0013
0000
0000
0000
0000
0002
0000
2003
0000
,
3010
0000
0100
0010
0000
1000
0000
0001
0000
0010
0000
0001
0000
1000
0000
0010
,
0000
0000
0100
0000
0010
0000
1000
0001
0000
0000
0000
0000
1000
0001
0100
2000
,
0000
0000
3100
0010
0000
1000
0000
0001
0000
0010
0000
0001
0000
1000
0000
0020
,
0000
0000
0000
0000
0000
0000
0100
0130
0000
0000
0000
0000
0001
0001
0100
0020
,
0100
0000
1000
0000
0130
0000
0010
1000
,
0001
0000
0001
1000
0000
0000
0000
0000
1200
0000
0310
0000
0201
0000
0310
0000
,
1001
0000
0101
0000
0001
0100
1000
0100
,
0102
0000
0013
0000
0012
1003
2010
3001
,
1001
0000
1010
0000
1000
0010
0100
0010
,
2010
0000
3100
0000
2100
3001
0210
0301
,
1000
0000
1000
0010
0000
0010
0001
0000
1000
1001
0000
0000
0000
0000
0000
0000
,
0001
0000
0001
0100
0000
0100
1000
0000
0001
1001
0000
0000
0000
0000
0000
0000
,
1001
0000
1000
0010
0000
0100
0001
0000
1000
1001
0000
0000
0000
0000
0002
0000
,
0100
0000
0000
0000
0013
0100
1000
0001
,
1000
0000
0101
0100
0010
1000
0001
0020
,
0000
0000
0100
0200
0000
0330
0010
0001
,
1000
0000
0010
1000
0000
1000
0002
0000
0000
0000
1000
0000
1003
0000
0000
0000
,
1000
0000
1000
0001
0000
0001
0200
0000
0000
0000
0010
0000
0310
0000
2000
0000
,
0000
0000
3100
0010
0100
1000
0001
0200
,
0000
0000
0010
0020
0000
0330
0100
0010
,
1000
0000
0001
1000
0000
1000
0200
0000
0000
0000
0010
0000
0310
0000
0000
0000
,
0100
0000
1000
0100
0000
0010
0001
0000
0000
0000
1000
0000
0010
0000
0200
0000
,
0000
0000
0000
0000
0000
0000
0000
0000
0000
0000
0000
0000
0300
0000
0010
0100
,
0000
1000
0000
0100
0000
0001
0000
1000
0000
0000
0100
0000
0010
0000
0002
0000
,
0000
0000
1000
0000
1000
0000
2000
0000
0000
0000
0000
0000
3003
0000
1000
0100
,
0000
0010
0000
0001
0000
1000
0000
0020
0000
0000
0130
0000
0010
0000
2000
0000
,
0000
0000
3001
0100
1000
0100
0001
0020
,
0000
0000
0100
0200
0000
0330
0010
0001
,
0011
0000
0000
1100
0000
0000
0011
0000
0000
1100
0000
0000
0011
0000
1000
0000
,
0001
0001
0000
1000
1000
0000
0010
0010
0000
0100
0100
0000
1001
0000
0000
0000
,
0001
0100
0001
1000
0000
1100
0000
1001
0000
0000
0000
0000
1000
0000
0001
0000
,
0010
0001
1000
0010
0000
1010
0000
0101
0000
0000
0000
0000
1000
0100
1000
0001
,
0100
0010
1000
0001
0000
0011
0000
0110
0000
1000
0100
0000
0100
1000
0000
1000
,
0001
0000
0100
0001
0000
1001
0000
0001
1000
0000
1000
0010
0000
0010
0001
0000
,
2001
0000
0000
0000
0100
0000
0000
3010
0000
0000
0000
0000
0100
0000
0010
0000
,
1001
0000
0001
0010
0000
1001
0000
1100
0000
0000
0000
0000
0100
0010
0001
1000
,
0010
0100
0000
0110
0000
1001
0000
0011
0000
0000
1100
0000
0000
1100
0000
0000
,
1002
0203
2300
3020
,
0032
0000
1003
0100
0001
0100
0010
0001
,
0100
1000
0100
0010
1001
0000
1000
0100
,
1000
0000
1000
0010
0000
0010
0001
0000
0000
0000
1001
0000
1001
0000
0000
0000
,
0001
0000
0001
0100
0000
0100
1000
0000
0000
0000
1001
0000
1001
0000
0002
0000
,
0000
0000
0013
0001
0100
1000
0100
0010
,
1000
0001
0010
0100
0000
0000
0010
0001
,
1100
0000
1000
0001
1010
0000
1000
0010
,
0101
0000
0000
0000
0000
0000
0000
0000
0001
0000
1000
0010
0000
0010
0001
0000
,
1001
0000
0000
0000
,
0000
0000
0000
0000
0000
0000
0000
0000
0001
0000
0001
0100
0000
0100
2000
0000
,
0000
0000
0000
0000
,
0000
0000
0000
0000
,
3000
0000
0000
0000
;

//--------------- dance-double - ----------------
#NOTES:
     dance-double:
     :
     Easy:
     6:
     0.200848,0.294293,0.198578,0.190635,0.039716,177,152,25,24,0,0,0,0,0,0.200848,0.294293,0.198578,0.190635,0.039716,177,152,25,24,0,0,0,0,0:
00000000
00000000
00000000
00000000
,
00000000
00000000
00000000
00000000
,
00000000
00000000
00000000
00000000
,
00000000
00000000
00000000
00000000
,
00000000
00000000
00000000
00011000
,
00010000
00000100
00001000
00000010
,
00000200
00000000
00000000
00000000
00000301
00000000
00001000
00000100
,
00010000
00001000
01000000
00100000
,
10000000
00000000
01000000
00000000
00100000
00000000
01000000
10000000
,
00010000
01000000
00010000
00100000
,
00002000
00000000
00000000
00000000
00013000
00000000
00000100
00001000
,
00000100
00000000
00000000
00000000
,
00001000
00000000
00000000
00000001
00000000
00000000
00000000
00000000
00001001
00000000
00000000
00000000
00000110
00000000
00000000
00000000
,
00001001
00000000
00000010
00010000
,
00001000
01000000
10010000
01100000
,
10010000
00000000
00100000
00001000
,
00010000
00000010
00000110
00001001
,
00000110
00000001
00001100
00000000
,
00000100
00010000
00011000
01001000
,
00011000
00001000
01100000
00000000
,
20000000
00000000
30010000
00000000
,
10000000
01000000
00010000
01000000
,
00100000
00001000
00010000
00000100
,
00001000
00000010
00000100
00000000
,
00000010
00001000
00000001
00000000
,
00000010
00000001
00000100
00001000
,
00000100
00010000
00001000
01000000
,
00100000
10000000
01000000
00000000
,
00100000
00010000
01000000
00000000
,
00002000
00000000
00000000
00003000
,
00010000
00000000
00000010
00000000
,
00000200
00000000
00000300
00000000
,
00000010
00000000
00010000
00000000
,
00002000
01003000
00100000
10000000
,
01000000
00100000
00001000
00010000
,
00000100
00000000
00010000
00000000
,
00022000
00000000
00033000
00000000
,
00020200
00000000
00000000
00000000
00000000
00000000
00000000
00030300
00000000
00000000
00000000
00000000
00000000
00000000
00000000
00000000
,
02002000
00000000
00000000
00000000
00000000
00000000
00000000
03003000
00000000
00000000
00000000
00000000
00000000
00000000
00000000
00000000
,
02200000
00000000
00000000
00000000
00000000
00000000
00000000
03300000
10000000
00000000
00000000
00000000
00000000
00000000
00000000
00000000
,
00220000
00000000
00000000
00000000
00000000
00000000
00000000
00330000
00100000
00000000
00000000
00000000
00001000
00000000
00000000
00000000
,
00020200
00000000
00000000
00000000
00000000
00000000
00000000
00030300
00000000
00000000
00000000
00000000
00001000
00000000
00000000
00000000
,
00002002
00000000
00000000
00000000
00000000
00000000
00000000
00003003
00000000
00000000
00000000
00000000
00000001
00000000
00000000
00000000
,
00002020
00000000
00000000
00000000
00000000
00000000
00000000
00003030
00000000
00000000
00000000
00000000
00000000
00000000
00000000
00000000
,
00000100
00010000
00001000
01000000
,
00100000
10000000
01000000
00000000
00100000
00000000
00010000
00000000
,
00100000
00001000
00010000
00000100
,
00001000
00000010
00000110
00000000
,
00000100
00000001
00000110
00000000
,
00000200
00010300
00001000
01000000
,
00010000
00000000
00100000
00000000
00001000
00000000
00010000
00001000
,
00000000
00000000
00010000
00001000
00000000
00000000
00010000
00001000
,
00000000
00000000
00000000
00000000
00000000
00000000
00000000
00000000
00010000
00000000
00000000
00001000
00000000
00000000
00010000
00000000
,
00000000
00000000
00000000
00000000
,
00000000
00000000
00000000
00000000
00000000
00000000
00000000
00000000
00001000
00000000
00000000
00010000
00000000
00000000
00002000
00000000
,
00000000
00000000
00000000
00000000
,
00000000
00000000
00000000
00000000
,
00003000
00000000
00000000
00000000
;

//--------------- dance-double - ----------------
#NOTES:
     dance-double:
     :
     Medium:
     11:
     0.38127,0.498034,0.301839,0.238294,0.389213,336,298,38,30,0,0,0,0,0,0.38127,0.498034,0.301839,0.238294,0.389213,336,298,38,30,0,0,0,0,0:
00000000
00000000
00000000
00000000
,
00000000
00000000
00000000
00000000
,
00000000
00000000
00000000
00000000
,
00000000
00000000
00000000
00000000
,
00000000
00000000
00000000
00011000
,
00000000
00000000
00010000
00000100
00000000
00001000
00000000
00000010
00000000
00000100
00000000
00000001
00000000
00000010
00000000
00000200
,
00000000
00000000
00000000
00000000
00000000
00000000
00001000
00001300
00000000
00000000
00000000
00000000
00000020
00000000
00000032
00000000
,
00000003
00000000
00000100
00000010
00000000
00001000
00000000
00000100
00000000
00010000
00000000
00001000
00000000
01000000
00000000
00020000
,
00000000
00000000
10030000
00000000
01000000
00000000
00100000
01000000
00000000
00000000
00000000
00000000
20000000
32000000
03200000
00320000
,
00000000
00000000
00130000
00001000
00000000
00010000
00000000
00000100
00000000
00001000
00000000
00000010
00000000
00000100
00000000
00000002
,
00000000
00000000
00000000
00000000
00000000
00000000
00000010
00000013
00000000
00000000
00000000
00000000
00000002
00000023
00000230
00002300
,
00003000
00000000
00000000
00000000
00000000
00000000
00000000
00000100
,
00010000
00000000
00001000
01000000
00000000
00000000
00000000
00000000
01100000
00000000
00000000
00000000
01010000
00000000
00000000
00000000
,
01001000
00000000
00000000
00001000
00000000
00010000
00000100
00001000
,
00000020
00000130
00000101
00001010
,
00010010
00000000
00000000
00010000
00000000
00001000
01000000
00100000
,
20000000
31000000
00110000
00101000
,
00010100
00000000
00010000
00000100
00000000
00000100
00001000
00000000
00000001
00000100
00000000
00000000
00000000
00000000
00000000
00000000
,
00000110
00000000
00000010
00010000
00000000
00001000
00010000
00000000
00010100
00000000
00000000
00000000
00011000
00000000
00000000
00000000
,
01001000
00000000
01000000
00100000
00000000
10000000
00010000
00000000
00100000
01000000
00000000
00000000
00000000
00000000
10000000
00000000
,
10000000
00000000
00000000
01000000
00000000
00100000
00000000
00001000
00010000
00000000
00000100
00000000
00001000
00000000
00000020
00000000
,
00000000
00000000
00000130
00001000
00000100
00000001
00001000
00000200
,
00000000
00000000
00010300
00010100
00000000
00000000
00010000
00001000
,
01000000
00000000
00100000
01000000
00000000
00100000
01000000
00000000
00000000
00000000
00010000
00000000
00010000
00000000
00000000
00000000
,
10000000
00000000
01000000
00100000
00000000
01000000
00100000
00000000
00000000
00000000
00010000
00000000
00100000
00000000
00002000
00000000
,
00000000
00000000
00013000
00000010
00000100
00001000
00000100
00000002
,
00000000
00000000
00001003
00001001
00000000
00000000
00000100
00010000
,
00001000
00000000
01000000
00001000
00000000
01000000
00001000
00000000
00000000
00000000
00010000
00000000
00010000
00000000
00000000
00000000
,
00000100
00000000
00001000
00000010
00000000
00001000
00000010
00000000
00000000
00000000
00000100
00000000
00000001
00000000
00000020
00000000
,
00000000
00000000
00000000
00000000
00000000
00000000
00000000
00000000
00000000
00000000
00000000
00000000
00000030
00000000
00000100
00010000
,
00000000
00001000
00000000
00100000
00000000
01000000
00000000
10000000
00000000
00000000
10000000
00000000
00010000
00000000
02000000
00000000
,
00000000
00000000
03010000
00000000
10000000
00000000
02000000
00000000
00000000
00000000
03000000
00000000
00000000
00000000
00100000
00010000
,
00000000
00100000
00000000
00001000
00000000
00010000
00000000
00000100
00000000
00000000
00001000
00000000
00000010
00000000
00000200
00000000
,
00000000
00000000
00000301
00000010
00001000
00000010
00000100
00002000
,
00000000
00000000
00003100
00001100
00000000
00000000
00001000
00000100
,
00011000
00000000
00000000
00011000
00000000
00000000
00011000
00000000
00000000
00011000
00000000
00000000
00011000
00000000
00011000
00000000
,
00000010
00010000
00000000
00001000
01000000
00000000
01000000
00010000
00000000
00000000
00000000
00000000
10010000
00000000
00000000
00000000
,
10000000
01000000
00000000
00010000
00000000
01000000
00000000
10000000
00000000
00000000
00000000
00000000
00010000
00000000
00100000
00000000
,
00001000
00000000
00010000
00000010
00000000
00000001
00000000
00000010
00000000
00000000
00000000
00000000
00000100
00000000
00000001
00000000
,
00001000
00000000
00000100
00010000
00000000
00001000
00000000
01000000
00000000
00000000
00100000
00000000
00000000
00100000
00000000
00000000
,
01000000
00000000
00010000
00100000
00000000
00001000
00000000
00010000
00000100
00000000
00001000
00000100
00000000
00000100
00000010
00000000
,
00000021
00000000
00000000
00000000
00000100
00000000
00000000
00000031
00000000
00000000
00000000
00000000
00000010
00000000
00000100
00000000
,
00001000
00000000
00000100
00010000
00000000
00001000
00000000
01000000
00000000
00000000
00000000
00000000
00100000
01000000
00010000
10000000
,
01000000
10000000
00000000
01000000
00000000
00010000
00000000
01000000
00000000
00000000
10000000
00000000
00000000
10000000
00000000
00000000
,
10010000
00110000
00101000
00011000
,
00000200
00000000
00001300
00000010
00000001
00000010
00001000
00000200
,
00000000
00000000
00010300
00010100
00000000
00000000
00000100
00010000
,
00001000
00000000
01000000
00001000
00000000
01000000
00001000
00000000
00000000
00000000
01100000
00000000
01100000
00000000
00000000
00000000
,
10000000
00000000
00010000
00100000
00000000
00010000
00100000
00000000
00000000
00000000
00100000
00000000
00001000
00000000
00020000
00000000
,
00000000
00000000
00030010
00001000
00000100
00000001
00000100
00002000
,
00000000
00000000
00003010
00001010
00000000
00000000
00000010
00001100
,
00000000
00000000
00010000
00011000
00000000
00000000
00001000
01010000
,
00000000
00000000
00000000
00000000
00000000
00000000
00000000
00000000
10010000
00000000
10000000
01000000
00000000
00100000
00010000
00000000
,
00011000
00000000
00000000
00000000
,
00000000
00000000
00000000
00000000
00000000
00000000
00000000
00000000
00010000
00000000
00000100
00001000
00000000
00000001
00000020
00000000
,
00000000
00000000
00000000
00000000
,
00000000
00000000
00000000
00000000
,
00000030
00000000
00000000
00000000
;

//--------------- dance-double - ----------------
#NOTES:
     dance-double:
     :
     Hard:
     13:
     0.423255,0.54331,0.349498,0.301839,0.444815,373,329,44,38,0,0,0,0,0,0.423255,0.54331,0.349498,0.301839,0.444815,373,329,44,38,0,0,0,0,0:
00000000
00000000
00000000
00000000
,
00000000
00000000
00000000
00000000
,
00000000
00000000
00000000
00000000
,
00000000
00000000
00000000
00000000
,
00000000
00000000
00000000
00100010
,
00010000
00000000
00000100
00001000
00000000
00000010
00000000
00000001
00000000
00000010
00000000
00001000
00000000
00010000
00000000
00002000
,
00000000
00000000
00000000
00000000
00000000
00000000
01000000
02003000
00000000
03000000
00000000
00000000
00200000
00000000
20300000
00000000
,
31000000
00000000
00100000
01000000
00000000
10000000
00000000
01000000
00000000
00010000
00000000
01000000
00000000
00010000
00000000
00002000
,
00000000
00000000
00013000
00000000
00000010
00000000
00000100
00000100
00000000
00000000
00000000
00000000
00000010
00000010
00000100
00000001
,
00000000
00000000
00001000
00000100
00000000
00010000
00000000
00001000
00000000
01000000
00000000
00100000
00000000
10000000
00000000
00020000
,
00000000
00000000
00000000
00000000
00000000
00000000
00100000
00130000
00000000
00000000
00000000
00000000
00100000
00100000
00001000
00020000
,
00000000
00030000
00000100
00000000
00001000
00000000
00000010
00000100
,
00000001
00000000
00001000
00000100
00000000
00000000
00000000
00000000
00001100
00000000
00000000
00000000
01010000
00000000
00000000
00000000
,
00011000
00000000
00000000
00021000
00000000
00030010
00000001
00000010
,
00002000
00003100
00001010
00110000
,
00011000
00000000
00000000
00012000
00000000
01003000
10000000
01000000
,
00020000
00000000
00130000
00000000
01000000
00100000
00001000
00010000
,
00000100
00000000
00001000
00000010
00000000
00000100
00000001
00000000
00001000
00000001
00000000
00000000
00001000
00000000
00000000
00000000
,
00000100
00000000
00010000
00000100
00000000
00010000
00001000
00000000
01100000
00000000
00000000
00000000
10010000
00000000
00000000
00000000
,
01010000
00000000
01000000
00001000
00000000
00010000
00000010
00000000
00000100
00000100
00000000
00000000
00000010
00000000
00000100
00000000
,
00000200
00000000
00000000
00000001
00000000
00000001
00000000
00000301
00000000
00000000
00001000
00000000
00000100
00000000
00020000
00000000
,
00000000
00030000
01001000
01000000
00001000
00010000
00000010
00000200
,
00000000
00000000
00000301
00001001
00000000
00000000
00000001
00000100
,
00001000
00000000
00010000
00100000
00000000
10000000
00010000
00000000
00000000
00000000
10010000
00000000
10010000
00000000
00000000
00000000
,
00100000
00000000
00010000
00001000
00000000
00000100
00000010
00000000
00000000
00000000
00000001
00000000
00000010
00000000
00001200
00000000
,
00000000
00000000
00010300
00000010
00010000
00001000
00100000
02000000
,
00000000
00000000
10000000
13000000
00000000
00000000
10000000
01000000
,
00100000
00000000
00010000
00001000
00000000
00001000
00000100
00000000
00000000
00000000
00000011
00000000
00001100
00000000
00000000
00000000
,
00000001
00000000
00000100
00001000
00000000
00001000
00010000
00000000
00000000
00000000
00001000
00000000
01000000
00000000
00200000
00000000
,
00000000
00000000
00000000
00000000
00000000
00000000
00000000
00000000
00000000
00000000
00000000
00000000
00300000
00000000
01000000
00010000
,
00000000
00100000
00000000
00001000
00000000
00010000
00000000
00000010
00000000
00000000
00000100
00000000
00000001
00000000
00000020
00000000
,
00000000
00000000
00000130
00000000
00001000
00000000
00000020
00000000
00000000
00000000
00000000
00000000
00000030
00000000
00000100
00000010
,
00000000
00010000
00000000
00001000
00000000
00100000
00000000
01000000
00000000
00000000
00100000
00000000
00010000
00000000
20000000
00000000
,
00000000
00000000
31000000
00100000
00010000
00001000
00000100
00000020
,
00000000
00000000
00000100
00000200
00000000
00000330
00000010
00000001
,
00000011
00000000
00000000
00000110
00000000
00000000
00001100
00000000
00000000
00011000
00000000
00000000
00110000
00000000
01100000
00000000
,
10000000
10000000
00000000
00010000
00010000
00000000
00100000
00100000
00000000
00001000
00001000
00000000
01000100
00000000
00000000
00000000
,
00010000
00000100
00001000
00000010
00000000
00000001
00000000
00000010
00000000
00000000
00000000
00000000
00000110
00000000
00001010
00000000
,
00000010
00001000
00010000
01000000
00000000
00010000
00000000
00100000
00000000
00000000
00000000
00000000
01000000
10000000
00100000
10000000
,
00010000
00100000
00000000
00010000
00000000
00001000
00000000
00000100
00000000
00001000
00000001
00000000
00000001
00001000
00000000
00000000
,
00000010
00000100
00000000
00001000
00000000
00010000
00000000
00001000
00010000
00000000
00000010
00010000
00000000
00001000
00100000
00000000
,
00021000
00000000
00000000
00000000
00000010
00000000
00000000
00030100
00000000
00000000
00000000
00000000
00000010
00000000
00000100
00000000
,
00001000
00010000
00100000
01000000
00000000
00010000
00000000
10000000
00000000
00000000
00000000
00000000
01000000
10000000
00100000
01000000
,
00010000
00100000
00000000
00101000
00000000
00011000
00000000
00001010
00000000
00000010
00000100
00000000
00000010
00000100
00000000
00000000
,
00000110
00000000
00011000
00000000
01100000
01000000
00010000
10000000
,
01000000
00100000
00010000
00001000
00000200
00000000
00020300
00000000
00032000
00000000
00203000
00000000
00320000
00000000
02030000
00000000
,
00000000
00000000
03001000
00011000
00000000
00000000
00100000
00001000
,
00010000
00000000
00000010
00100000
00000000
00000010
00010000
00000000
00000000
00000000
00011000
00000000
00011000
00000000
00000000
00000000
,
00011000
00000000
01000000
00000100
00000000
00010000
00000100
00000000
00000000
00000000
00010000
00000000
00001000
00000000
02000000
00000000
,
03001000
00010000
00001000
00010000
00002000
00000000
00003020
00000000
00000032
00000000
00000023
00000000
00000230
00000000
00002300
00000000
,
00000000
00000000
00003001
00001001
00000000
00000000
00000001
00000100
,
00001000
00000000
00001000
00010000
00100000
00000000
01000000
00010000
,
10010000
00000000
00000000
00000000
00000000
00000000
00000000
00000000
10010000
00000000
00010000
00001000
00000000
00001000
00000001
00000000
,
00000110
00000000
00000000
00000000
,
00000000
00000000
00000000
00000000
00000000
00000000
00000000
00000000
00001001
00000000
00001000
00010000
00000000
00020000
20000000
00000000
,
00000000
00000000
00000000
00000000
,
00000000
00000000
00000000
00000000
,
30030000
00000000
00000000
00000000
;
