#TITLE:Henry Henry;
#SUBTITLE:;
#ARTIST:Bunmei;
#TITLETRANSLIT:;
#SUBTITLETRANSLIT:;
#ARTISTTRANSLIT:;
#GENRE:;
#CREDIT:;
#MUSIC:Henry Henry.ogg;
#BANNER:;
#BACKGROUND:;
#CDTITLE:;
#SAMPLESTART:21.699;
#SAMPLELENGTH:18.656;
#SELECTABLE:YES;
#OFFSET:1.968;
#BPMS:0.000=90.000
,35.500=101.500
,36.000=203.490
,151.000=101.750
,163.000=203.490
,258.500=101.745
;
#STOPS:;
#BGCHANGES:;
#FGCHANGES:;

//--------------- dance-single - Pandemonium X ----------------
#NOTES:
     dance-single:
     Pandemonium X:
     Beginner:
     4:
     0,0,0,0,0:
0000
0000
0000
0000
,
0000
0000
0000
0000
,
0000
0000
0000
0000
,
0000
0000
0000
0000
,
0000
0000
0000
0000
,
0000
0000
0000
0000
,
0020
0000
0000
0000
,
0030
0000
0000
0000
,
0200
0000
0000
0300
,
0001
0000
0000
0000
,
1000
0000
0000
0000
,
0010
0000
0000
0010
0000
0000
0010
0000
,
0000
0100
0100
0000
,
0010
0000
0000
0000
,
1000
0000
0000
0000
,
0001
0000
0000
0001
0000
0000
0001
0000
,
0000
1000
1000
0000
,
0100
0000
0000
0000
,
0100
0000
0000
0000
,
0010
0000
0000
0010
0000
0000
0010
0000
,
0000
0001
0001
0000
,
1000
0000
0000
0000
,
1000
0000
0000
0000
,
0010
0000
0000
0010
0000
0000
0010
0000
,
0000
0100
0100
0000
,
0001
0000
0000
0001
0000
0000
0001
0000
,
0000
0000
0000
0000
,
1000
0000
0000
1000
0000
0000
1000
0000
,
0000
0000
0000
0000
,
0010
0000
0000
0010
0000
0000
0010
0000
,
0000
0000
0000
0000
,
0100
0000
0000
0100
0000
0000
0100
0000
,
0000
0000
0001
0000
,
0000
0010
0000
0000
,
0100
0000
0000
1000
,
0000
0000
0010
0000
,
0000
0100
0000
0000
,
0001
0000
0000
2000
,
0000
0000
0000
0000
0000
0000
0000
3000
,
0000
0002
0000
0000
,
0000
0000
0003
0100
,
0000
0000
0000
0010
,
0000
0000
0000
1000
,
0000
0000
0000
0100
,
0000
0000
0000
0010
,
0000
0000
0000
0001
,
0000
0000
0000
1000
,
0000
0000
0000
0010
,
0000
0000
0000
0100
,
0000
0000
0000
0001
,
0000
0000
0000
1000
,
0000
0000
0000
1000
,
0000
0000
0000
0010
,
0000
0010
0000
0000
0010
0000
0000
0000
,
0100
0100
0000
0001
,
0000
0000
0000
0001
,
0000
0000
0000
0010
,
0000
0010
0000
0000
0010
0000
0000
0000
,
0100
0100
0000
1000
,
0000
1000
0000
0000
1000
0000
0000
0000
,
0000
0000
0000
0001
,
0000
0001
0000
0000
0001
0000
0000
0000
,
0000
0000
0000
0100
,
0000
0100
0000
0000
0010
0000
0000
0010
,
0000
0000
1000
0000
0000
0002
0000
0000
,
0000
0000
0000
0000
,
0000
0003
0000
0000
0000
0000
0000
0000
;

//--------------- dance-single - Pandemonium X ----------------
#NOTES:
     dance-single:
     Pandemonium X:
     Easy:
     8:
     0,0,0,0,0:
0000
0000
0000
0000
,
0000
0000
0000
0000
,
0000
0000
0000
0000
,
0000
0000
0000
0000
,
0000
0000
0000
0000
,
0000
0000
0000
0000
,
0002
0000
0000
0000
,
1000
0000
0000
0000
,
2000
0000
0000
0000
0000
0000
0000
0000
0000
0000
0000
0000
3003
0000
0001
0100
,
0002
0000
0000
0000
0003
0000
1000
0010
,
2000
0000
0000
0000
3000
0000
0001
0100
,
0001
0000
0000
1000
0000
0000
0100
0000
,
0010
0000
1001
0000
1001
0000
1000
0010
,
2000
0000
0000
0000
3000
0000
0010
1000
,
0020
0000
0000
0000
0030
0000
1000
0010
,
0100
0000
0000
0001
0000
0000
0010
0000
,
0100
0000
0011
0000
0011
0000
0001
1000
,
0020
0000
0000
0000
0030
0000
1000
0001
,
0020
0000
0000
0000
0030
0000
0001
1000
,
0010
0000
0000
0100
0000
0000
0001
0000
,
0010
0000
1001
0000
1001
0000
1000
0001
,
0200
0000
0000
0000
0300
0000
0001
1000
,
0200
0000
0000
0000
0300
0000
1000
0001
,
0100
0000
0000
0001
0000
0000
1000
0000
,
0000
1100
1100
0000
,
1001
0000
0000
0110
0000
0000
1001
0000
,
0000
0000
0000
0000
,
1100
0000
0000
0110
0000
0000
0011
0000
,
0000
0000
0000
0000
,
0011
0000
0000
0110
0000
0000
1100
0000
,
0000
0000
0000
0000
,
0101
0000
0000
0110
0000
0000
1001
0000
,
0001
1000
0001
0001
,
0010
0100
0100
0010
,
0001
0001
1000
0100
,
0100
0010
0001
0001
,
0100
0010
0010
1000
,
0001
0001
1000
0200
,
0000
0000
0000
0000
,
0000
0020
0000
0000
,
0000
0000
0000
0000
0000
0000
0000
0000
0000
0000
0000
0330
0100
0000
0000
0000
,
1000
0010
0100
0101
,
0000
0000
0000
0001
,
1000
0001
0010
1100
,
0000
0000
0000
1000
,
0001
0100
0001
0011
,
0000
0000
0000
0002
,
0000
0203
0000
0320
,
0000
2030
0000
3002
,
0000
0203
0000
0020
,
0000
0000
0330
0000
1000
0001
0020
0000
,
0000
0000
0030
0000
0001
1000
0020
0000
,
0000
0000
0030
0000
1000
0001
0010
0000
,
0000
0100
0000
0000
1000
0000
0000
0000
,
0101
0000
0101
0000
1000
0001
0200
0000
,
0000
0000
0300
0000
0001
1000
0020
0000
,
0000
0000
0030
0000
1000
0001
0010
0000
,
0000
0100
0000
0000
0010
0000
0000
0000
,
0011
0011
0000
0011
,
0000
1010
0000
0000
0101
0000
0000
0000
,
0000
0000
0000
0101
,
0000
1100
0000
0000
1010
0000
0000
0000
,
0000
0000
0000
1001
,
0000
0101
0000
0000
1010
0000
0000
1100
,
0000
0000
0011
0000
0000
0002
0000
0000
,
0000
2003
0000
0000
0000
0000
0000
3020
0000
0000
0000
0000
0000
0000
0000
0000
,
0000
0030
0000
0000
0000
0000
0000
0000
0000
0000
0000
0000
0000
0000
0000
0000
;

//--------------- dance-single - Pandemonium X ----------------
#NOTES:
     dance-single:
     Pandemonium X:
     Medium:
     11:
     0,0,0,0,0:
0000
0000
0000
0000
,
0000
0000
0000
0000
,
0000
0000
0000
0000
,
0000
0000
0000
0000
,
0000
0000
0000
0000
,
0000
0000
0000
0000
,
0002
0000
0000
0000
,
2000
0000
0000
0000
0000
0000
0000
0003
,
0002
0000
0000
0000
0000
0000
0000
0000
0000
0000
0000
0000
3000
0000
0103
0001
,
0020
0000
0000
0000
0030
0000
0100
1000
,
0020
0000
0000
0000
0030
0000
0100
0001
,
0011
0000
0001
0100
0000
0100
0010
1000
,
0001
0000
2020
0000
0000
3030
0010
1000
,
0200
0000
0000
0000
0300
0000
0010
0001
,
0200
0000
0000
0000
0300
0000
0010
1000
,
1010
0000
0001
0010
0000
0001
0100
0010
,
0100
0000
0202
0000
0000
0303
0001
0100
,
0020
0000
1000
0000
1030
0000
1000
0010
,
0200
0000
0001
0000
0301
0000
0100
0001
,
0010
0000
0100
1000
0000
0010
1000
0001
,
0100
0000
0220
0000
0000
0330
1000
0001
,
0020
0000
0100
0000
0130
0000
0100
1000
,
0020
0000
0100
0000
0130
0000
0010
1000
,
0001
0000
0001
0100
0000
0001
0010
0100
,
0010
2200
0000
3300
,
1001
0000
0001
0101
0000
1000
1010
0000
,
0000
0000
0000
0000
,
1001
0000
1000
1100
0000
0001
0011
0000
,
0000
0000
0000
0000
,
0110
0000
0001
1001
0000
1000
1100
0000
,
0000
0000
0000
0000
,
1001
0000
0100
0101
0000
0001
1001
0000
,
0001
0000
1000
0001
0010
0000
0100
0000
,
0010
0001
0100
0000
0010
0000
1000
0100
,
0010
0000
0100
0000
1000
0001
0100
0000
,
1000
0000
0100
0001
1000
0000
0001
0000
,
1000
0100
0001
0000
0100
0000
1000
0010
,
0100
0000
0001
0000
0010
0100
2000
0000
,
0000
0000
0000
0000
0000
0000
3000
1100
,
0100
0010
0002
0000
0000
0000
0000
0000
,
0000
0000
0000
0000
0003
0000
0011
0000
0001
0000
0100
0100
0001
0000
0000
0000
,
0100
0010
1000
1002
,
1000
0100
1003
0100
,
1000
0010
0100
2001
,
0001
0010
3001
1000
,
0001
0100
0010
0201
,
0010
0001
0310
2000
,
3200
0302
0203
2300
,
3200
0302
0203
2300
,
3020
0000
0000
0032
0000
0000
0023
0000
0000
1030
0010
1000
,
0001
0000
0100
0000
0001
0000
0100
0000
0000
0000
0000
0000
0001
0000
0000
1000
0000
0000
0200
0000
0000
0000
0000
0000
,
0010
0000
0310
0000
0100
1000
0020
0000
,
0100
0000
0130
0000
0100
0001
1000
0000
,
1000
1100
0000
0001
0010
0100
0010
0000
,
1001
0000
1001
0000
0001
1000
0200
0000
,
0010
0000
0310
0000
0100
0010
0200
0000
,
1000
0000
1300
0000
0100
0010
0001
0000
,
1000
0010
0000
0010
0100
0010
1000
0000
,
1001
1001
0000
0011
,
0010
0110
0000
0100
1100
0000
0000
0000
,
0000
0000
0000
1001
,
1000
1010
0000
0010
0110
0000
0000
0000
,
0000
0000
0000
0101
,
0001
1001
0000
1000
1010
0000
0010
0110
,
0000
0100
0101
0000
0001
0021
0000
0000
,
0000
0230
0000
0000
0000
0000
0000
2000
0000
0000
0000
0000
0000
0000
0000
0000
,
0000
3300
0000
0000
0000
0000
0000
0000
0000
0000
0000
0000
0000
0000
0000
0000
;

//--------------- dance-single - Pandemonium X ----------------
#NOTES:
     dance-single:
     Pandemonium X:
     Hard:
     16:
     0,0,0,0,0:
0000
0000
0000
0000
,
0000
0000
0000
0000
,
0000
0000
0000
0000
,
0000
0000
0000
0000
,
0000
0000
0000
0000
,
0000
0000
0000
0000
,
0220
0000
0000
0000
0000
0000
0000
0000
0000
0000
0000
0000
0000
0000
0000
0330
,
2002
0000
0000
0000
0000
0000
0000
3000
,
0200
0000
0000
0000
0000
0000
0000
0000
0000
0000
0000
0000
0003
0000
0301
0010
,
0200
0000
1000
0000
0310
0000
0001
0100
,
0020
0000
0001
0000
0130
0000
0010
1000
,
0001
0000
0010
0000
0001
0000
1000
0010
0100
0000
0001
0000
0010
0000
0100
0000
,
0010
0000
0011
0000
1001
0000
0001
1000
,
0200
0000
0001
0000
1300
0000
0100
1000
,
0020
0000
0001
0000
1030
0000
0010
0100
,
0001
0000
0010
0000
0001
0000
1000
0001
0010
0000
0001
0000
1000
0000
0100
0000
,
1000
0000
0101
0000
1001
0000
0001
0100
,
0201
0000
0310
0000
0101
0000
0001
1000
,
2010
0000
3100
0000
1001
0000
0001
0010
,
0001
0000
0100
0010
1000
0010
1000
0000
0100
0000
1000
0000
0001
0000
0100
0000
,
0001
0000
0101
0000
0011
0000
0001
1000
,
2100
0000
3010
0000
0101
0000
1000
0001
,
0021
0000
0130
0000
0011
0000
0001
1000
,
0100
0000
0010
0001
0100
0010
0100
0001
0100
0000
0001
0000
1000
0000
0001
0000
,
0100
0110
0110
0000
,
0101
0000
0001
0100
0010
0000
1010
0000
0010
0100
0001
0000
1001
0000
0000
0000
,
0000
0000
0000
0000
,
1010
0000
1000
0010
0100
0000
0101
0000
0100
0010
1000
0000
1001
0000
0000
0000
,
0000
0000
0000
0000
,
0011
0000
0010
0100
1000
0000
1100
0000
0100
0010
0001
0000
1001
0000
0000
0000
,
0000
0000
0000
0000
,
1100
0000
0100
0010
0001
0000
0011
0000
0010
0100
1000
0000
1001
0000
1000
0000
,
0100
0000
0000
0010
0000
0000
0100
0000
1000
0000
0001
0000
0100
0000
0000
0010
0000
0000
0100
0000
0000
0001
0000
0000
,
1000
0000
0100
0000
0010
0000
0100
0000
0000
0010
0000
0000
0001
0000
0000
0100
0000
0000
0001
0000
0010
0000
0001
0000
,
1000
0000
0000
0010
0000
0000
0100
0000
0000
0010
0000
0000
1000
0000
0010
0000
0100
0000
0010
0000
0000
1000
0000
0000
,
0001
0000
0000
0010
0000
0000
0001
0000
1000
0000
0010
0000
1000
0000
0000
0010
0000
0000
0100
0000
0000
0001
0000
0000
,
1000
0000
0100
0000
0010
0000
0100
0000
0000
1000
0000
0000
0001
0000
0000
0100
0000
0000
0001
0000
0010
0000
0100
0000
,
1000
0000
0000
0010
0000
0000
0100
0000
0000
0010
0000
0000
1000
0000
0100
0000
0010
0000
0002
0000
0000
0000
0000
0000
,
0000
0000
0000
0000
0000
0000
0000
0100
,
0010
0100
2000
0000
0000
0000
0000
0000
,
0003
0000
0000
0000
0000
0000
0010
0000
0001
0000
0010
3010
1000
0000
0010
0000
,
0100
0010
1000
0010
0100
0001
0011
0010
,
0100
0010
0001
0010
0100
1000
1000
0100
,
0010
0100
1000
0100
0010
0001
0101
0100
,
0010
0100
0001
0100
0010
0100
0001
0010
,
0100
1000
0001
0010
0100
1000
1100
0100
,
1000
0000
0000
0001
0000
0000
1000
0000
0000
0100
0000
0000
0010
0000
0000
0001
0000
0000
0001
0000
0010
0000
0001
0000
,
0100
0001
0100
0010
1000
0010
0100
0010
0100
0001
1000
0001
,
1000
0100
1000
0001
1000
0001
0010
0001
0010
0001
1000
0001
,
0100
0001
0100
0001
1000
0001
1000
0100
1000
0100
0010
0001
,
0010
0000
0100
0000
1000
0000
1001
0000
0000
0000
0000
0000
0001
0000
0000
0100
0000
0000
2010
0000
0000
0000
0000
0000
,
0100
0000
3001
0000
1000
0100
0021
0000
,
0100
0000
0031
0000
1000
0010
0100
0001
,
0010
0100
0010
0001
1000
0000
0010
0000
1000
0000
0001
0000
0100
0000
0000
0000
,
0110
0000
1001
0000
1000
0100
0021
0000
,
0100
0000
0031
0000
0001
0010
2100
0000
,
0010
0000
3001
0000
0100
0010
1000
0001
,
1000
0000
0100
0010
0100
1000
0001
0000
1000
0000
0001
0000
0100
0000
0000
0000
,
0110
0000
0000
0000
1001
0000
0000
0000
0000
0000
0000
0000
1001
0000
0001
0100
,
0010
0000
1001
0000
1000
0010
0100
0000
1001
0000
0000
0000
0000
0000
0000
0000
,
0000
0000
0000
0000
0000
0000
0000
0000
0000
0000
0000
0000
1001
0000
1000
0100
,
0010
0000
1001
0000
0001
0010
0100
0000
1001
0000
0000
0000
0000
0000
0000
0000
,
0000
0000
0000
0000
0000
0000
0000
0000
0000
0000
0000
0000
1010
0000
0010
0100
,
0001
0000
0011
0000
1000
0100
0010
0000
0011
0000
0010
0001
1000
0000
0110
0000
,
0001
1000
0100
0000
0110
0000
0100
1000
0010
0000
0210
0000
0000
0000
0000
0000
,
0000
0002
0000
0000
0300
0000
0000
2000
0000
0000
0000
0000
0000
0000
0000
0000
,
0000
3003
0000
0000
0000
0000
0000
0000
;

//--------------- dance-double - Pandemonium X ----------------
#NOTES:
     dance-double:
     Pandemonium X:
     Easy:
     7:
     0,0,0,0,0:
00000000
00000000
00000000
00000000
,
00000000
00000000
00000000
00000000
,
00000000
00000000
00000000
00000000
,
00000000
00000000
00000000
00000000
,
00000000
00000000
00000000
00000000
,
00000000
00000000
00000000
00000000
,
00002000
00000000
00000000
00000000
,
00023000
00000000
00000000
00000000
,
00032000
00000000
00000000
00000000
00000000
00000000
00000000
00003000
,
02000000
00000000
03000000
00100000
,
02000000
00000000
03000000
00100000
,
10000000
00000000
00000000
10000000
00000000
00000000
10000000
00000000
,
00010000
00110000
00110000
00100000
,
00002000
00000000
00003000
00010000
,
00000020
00000000
00000030
00000100
,
00000001
00000000
00000000
00001000
00000000
00000000
00000100
00000000
,
00000000
00001100
00001100
00000100
,
00020000
00000000
00030000
00000100
,
00020000
00000000
00030000
00001000
,
00100000
00000000
00000000
00010000
00000000
00000000
01000000
00000000
,
00010000
10010000
10010000
00100000
,
00002000
00000000
00003000
00100000
,
00002000
00000000
00003000
00010000
,
00000100
00000000
00000000
00001000
00000000
00000000
00000010
00000000
,
00000000
00000110
00000110
00000000
,
00000001
00000000
00000000
00001000
00000000
00000000
00001100
00000000
,
00000000
00000000
00000000
00000000
,
00000100
00000000
00000000
00010000
00000000
00000000
00011000
00000000
,
00000000
00000000
00000000
00000000
,
00010000
00000000
00000000
00001000
00000000
00000000
01001000
00000000
,
00000000
00000000
00000000
00000000
,
00010000
00000000
00000000
00100000
00000000
00000000
01000000
00000000
,
00000000
10000000
00100000
00000000
,
01000000
00010000
00000000
00100000
,
00001000
00000000
00010000
00000100
,
00000000
00001000
00000010
00000000
,
00000100
00000001
00000000
00000010
,
00000100
00000000
00001000
00000020
,
00000000
00000000
00000000
00000000
,
00000000
00002000
00000000
00000000
,
00000000
00000000
00003030
00000100
,
00000000
00010000
00000000
00011000
,
00000000
00000000
00000000
00001000
,
00000000
01000000
00000000
01100000
,
00000000
00000000
00000000
00100000
,
00000000
10000000
00000000
11000000
,
00000000
00000000
00000000
01000000
,
00000000
00100000
00000000
00110000
,
00000000
00000000
00000000
00100000
,
00000000
00001000
00000000
00020000
,
00000000
00030000
00000100
00002000
,
00000000
00003000
00000100
00002000
,
00000000
00003000
00000100
00010000
,
00000000
00001000
00000000
00000000
01000000
00000000
00100000
00000000
,
10010000
10010000
10000000
02000000
,
00000000
03000000
10000000
02000000
,
00000000
03000000
10000000
00100000
,
00000000
01000000
00000000
00000000
00001000
00000000
00000000
00000000
,
00011000
00011000
00000000
00010000
,
00000000
00000010
00000000
00000000
00000110
00000000
00000000
00000000
,
00000000
00000000
00000000
00000100
,
00000000
00000001
00000000
00000000
00001001
00000000
00000000
00000000
,
00000000
00000000
00000000
00000100
,
00000000
00010000
00000000
00000000
00001000
00000000
00000000
01000000
,
00000000
00000000
00100000
00000000
00000000
20000000
00000000
00000000
,
00000000
00000000
00000000
00000000
,
30000000
00000000
00000000
00000000
;

//--------------- dance-double - Pandemonium X ----------------
#NOTES:
     dance-double:
     Pandemonium X:
     Medium:
     10:
     0,0,0,0,0:
00000000
00000000
00000000
00000000
,
00000000
00000000
00000000
00000000
,
00000000
00000000
00000000
00000000
,
00000000
00000000
00000000
00000000
,
00000000
00000000
00000000
00000000
,
00000000
00000000
00000000
00000000
,
00002000
00000000
00000000
00000000
,
00020000
00000000
00000000
00003000
,
00002000
00000000
00000000
00000000
00000000
00000000
00000000
00000000
00030000
00000000
00000000
00000000
00000000
00000000
01003000
00100000
,
20000000
00000000
01000000
00000000
31000000
00000000
00100000
00001000
,
00020000
00000000
00001000
00000000
00031000
00000000
00010000
00000100
,
00001100
00000000
00000000
00000011
00000000
00000000
00001000
00000010
,
00000100
00000000
00001001
00000000
00001001
00000000
00000001
00000100
,
00000020
00000000
00001000
00000000
00001030
00000000
00000100
00010000
,
00002000
00000000
00010000
00000000
00013000
00000000
00001000
01000000
,
01100000
00000000
00000000
01010000
00000000
00000000
00010000
00100000
,
01000000
00000000
11000000
00000000
00110000
00000000
01000000
00001000
,
00020000
00000000
00000100
00000000
00030100
00000000
00000100
00010000
,
00002000
00000000
01000000
00000000
01003000
00000000
00100000
10000000
,
11000000
00000000
00000000
00110000
00000000
00000000
00010000
00100000
,
01000000
00000000
01100000
00000000
00110000
00000000
00100000
00001000
,
00020000
00000000
00000010
00000000
00030010
00000000
00000010
00010000
,
00002000
00000000
00100000
00000000
00103000
00000000
00010000
00100000
,
01100000
00000000
00000000
00101000
00000000
00000000
00010000
00000100
,
00001000
00001100
00000011
00000000
,
00001001
00000000
00000000
00010010
00000000
00000000
00011000
00000000
,
00000000
00000000
00000000
00000000
,
00011000
00000000
00000000
01001000
00000000
00000000
01100000
00000000
,
00000000
00000000
00000000
00000000
,
01100000
00000000
00000000
01010000
00000000
00000000
00011000
00000000
,
00000000
00000000
00000000
00000000
,
00011000
00000000
00000000
00001010
00000000
00000000
00000101
00000000
,
00000100
00000100
00000010
00010000
,
00010000
00001000
01000000
01000000
,
00100000
10000000
10000000
01000000
,
00010000
00010000
01000000
00100000
,
00100000
00001000
00010000
00010000
,
00000100
00001000
00001000
00000020
,
00000000
00000000
00000000
00000000
00000000
00000000
00000000
00000130
,
00001000
00010000
00200000
00000000
00000000
00000000
00000000
00000000
,
00000000
00000000
01300000
00010000
10000000
01000000
00100000
00000000
,
00001000
00010000
00000100
00001100
,
00001000
00000010
00000100
00000001
,
00000010
00000100
00001000
00011000
,
00010000
00001000
01000000
00100000
,
00010000
00100000
10000000
01000000
,
00100000
01000000
00010000
00200000
,
00302000
00023000
00030020
00020030
,
00032000
00203000
00302000
00023000
,
00030020
00020030
00032000
02003000
,
00000000
00000000
03000000
00000000
00100000
01000000
00020000
00000000
,
00100000
00000000
00130000
00000000
00010000
00100000
00002000
00000000
,
00010000
00000000
00013000
00000000
00010000
00000100
00001100
00000000
,
00000000
00000011
00000000
00000000
00000001
00001000
00000010
00000000
,
00000101
00000000
00001010
00000000
00000010
00010000
00002000
00000000
,
00010000
00000000
00013000
00000000
00001000
01000000
00200000
00000000
,
10000000
00000000
10300000
00000000
01000000
00100000
00110000
00000000
,
00000000
11000000
00000000
00000000
10000000
00010000
01000000
00000000
,
01010000
10100000
10000000
11000000
,
00000000
00110000
00000000
00000000
01010000
00000000
00000000
00000000
,
00000000
00000000
00000000
00101000
,
00000000
00011000
00000000
00000000
00010100
00000000
00000000
00000000
,
00000000
00000000
00000000
00000110
,
00000000
00000011
00000000
00000000
00001001
00000000
00000000
00001100
,
00000000
00000000
00010100
00000000
00000000
00012000
00000000
00000000
,
00000000
00023000
00000000
00000000
00000000
00000000
00000000
00002000
00000000
00000000
00000000
00000000
00000000
00000000
00000000
00000000
,
00000000
00033000
00000000
00000000
00000000
00000000
00000000
00000000
00000000
00000000
00000000
00000000
00000000
00000000
00000000
00000000
;

//--------------- dance-double - Pandemonium X ----------------
#NOTES:
     dance-double:
     Pandemonium X:
     Hard:
     16:
     0,0,0,0,0:
00000000
00000000
00000000
00000000
,
00000000
00000000
00000000
00000000
,
00000000
00000000
00000000
00000000
,
00000000
00000000
00000000
00000000
,
00000000
00000000
00000000
00000000
,
00000000
00000000
00000000
00000000
,
20000000
00000000
00000000
00000000
,
30200000
00000000
00000000
00000000
,
20300000
00000000
00000000
00000000
00000000
00000000
00000000
00000000
00000000
00000000
00000000
00000000
30000000
00000000
10000000
01000000
,
00200000
00000000
00310000
00000000
00011000
00000000
00000100
00000010
,
00000002
00000000
00001003
00000000
00001100
00000000
00000100
00001000
,
00000010
00000000
00000100
00000000
00001000
00000000
00000100
00000010
00000100
00000001
00001000
00000000
00000001
00000000
00000010
00000000
,
00000100
00000000
00001100
00000000
00011000
00000000
00000100
00010000
,
00002000
00000000
00013000
00000000
00110000
00000000
00100000
00001000
,
00020000
00000000
00030010
00000000
00001010
00000000
00000010
00010000
,
00001000
00000000
01000000
00000000
00100000
01000000
00100000
10000000
00100000
10000000
00010000
00000000
00100000
00000000
01000000
00000000
,
10000000
00000000
00110000
00000000
10010000
00000000
10000000
01000000
,
00020000
00000000
00031000
00000000
00011000
00000000
00001000
00000010
,
00000002
00000000
00001003
00000000
00001001
00000000
00000001
00000100
,
00001000
00000000
00010000
00000000
00001000
00100000
00010000
10000000
01000000
00000000
00100000
00000000
01000000
00000000
10000000
00000000
,
00100000
00000000
10100000
00000000
01010000
00000000
10000000
01000000
,
00020000
00000000
00031000
00000000
00011000
00000000
00001000
00000010
,
00000002
00000000
00001003
00000000
00001001
00000000
00000001
00000010
,
00001000
00000000
00000010
00000001
00000100
00000001
00001000
00000000
00000100
00000000
00010000
00000000
00001000
00000000
01000000
00000000
,
00010000
01010000
00011000
00000000
,
00010100
00000000
00000100
00001000
00000010
00000000
00001010
00000000
00000010
00010000
00001000
00000000
00011000
00000000
00000000
00000000
,
00000000
00000000
00000000
00000000
,
00011000
00000000
00010000
00001000
00100000
00000000
01100000
00000000
00100000
00001000
00010000
00000000
00011000
00000000
00000000
00000000
,
00000000
00000000
00000000
00000000
,
00011000
00000000
00001000
00010000
00000100
00000000
00001100
00000000
00001000
00000010
00010000
00000000
00011000
00000000
00000000
00000000
,
00000000
00000000
00000000
00000000
,
00011000
00000000
01000000
00010000
00100000
00000000
01100000
00000000
01000000
00100000
00010000
00000000
00011000
00000000
00000000
00000000
,
00000000
00000000
00000000
00001000
00000000
00000000
01000000
00000000
00100000
00000000
10000000
00000000
01000000
00000000
00000000
00100000
00000000
00000000
00001000
00000000
00000000
00010000
00000000
00000000
,
00000100
00000000
00010000
00000000
00000010
00000000
00000100
00000000
00000000
00000010
00000000
00000000
00000100
00000000
00000000
00000001
00000000
00000000
00000010
00000000
00000001
00000000
00001000
00000000
,
00000100
00000000
00000000
00010000
00000000
00000000
00001000
00000000
00000000
00100000
00000000
00000000
00010000
00000000
00100000
00000000
00001000
00000000
00010000
00000000
00000000
00001000
00000000
00000000
,
01000000
00000000
00000000
00100000
00000000
00000000
10000000
00000000
01000000
00000000
00100000
00000000
00010000
00000000
00000000
00100000
00000000
00000000
00001000
00000000
00000000
00010000
00000000
00000000
,
00000010
00000000
00000100
00000000
00000001
00000000
00001000
00000000
00000000
00000100
00000000
00000000
00000010
00000000
00000000
00000001
00000000
00000000
00001000
00000000
00000100
00000000
00010000
00000000
,
00001000
00000000
00000000
01000000
00000000
00000000
00100000
00000000
00000000
10000000
00000000
00000000
01000000
00000000
00100000
00000000
00001000
00000000
00020000
00000000
00000000
00000000
00000000
00000000
,
00000000
00000000
00000000
00000000
,
00000000
00002000
00000000
00000000
,
00000000
00000000
00000000
00000000
00000000
00000000
00000000
00000000
00000000
00000000
00000000
00033000
00000100
00000000
00001000
00000000
,
00000010
00010000
00001000
00100000
00010000
01000000
00200000
10300000
,
01000000
00100000
00010000
00001000
00000100
00000010
00000100
00000010
,
00000001
00000100
00000010
00001000
00000100
00010000
00000020
00000130
,
00001000
00000100
00000001
00001000
00000100
00010000
00001000
00001000
,
01000000
00100000
10000000
01000000
00100000
00001000
00020000
00030100
,
00000100
00000000
00000000
00001000
00000000
00000000
00000010
00000000
00000000
00000010
00000000
00000000
00000100
00000000
00000000
00000001
00000000
00000000
00001000
00000000
00000100
00000000
00001000
00000000
,
00000100
00010000
00001000
01000000
00001000
01000000
00001000
00010000
00100000
02000000
03100000
01000000
,
10000000
00010000
01000000
00010000
01000000
00100000
10000000
00010000
10000000
00010000
00100000
01000000
,
10000000
01000000
10000000
01000000
00100000
00010000
00100000
00010000
00100000
00001000
01000000
00001000
,
00010000
00000000
00000100
00000000
00010000
00000000
00011000
00000000
00000000
00000000
00000000
00000000
00010000
00000000
00000000
00000010
00000000
00000000
00000200
00000000
00000000
00000000
00000000
00000000
,
00000310
00000000
00011000
00000000
00001000
01000000
00200000
00000000
,
01300000
00000000
00011000
00000000
00010000
00000100
00001000
00000010
,
00000100
00000001
00000010
00000001
00001000
00000000
00000100
00000000
00000010
00000000
00000100
00000000
00001000
00000000
00000000
00000000
,
00011000
00000000
00101000
00000000
00010000
00000010
00000200
00000000
,
00000310
00000000
00011000
00000000
00001000
00100000
02000000
00000000
,
03100000
00000000
00011000
00000000
00010000
00001000
01000000
00100000
,
10000000
00000000
01000000
00100000
01000000
10000000
01000000
00100000
00010000
00000000
00001000
00000000
00010000
00000000
00000000
00000000
,
00100010
00000000
00000000
00000000
00100010
00000000
00000000
00000000
00000000
00000000
00000000
00000000
00011000
00000000
00000100
00001000
,
00000010
00000000
00000110
00000000
00000100
00000001
00000010
00000000
00000110
00000000
00000000
00000000
00000000
00000000
00000000
00000000
,
00000000
00000000
00000000
00000000
00000000
00000000
00000000
00000000
00000000
00000000
00000000
00000000
00001100
00000000
00000100
00010000
,
00001000
00000000
00011000
00000000
00001000
01000000
00100000
00000000
01100000
00000000
00000000
00000000
00000000
00000000
00000000
00000000
,
00000000
00000000
00000000
00000000
00000000
00000000
00000000
00000000
00000000
00000000
00000000
00000000
11000000
00000000
10000000
01000000
,
00100000
00000000
00110000
00000000
00100000
00001000
00010000
00000000
00011000
00000000
00010000
00000100
00001000
00000000
00001100
00000000
,
00000010
00000001
00000100
00000000
00000110
00000000
00000010
00001000
00000100
00000000
00020000
00000000
00000000
00000000
00000000
00000000
,
00000000
00032000
00000000
00000000
00000000
00000000
00000000
02000000
00000000
00000000
00000000
00000000
00000000
00000000
00000000
00000000
,
00000000
03003000
00000000
00000000
00000000
00000000
00000000
00000000
00000000
00000000
00000000
00000000
00000000
00000000
00000000
00000000
;
