#TITLE:Ghost Pulse;
#SUBTITLE:;
#ARTIST:Crayvxn;
#TITLETRANSLIT:;
#SUBTITLETRANSLIT:;
#ARTISTTRANSLIT:;
#GENRE:;
#CREDIT:;
#MUSIC:Ghost Pulse.ogg;
#BANNER:;
#BACKGROUND:;
#CDTITLE:;
#SAMPLESTART:23.449;
#SAMPLELENGTH:11.638;
#SELECTABLE:YES;
#OFFSET:2.739;
#BPMS:0.000=82.492
,20.000=164.983
,114.000=329.966
,178.000=82.492
,194.000=164.983
;
#STOPS:101.000=0.182
,102.500=0.182
,104.000=0.182
,105.500=0.182
;
#BGCHANGES:;
#FGCHANGES:;

//--------------- dance-single - Pandemonium X ----------------
#NOTES:
     dance-single:
     Pandemonium X:
     Beginner:
     6:
     0,0,0,0,0:
0000
0000
0000
0000
,
0000
0000
0000
0000
,
0000
0000
0000
0000
,
0000
0000
0000
0000
,
0000
0000
0000
0000
,
0001
0000
0000
0000
,
1000
0000
0000
0000
,
0001
0000
1000
0000
,
0001
0000
0000
0000
,
0010
0000
0000
0000
,
0100
0000
0000
0000
,
0010
0000
0010
0000
,
1001
0000
0000
0000
,
0001
0001
0001
0000
,
1000
0000
0001
0000
,
1000
1000
1000
0000
,
0001
0000
0100
0000
,
0010
0010
0010
0000
,
0100
0000
0010
0000
,
0100
0000
0010
0000
,
1000
0000
0001
0000
,
1000
0000
0010
0100
,
0000
0001
0010
0000
,
0200
0000
0000
0300
,
0020
0000
0000
0030
,
0001
0000
0000
1000
0000
0000
0001
0000
,
0000
1000
0000
0000
0001
0000
0000
0000
,
1000
0000
0110
0000
,
0000
0000
0001
0000
,
0000
0000
1000
0000
,
0000
0000
0100
0000
,
0000
0000
0010
0000
,
0000
0000
0100
0000
,
0000
0000
1000
0000
,
0000
0000
0010
0000
,
0000
0000
0100
0000
,
0000
0000
0010
0000
,
0000
0010
0000
0000
,
0000
0000
0100
0000
,
0000
0100
0000
0000
,
0000
0000
0001
0000
,
0000
0001
0000
0000
,
0000
0000
2002
0000
,
0000
0000
0000
0000
,
3003
0000
0110
0000
,
0001
0000
1000
0000
,
0000
0000
0001
0000
,
0010
0000
0100
0000
,
0010
0000
0001
0000
,
0000
0000
1000
0000
,
0000
0000
0010
0000
,
0000
0000
0100
0000
,
0000
0000
0010
0000
,
0010
0000
1000
0000
,
1000
0000
0001
0000
,
1000
0000
0220
0000
,
0000
0330
0001
1000
,
0001
0000
0100
0010
,
0100
0000
0010
1000
,
0010
0000
0100
0001
,
0100
0000
0001
0010
,
0001
0000
1000
0100
,
1000
0000
0010
0000
,
0100
0000
0001
0000
,
1000
0000
0010
0000
,
0010
0000
0100
0000
,
0100
0000
0001
0001
,
0001
0000
1000
1000
,
1000
0000
0110
0000
,
0001
0000
1001
0000
,
1000
0000
1001
0000
,
0110
0000
2002
0000
,
0000
0000
3003
0000
;

//--------------- dance-single - Pandemonium X ----------------
#NOTES:
     dance-single:
     Pandemonium X:
     Easy:
     9:
     0,0,0,0,0:
0000
0000
0000
0000
,
0000
0000
0000
0000
,
0000
0000
0000
0000
,
0000
0000
0000
0000
,
0000
0000
0000
0000
,
0001
0100
0020
0030
,
1000
0001
0020
0030
,
0001
1000
0100
1000
,
0001
1000
0020
0030
,
0100
1000
0200
0300
,
0001
0010
0002
0003
,
0100
0000
0010
0000
,
2002
0000
0000
3003
,
0110
0000
0001
0010
0001
0000
0000
0010
,
0100
0100
1100
0000
,
1001
0000
1000
0010
1000
0000
0000
0001
,
1000
1000
1001
0000
,
0101
0000
0001
0100
0010
0000
0000
0000
,
1100
0000
1000
0010
0100
0000
0000
0000
,
0002
0003
2000
3000
,
0200
0300
0020
0030
,
0001
1000
0010
0001
,
0010
1000
0100
0010
,
0100
0000
0000
0100
0000
0000
0100
0000
,
0010
0000
0000
0010
0000
0000
0010
0000
,
0000
0001
1000
0000
0001
1000
0000
0001
,
0010
0000
0001
0010
0100
0000
0010
0000
,
0001
1000
0110
0000
,
0000
0000
0001
0000
,
0000
0000
1000
0000
,
0000
0000
0100
0000
,
0000
0000
0010
0000
,
0100
0000
1000
0000
,
0000
0000
0010
0000
,
0000
0000
0100
0000
,
0000
0000
0010
0000
,
0000
0000
1010
0000
,
0000
0000
0000
0000
,
0000
0000
0101
0000
,
0000
0000
0000
0000
,
0000
0000
0011
0000
,
0000
0000
1100
0000
,
0000
0000
2002
0000
,
0000
0000
0000
0000
,
0003
0000
0000
0000
0000
0000
0000
0000
3001
0000
0000
0001
0000
0000
0001
0000
,
1000
0000
0000
1000
0000
1000
0000
0000
0001
0000
0000
1000
0000
0000
0000
0000
,
0000
0000
0000
0000
0000
0000
0000
0000
0010
0000
0000
0100
0000
0000
0010
0000
,
0100
0000
0000
0010
0000
0010
0000
0000
0100
0000
0000
0010
0000
1000
0000
0000
,
0001
0000
1000
0100
,
0010
0100
1000
0001
,
0010
0100
0010
0001
,
1000
0010
0001
0010
,
0100
0001
1001
0001
,
0101
0100
0110
0010
,
1010
1000
0012
0103
,
2010
3100
2002
0000
,
0000
3003
0001
0100
,
0010
1000
0001
0010
,
0100
0010
0001
1000
,
0010
1000
0100
0010
,
0100
1000
0100
1000
,
0010
0100
0001
0010
,
0001
0100
0002
0003
,
2000
3000
0020
0030
,
0200
0300
1001
0001
,
0010
0001
0010
0100
,
1000
0100
1000
1000
,
0001
0100
0001
0001
,
0100
0010
1001
0010
,
0100
0010
1001
0100
,
0010
0100
2001
3010
,
1002
0013
0220
0000
,
0000
0000
0330
0000
;

//--------------- dance-single - Pandemonium X ----------------
#NOTES:
     dance-single:
     Pandemonium X:
     Medium:
     12:
     0,0,0,0,0:
0000
0000
0000
0000
,
0000
0000
0000
0000
,
0000
0000
0000
0000
,
0000
0000
0000
0000
,
0000
0000
0000
0000
,
0001
0000
0000
0001
0000
0000
0001
0000
0000
0000
1000
0000
0001
0000
0000
0000
,
1000
0000
0000
1000
0000
0000
1000
0000
0000
0000
0001
0000
1000
0000
0000
0000
,
0010
0000
0000
0010
0000
0000
0010
0000
0100
0000
0000
0100
0000
0000
0100
0000
,
0010
0000
0000
1000
0000
0000
0001
0000
0000
0000
0010
0000
0001
0000
1000
0000
,
0010
1000
0001
0000
0010
0100
1000
0000
,
0001
0010
0100
0000
0010
0001
0100
0000
,
0010
0000
0000
0100
0000
0000
0001
0000
1000
0000
0000
0100
0000
0100
0000
0000
,
0022
0000
0000
0033
,
1100
0000
0000
0000
1000
0001
1000
0001
1000
0000
0000
0000
0000
0000
0010
0000
,
0100
0000
0000
0001
0000
0000
1000
0000
1100
0000
0000
0100
0000
0000
0010
0000
,
0001
0000
0000
0000
0100
0010
0100
0010
0100
0000
0000
0000
0000
0000
0010
0000
,
1000
0000
0000
1000
0000
0000
1000
0000
0000
0000
0001
0000
0010
0000
0100
0000
,
0010
0000
0000
0000
0001
0100
0001
0100
0001
0000
0000
0000
0000
0000
0100
0000
,
0110
0000
0000
0000
0010
1000
0010
1000
0010
0000
0000
0000
0000
0000
1000
0000
,
0001
0000
0000
0010
0000
0000
0100
0000
0010
0000
0000
0100
0000
0100
0000
0000
,
0010
0000
0000
0001
0000
0000
1000
0000
0000
0000
0010
0000
1000
0000
1000
0000
,
0001
0100
0010
1000
0001
0100
0010
1001
,
0000
1000
0100
0010
0001
1000
0100
1001
,
0001
0000
0100
0020
0000
0130
0002
0000
,
2003
0000
3010
0200
0000
0310
2000
0000
,
3001
0001
0100
0010
0010
1000
0100
0100
,
0010
0001
0001
1000
0001
0000
0100
0000
,
0010
1000
0100
0000
1001
0000
0000
0000
,
0000
0000
0000
0001
,
0100
0001
0000
0100
,
0010
0100
0000
0010
,
1000
0010
0000
1000
,
0001
1000
0000
0001
,
0010
0001
0000
0010
,
0100
0010
0000
0100
,
1000
0100
0000
1000
,
0001
1000
1001
0000
,
1000
0010
0000
0100
,
0001
0000
0011
0000
,
0010
0000
0000
0100
0000
0000
0010
0000
,
0001
0100
0000
0010
,
1000
0001
0000
0010
,
0100
1000
0002
0000
,
0000
0000
0000
0000
,
1000
0000
0000
0000
0000
0000
0000
0000
0103
0000
0000
0010
0000
0000
0100
0000
,
0001
0000
0000
1000
0000
0100
0000
0010
0100
0000
0000
0100
0000
0000
0000
0000
,
0000
0000
0000
0000
0000
0000
0010
0100
1000
0000
0000
0100
0000
0000
1000
0000
,
0010
0000
0000
0100
0000
0001
0000
0010
0100
0000
0000
0010
0000
0001
0000
0100
,
0001
0000
0000
0000
1000
0100
0010
0000
,
0100
0000
1100
0000
1000
0010
0100
0000
,
0001
0000
0011
0000
0001
0100
0010
0000
,
1000
0000
1010
0000
1000
0001
0010
0000
,
0001
0000
0000
0000
0101
0000
0000
0000
0001
0000
0000
0001
0000
0000
0001
0000
,
1000
0000
0000
1000
0000
0000
1000
0000
0010
0000
0000
0010
0000
0000
0010
0000
,
0100
0000
0000
0100
0000
0000
0100
0000
0010
0000
0000
1000
0000
0000
0001
0000
,
0010
0000
0000
0100
0000
0000
0010
0000
0002
0000
0000
0000
0000
0000
0000
0000
,
0000
0000
0000
0000
0000
0000
0000
0000
0103
0000
0010
0000
1000
0000
0000
0001
,
0000
1000
0000
0100
0000
0000
0000
0000
0010
0000
0100
0000
1000
0000
0000
0100
,
0000
1000
0000
0001
0000
0000
0000
0000
0100
0000
0010
0000
1000
0000
0000
0001
,
0000
0010
0000
0001
0000
0000
0000
0000
0100
0000
0001
0000
1000
0000
0000
0100
,
0000
1000
0000
0100
0000
0000
0000
0000
0010
0000
0100
0000
1000
0000
0000
0010
,
0000
0010
0000
0100
0000
0000
0000
0000
0010
0000
0100
0000
0001
0000
0000
0100
,
0000
0100
0000
0010
0000
0000
1000
0000
0001
0000
0000
0001
0000
0000
0001
0000
,
1000
0000
0000
1000
0000
0000
1000
0000
0010
0000
0000
0010
0000
0000
0010
0000
,
0100
0000
0010
0000
1001
0000
0000
0000
0001
0000
0000
0001
0000
0000
0001
0000
,
1000
0000
0000
1000
0000
0000
1000
0000
0010
0000
0000
0010
0000
0000
0010
0000
,
0100
0000
0000
0100
0000
0000
0100
0000
0010
0000
1000
0000
0001
0010
0000
0001
,
0000
0010
0001
0000
1000
0000
0000
0000
0001
0000
1000
0000
0010
1000
0000
0010
,
0000
1000
0010
0000
0100
0000
0001
0000
1000
0000
0000
1000
0000
0000
1000
0000
,
0000
1000
0000
0000
0001
0000
1000
0000
0001
0000
0000
0001
0000
0000
0001
0000
,
0000
0001
0000
0000
0001
0000
1000
0000
0010
0000
0100
0000
0001
0010
0000
0100
,
0000
0100
1000
0000
0100
0000
0010
0000
0002
0000
0000
0000
0000
0000
0000
0000
,
0000
0000
1003
0000
;

//--------------- dance-single - Pandemonium X ----------------
#NOTES:
     dance-single:
     Pandemonium X:
     Hard:
     15:
     0,0,0,0,0:
0000
0000
0000
0000
,
0000
0000
0000
0000
,
0000
0000
0000
0000
,
0000
0000
0000
0000
,
0000
0000
0000
0000
,
0001
0000
0000
0010
0000
0000
0100
0000
0000
0000
0010
0000
0001
0000
1000
0001
,
1000
0000
0000
0100
0000
0000
0010
0000
0000
0000
0100
0000
0010
0000
0001
1000
,
0001
0000
0000
0010
0000
0000
0100
0000
1000
0000
0000
0100
0000
0000
0010
0000
,
0001
0000
0000
0010
0000
0000
0100
0000
0000
0000
0010
0000
0001
0000
0100
0010
,
1000
0000
0000
0010
0000
0000
0110
0000
0000
0000
0100
0000
0001
0000
1000
0100
,
1000
0000
0000
0010
0000
0000
1001
0000
0000
0000
1000
0000
0001
0000
0010
0100
,
1000
0000
0000
0001
0000
0000
0100
0000
0001
0000
0000
1000
0000
1000
0000
0000
,
0200
0000
0000
0300
,
1001
0000
0000
0000
0001
0100
0010
1000
0001
0000
0000
0000
1000
0000
0100
0000
,
1001
0000
0000
0000
0001
0000
0100
0000
1010
0000
0000
0110
0000
0000
1000
0001
,
1000
0000
0000
0000
0001
0010
0100
1000
0010
0000
0000
0100
0000
0000
0001
1000
,
0001
0000
0000
1000
0000
0000
1000
0001
1000
0000
1000
0000
0001
0000
1000
0010
,
0100
0000
0000
0000
0001
0100
0010
1000
0100
0000
0000
0000
0010
0000
0100
0000
,
1000
0000
0000
0000
1000
0100
0010
0001
0100
0000
0010
0000
1000
0000
0001
0010
,
0001
0000
0000
0010
0000
0000
0001
0000
0100
0000
0000
0010
0000
0010
0000
0000
,
0100
0000
0000
0010
0000
0000
1000
0000
0000
1000
0001
0000
1000
0100
0010
0100
,
1000
0001
1000
0000
0001
0100
0000
0100
0010
0000
0010
1000
0000
1000
0100
0010
,
0000
0100
0010
0000
0010
0001
0000
0001
0100
0000
0100
0010
0000
0010
0100
0001
,
1000
0000
0001
0010
0000
0010
1000
0000
,
1001
0000
1000
0100
0000
0100
0001
0000
,
1000
0100
0001
0001
0100
1000
1000
0010
,
0001
0001
0010
1000
0001
0000
1000
0000
,
0010
0100
2002
0000
,
0000
3003
0001
0100
,
0010
1000
0000
0001
,
0010
0100
0000
0010
,
0001
1000
0000
0100
,
1000
0010
0100
0001
,
0010
0100
0000
0010
,
0001
1000
0010
0000
,
0110
0000
0100
0000
0000
0000
0000
0010
,
0000
0010
0100
0000
0001
0000
0000
0000
,
1000
1020
0000
0130
,
0101
0000
1001
0000
,
0001
0000
0000
2100
0000
0000
3001
0000
,
1001
0000
1000
0010
1000
0000
0000
0000
,
0001
0012
0000
0100
,
0100
0103
2002
0000
,
0000
0000
0000
3000
,
0100
0000
0000
0000
0000
0000
0000
0000
1003
0000
0000
0100
0000
0000
1000
0000
,
0010
0000
0000
0100
0000
0001
0000
0010
0100
0000
0000
0010
0000
0000
0000
0000
,
0000
0000
0000
0000
0000
0000
0100
1000
0010
0000
0000
0100
0000
0000
0001
0000
,
0010
0000
0000
0100
0000
0010
0000
0001
0100
0000
0000
0010
0000
1000
0000
1000
,
0001
0000
0000
0000
1000
0001
0100
0001
,
1000
0001
0010
0000
0100
0010
0001
0100
,
0010
1000
0100
0000
1000
0100
0001
0100
,
0010
0001
0100
0000
0001
0100
1000
0100
,
0010
0000
1000
0000
0001
0000
0000
0000
1010
0000
0000
0101
0000
0000
0001
0000
,
0011
0000
0000
0110
0000
0100
0000
0100
1000
0000
0000
0011
0000
1000
0001
0000
,
0100
0010
0000
1000
0001
0000
0100
0000
0001
1000
0001
1000
0001
1000
0001
1000
,
0001
1000
0001
1000
0001
1000
0001
1000
0001
0000
1000
0000
0001
0100
0000
0001
,
1000
0100
0010
0100
0010
0000
0010
0000
0001
0000
0010
0001
0000
0100
0000
0001
,
0000
1000
0000
0001
0000
1000
0100
0000
1000
0000
0010
0100
0000
0010
0000
1000
,
0000
0001
0010
0000
0100
0000
0010
0001
1000
0000
0100
0000
1000
0010
0000
0100
,
0000
0001
0000
0100
0000
0010
1000
0000
0001
0000
0010
0000
0100
0010
0000
0001
,
0000
0010
0100
0000
0010
0001
1000
0001
1000
0000
0100
0000
0010
0001
0000
0100
,
0000
1000
0100
0000
0010
0000
1000
0000
0001
0000
1000
0000
0001
0010
0000
1000
,
0000
0010
0100
0000
1000
0000
0001
0000
1001
0000
0000
1000
0000
1000
0001
0000
,
1001
0000
0000
0001
0000
0001
1000
0000
1001
0000
0000
0001
0000
0100
0010
0000
,
1000
0000
1000
0000
0001
0000
0001
0000
0010
0000
0100
0010
0000
0010
0001
0000
,
1000
0000
0100
0010
0000
0010
0100
0000
0010
0000
0001
1000
0000
1000
0010
0000
,
0100
0000
0001
0010
0000
0010
0001
0000
1000
0000
0010
0000
0100
1000
0000
0100
,
0000
0010
1000
0000
0001
0000
0010
0000
0100
0000
0100
0000
0010
0001
0000
0010
,
0000
1000
0010
0000
0100
0000
0010
0001
2000
0000
0000
0010
0000
0000
0001
0000
,
0000
3100
0000
0000
1000
0001
1000
0001
0020
0000
0000
0100
0000
0000
0001
0000
,
0000
0130
0000
0000
0010
0001
0010
0001
1000
0000
0001
0000
0100
0010
0000
1000
,
0000
0001
0010
0000
1000
0000
0010
0000
0200
0000
0000
0000
0000
0000
0000
0000
,
0000
0000
0310
0000
;

//--------------- dance-single - VirtualSelf@Wish.com ----------------
#NOTES:
     dance-single:
     VirtualSelf@Wish.com:
     Challenge:
     17:
     0,0,0,0,0:
0000
0000
0000
0000
,
0000
0000
0000
0000
,
0000
0000
0000
0000
,
0000
0000
0000
0000
,
0000
0000
0000
0000
,
0101
0000
0001
0100
0000
0010
1000
0000
0001
1000
0010
0000
0101
0000
1010
0000
,
1001
0000
1000
0010
0000
0100
0001
0000
0010
0100
1000
0000
1100
0000
0011
0000
,
1001
0000
0001
0100
0000
0010
1000
0000
1100
0000
0100
0010
0000
0100
1000
0000
,
0011
0000
0010
0001
0000
0010
0100
0000
0010
0001
0100
0000
0010
0000
1000
0001
,
1000
0010
1000
0010
1000
0001
1000
0001
0010
0001
0010
0001
1000
0100
1000
0010
,
0100
0001
0100
0010
1000
0001
1000
0001
0010
0001
0010
0001
0100
0001
0100
0001
,
0100
0010
1000
0010
0100
0010
1000
0001
1000
0100
1000
0001
1000
0001
0100
0001
,
0010
0000
0000
0010
0000
0000
0010
0000
0000
0100
1000
0000
0001
1000
0001
1000
,
1001
0000
0000
0000
0000
0000
0001
0010
0001
0010
0001
0010
0001
0000
0000
0000
0000
0000
0010
0000
0000
0100
0000
0000
,
1100
0000
1000
0001
0000
0001
0010
0000
1001
0000
0001
0000
0001
0000
1000
0100
,
0010
0000
0000
0000
0000
0000
0000
0000
0000
0000
0000
0000
1000
0000
0100
0000
1000
0000
0100
0000
1000
0000
0100
0000
1000
0000
0000
0000
0000
0000
0100
0000
0000
0010
0000
0000
0000
0000
0000
0010
0000
0000
0001
0000
0000
1000
0000
0000
,
0001
0000
0001
0100
0000
0100
0010
1000
0100
0000
0010
0000
0100
0000
1000
0001
,
1001
0000
0000
0000
0000
0000
0000
0000
0000
0000
0000
0000
1000
0000
0100
0000
1000
0000
0100
0000
1000
0000
0100
0000
1000
0000
0000
0000
0000
0000
0000
0000
0000
0000
0000
0000
0001
0000
0000
0000
0000
0000
0100
0000
0000
0001
0000
0000
,
1000
0000
0000
0000
0000
0000
0000
0000
0000
0000
0000
0000
0010
0000
0100
0000
0010
0000
0100
0000
0010
0000
0100
0000
0010
0000
0000
0000
0000
0000
1000
0000
0000
0000
0000
0000
1000
0000
0000
0000
0000
0000
0001
0000
0000
0010
0000
0000
,
0200
0000
0000
1000
0000
0000
1300
0000
2000
0000
0000
0010
0000
3010
0000
0000
,
0020
0000
0000
0100
0000
0000
0130
0000
0000
0001
1000
0000
0001
0010
0100
0010
,
0001
1000
0010
1000
0001
0010
0001
1000
0010
1000
0001
0010
0001
1000
0001
1000
,
0000
0001
1000
0100
1000
0001
1000
0100
1000
0001
0100
0001
1000
0100
1000
0001
,
1000
0000
0001
0010
0100
0000
0110
0000
0100
1000
0010
0000
0110
0000
0100
0001
,
0010
0000
0000
0000
0000
0000
0100
0000
0000
0010
0000
0000
0001
0000
0000
0000
0000
0000
0011
0000
0000
0000
0000
0000
0001
0000
0000
0010
0000
0000
0100
0000
0000
0000
0000
0000
1100
0000
0000
0000
0000
0000
1000
0000
0001
0000
1000
0000
,
0001
1000
1100
1000
0010
0101
0010
1000
,
1001
0000
1000
0000
0100
0000
0011
0000
0010
0000
0100
0000
1000
0000
0001
0010
,
0000
0000
0000
1000
0000
0000
0010
0000
0000
0000
0000
0000
0100
0000
0000
0000
0000
0000
0001
0000
1000
0000
0001
0000
2000
0000
0000
0000
0000
0000
0000
0000
0000
0000
0000
0000
0000
0000
0000
0000
0000
0000
0000
0000
0000
0000
0000
0000
,
0000
0000
0000
0000
3001
0010
0100
0000
,
1100
0000
0011
0000
1000
0100
0010
0000
,
0110
0000
1100
0000
1000
0010
0100
0000
,
0110
0000
0101
0000
0001
1000
0010
0000
,
1010
0000
0101
0000
0011
0010
0100
0000
,
1100
0000
1010
0000
1001
0001
0010
0000
,
0011
0000
1100
0000
1001
1000
0010
0000
,
1010
0000
1100
0000
1001
0000
0000
1010
,
0000
0001
0100
0000
0120
0000
0000
0030
,
1000
0102
0000
0013
,
0011
0000
1001
0000
,
0001
0000
0000
1020
0000
0000
0130
0000
,
0110
0000
0010
0100
0001
0000
0000
0000
,
1002
0203
0000
0310
,
1001
0110
1001
1000
,
0100
0010
0000
1000
,
0100
0000
0000
0000
0010
0000
0000
0000
1001
0000
0000
0001
0000
0000
0100
0000
,
0010
0000
0000
1000
0000
1000
0000
0001
0010
0000
0000
0100
0000
0000
0000
0000
,
0000
0000
0000
0000
0000
0000
0010
0001
0100
0000
0000
1000
0000
0000
0100
0000
,
0010
0000
0000
1000
0000
0001
0000
0010
1000
0000
0000
0010
0000
0001
0000
1000
,
0001
0000
0000
0000
0000
0000
0000
0000
1000
0010
1000
0000
0001
0100
0001
0000
,
0010
0100
0010
0000
0100
1000
0100
0000
1000
0010
1000
0000
0001
0100
0001
0000
,
0010
0001
0010
0000
0100
1000
0100
0000
1000
0001
1000
0000
0001
0100
0001
0000
,
0100
0010
0100
0000
0010
1000
0010
0000
1000
0001
1000
0000
0001
0010
0001
0000
,
1000
0100
1000
0000
0100
0010
0100
0000
1200
0000
0000
0310
0000
0000
0100
1000
,
1002
0000
0000
0103
0000
0000
0010
0100
0201
0000
0000
0310
0000
0000
0100
0010
,
1020
0000
0000
0130
0000
0100
0000
0001
1000
0010
0100
0001
0010
0001
0100
0010
,
1000
0000
0000
0010
0000
0000
0100
0000
0000
0010
0000
0000
1000
0000
0000
0001
0000
0000
0010
0000
0000
0100
0000
0000
1000
0000
0000
0000
0000
0000
0001
0000
0000
0010
0000
0000
0000
0000
0000
0010
0000
0000
0001
0000
1000
0000
0001
0000
,
1000
0000
0000
0000
0001
0010
0100
1000
0001
0000
0010
0100
0000
1000
0000
0100
,
0000
0001
0000
0100
0000
0010
0100
1000
0001
0000
0100
1000
0000
0100
0000
0001
,
0000
0100
0000
0100
0010
1000
0001
0010
0001
0000
0010
1000
0000
0010
0000
0001
,
0000
1000
0001
0000
1000
0100
0010
0100
1000
0000
1000
0010
0000
0001
0000
0010
,
0000
0100
0000
0001
0010
0100
0010
0001
1000
0000
0001
0200
0000
0001
0000
0010
,
0000
0001
0000
0310
0000
0010
0100
0010
1000
0000
1000
0100
0000
0020
0000
0000
,
0001
0000
0000
0130
0000
0100
1000
0001
1000
0000
0001
0010
0000
0010
1000
0000
,
1001
0000
1000
0010
0000
0010
0001
0000
1001
0000
0001
0010
0000
0010
1000
0000
,
1001
0000
0101
0000
0001
0100
0010
1000
0001
0000
1000
0100
0000
1000
0100
0000
,
1001
0000
0001
0100
0000
0001
0100
0000
1001
0000
1000
0010
0000
1000
0010
0000
,
0101
0000
0001
0010
0000
0001
0010
0000
0100
0000
1100
0000
1000
0010
0000
0001
,
0000
0010
0100
0000
1001
0000
1010
0000
0101
0000
0100
0000
0001
0010
0000
1000
,
0000
0010
0001
0000
0011
0000
1100
0000
1000
0010
0100
0010
1000
0010
0100
0010
,
1000
0000
0000
0010
0000
0000
0100
0000
0000
0010
0000
0000
1000
0000
0000
0001
0000
0000
1000
0000
0001
0000
1000
0000
0001
0000
0000
0010
0000
0000
0001
0000
0000
0100
0000
0000
0001
0000
0000
0010
0000
0000
0001
0000
0000
0100
0000
0000
,
0001
0010
0001
0100
0001
0000
1000
0000
0001
0000
1000
0000
0010
0000
1000
0000
,
0001
0000
0000
0010
0000
0000
0100
0000
0000
1000
0000
0000
0010
0000
0100
0000
0010
0000
0100
0000
0010
0000
0000
0000
2002
0000
0000
0000
0000
0000
0000
0000
0000
0000
0000
0000
0000
0000
0000
0000
0000
0000
0000
0000
0000
0000
0000
0000
,
0000
0000
0000
0000
0000
0000
0000
0000
0000
0000
0000
0000
0000
0000
0000
0000
0000
0000
0000
0000
0000
0000
0000
0000
0000
0000
0000
0000
0000
0000
0000
0000
0000
0000
0000
0000
0000
0000
0000
0000
0000
0000
0000
0000
0000
0000
0000
0000
0000
0000
0000
0000
0000
0000
0000
0000
0000
0000
0000
0000
0000
0000
0000
0000
0000
0000
0000
0000
0000
0000
0000
0000
0000
0000
0000
0000
0000
0000
0000
0000
0000
0000
0000
0000
0000
0000
0000
0000
0000
0000
0000
0000
0000
0000
0000
3003
1001
0000
0000
0000
0000
0000
0000
0000
0000
0000
0000
0000
0000
0000
0000
0000
0000
0000
0000
0000
0000
0000
0000
0000
0000
0000
0000
0000
0000
0000
0000
0000
0000
0000
0000
0000
0000
0000
0000
0000
0000
0000
0000
0000
0000
0000
0000
0000
0000
0000
0000
0000
0000
0000
0000
0000
0000
0000
0000
0000
0000
0000
0000
0000
0000
0000
0000
0000
0000
0000
0000
0000
0000
0000
0000
0000
0000
0000
0000
0000
0000
0000
0000
0000
0000
0000
0000
0000
0000
0000
0000
0000
0000
0000
0000
0000
;

//--------------- dance-double - Pandemonium X ----------------
#NOTES:
     dance-double:
     Pandemonium X:
     Easy:
     7:
     0,0,0,0,0:
00000000
00000000
00000000
00000000
,
00000000
00000000
00000000
00000000
,
00000000
00000000
00000000
00000000
,
00000000
00000000
00000000
00000000
,
00000000
00000000
00000000
00000000
,
00001000
00010000
00000100
00000000
,
00001000
00000010
00000100
00000000
,
00000001
00000100
00001000
00000100
,
00000001
00001000
00000100
00010000
,
00001000
01000000
00100000
00000000
,
01000000
00010000
10000000
00000000
,
01000000
00000000
10000000
00000000
,
00210000
00000000
00301000
00011000
,
00010000
00000000
00000100
00001000
00000100
00000000
00000000
00000000
,
00001000
00000010
00000101
00000000
,
00000001
00000000
00000010
00000100
00000010
00000000
00000000
00000000
,
00000100
00010000
00011000
00000000
,
00001000
00000000
01000000
00100000
01000000
00000000
00000000
00000000
,
00100000
00000000
10000000
00010000
10000000
00000000
00000000
00000000
,
00010000
00000000
00100000
00000000
,
01000000
00000000
10000000
00000000
,
00010000
00100000
00001000
00010000
,
00000010
00000100
00000001
00000010
,
00000200
00000000
00000000
00010300
00000000
00000000
00001000
00000000
,
02000000
00000000
00000000
03100000
00000000
00000000
10010000
00000000
,
10000000
00000000
00000000
01000000
00000000
00000000
00100000
00000000
,
00000000
00010000
00000000
00000000
00100000
00000000
00000000
00001000
,
00000000
00010000
00022000
00000000
,
00000000
00033000
00010000
00000000
,
00000000
00000000
00000100
00000000
,
00000000
00000000
00010000
00000000
,
00000000
00000000
00001000
00000000
,
00000000
00000000
01000000
00000000
,
00000000
00000000
00100000
00000000
,
00000000
00000000
10000000
00000000
,
00000000
00000000
00010000
00000000
,
00100000
00000000
01000000
00000000
,
00000000
00100000
00000000
00000000
,
00000000
00000000
00001000
00000000
,
00000000
00010000
00000000
00000000
,
00000000
00000000
00000100
00000000
,
00000000
00000000
00001000
00000000
,
00000000
00000000
00000120
00000000
,
00000000
00000000
00000000
00000000
,
00000130
00000000
00001001
00000000
,
00000001
00000000
00000100
00000000
,
00000000
00000000
00001000
00000000
,
00010000
00000000
00100000
10000000
,
00010000
00000000
10000000
00000000
,
01000000
00000000
00100000
00000000
,
00001000
00000000
00010000
00000000
,
00000100
00000000
00001000
00000000
,
00000010
00000000
00000110
00000000
,
00000100
00000000
00001001
00000000
,
00000001
00000000
00001100
00000000
,
00010100
00000000
00022000
00000000
,
00033000
00000000
00001000
01000000
,
00100000
00000000
01000000
00010000
,
10000000
00000000
01000000
00100000
,
00010000
00000000
00100000
00001000
,
00010000
00000010
00000100
00000001
,
00000010
00000000
00000100
00010000
,
00001000
00000000
00101000
00000000
,
00110000
00000000
11000000
00000000
,
10010000
00000000
00010000
00010000
,
01000000
01000000
00001000
00001000
,
00010000
00010000
00000100
00001000
,
00000010
00000100
00000001
00000010
,
00000100
00001000
00000100
00000100
,
00000100
00000100
00010000
00010000
,
00010000
00010000
00001000
01000000
,
00100000
10000000
01000000
00000000
,
00000000
00000000
00011000
00000000
;

//--------------- dance-double - Pandemonium X ----------------
#NOTES:
     dance-double:
     Pandemonium X:
     Medium:
     12:
     0,0,0,0,0:
00000000
00000000
00000000
00000000
,
00000000
00000000
00000000
00000000
,
00000000
00000000
00000000
00000000
,
00000000
00000000
00000000
00000000
,
00000000
00000000
00000000
00000000
,
00001000
00000000
00000000
00001000
00000000
00000000
00001000
00000000
00000000
00000000
00010000
00000000
00000100
00000000
00000000
00000000
,
00001000
00000000
00000000
00001000
00000000
00000000
00001000
00000000
00000000
00000000
00000010
00000000
00000100
00000000
00000001
00000000
,
00000010
00000000
00000000
00000010
00000000
00000000
00000010
00000000
00000100
00000000
00000000
00000100
00000000
00000000
00000100
00000000
,
00010000
00000000
00000000
00010000
00000000
00000000
00010000
00000000
00000000
00000000
00001000
00000000
01000000
00000000
00100000
00000000
,
10000000
00000000
00000000
00010000
00000000
00000000
00200000
00000000
00300000
00000000
01000000
00000000
00001000
00000000
00010000
00000000
,
00000100
00000000
00000000
00001000
00000000
00000000
00000020
00000000
00000030
00000000
00000100
00000000
00000001
00000000
00001000
00000000
,
00000200
00000000
00000000
00010300
00000000
00000000
00001000
00000000
00020000
00000000
00000000
00030100
00000000
00010000
00000000
00000000
,
00022000
00000000
00030000
00003000
,
01001000
00000000
01000000
00100000
10010000
00000000
10000000
10000000
,
10010000
00000000
00000000
00000000
00100000
00000000
00001000
00000000
00011000
00000000
00000000
00010000
00000000
00000000
00010000
00000000
,
00010100
00000000
00000100
00001000
00001010
00000000
00000010
00000100
,
00000001
00000000
00000000
00001000
00000000
00000000
00000010
00000000
00000000
00000000
00000100
00000000
00001000
00000000
00000100
00000000
,
00000001
00000000
00000100
00000010
00001001
00000000
00000100
00000100
,
00001100
00000000
00010000
00001000
00011000
00000000
00001000
01000000
,
00100000
00000000
00000000
10000000
00000000
00000000
01000000
00000000
00100000
00000000
00000000
00010000
00000000
00010000
00000000
00000000
,
00100000
00000000
00000000
00001000
00000000
00000000
00010000
00000000
00000000
00000100
00001000
00000000
00000010
00000000
00000100
00000000
,
00000000
00000001
00000000
00000000
00000100
00000000
00000000
00000010
00000000
00000000
00001000
00000000
00000000
00000100
00000000
00000000
,
00000000
00010000
00000000
00000000
00001000
00000000
00000000
01000000
00000000
00000000
00100000
00000000
00000000
10000000
00000000
00000000
,
02000000
00000000
03100000
00020000
00000000
10030000
10010000
00000000
,
02010000
00000000
03001000
00020000
00000000
00030100
00010100
00010000
,
00001000
00001000
01000000
00100000
00100000
10000000
01000000
01000000
,
00100000
00010000
00010000
10000000
01000000
00000000
00100000
00010000
,
00000000
00010000
00001000
00000000
00022000
00000000
00000000
00000000
,
00000000
00033000
00000100
00001000
,
00000010
00001000
00000000
00000001
,
00000100
00000001
00000000
00000100
,
00000010
00001000
00000000
00000100
,
00010000
00001000
00010000
00001000
,
01000000
00010000
00000000
00100000
,
01000000
00100000
00000000
01000000
,
10000000
00000000
01000000
00000000
00100000
00000000
00000000
00100000
,
00000000
00100000
10010000
00000000
,
00100000
00002000
00000000
00013000
,
00011000
00000000
00010100
00000000
,
00000100
00000000
00000000
00002000
00000000
00000000
00003001
00000000
,
00001001
00001000
00001001
00000001
,
00000100
00000010
00000000
00001000
,
00000100
00010000
00001000
01000000
,
00100000
10000000
00000000
01000000
,
00001000
00000000
00000000
00000000
00010000
00000000
00000000
00000000
00010100
00000000
00000000
00000100
00000000
00000000
00000100
00000000
,
00010000
00000000
00000000
00001000
00000000
00001000
00000000
00010000
00001000
00000000
00000000
01000000
00000000
00000000
00000000
00000000
,
00000000
00000000
00000000
00000000
00000000
00000000
00100000
01000000
00010000
00000000
00000000
10000000
00000000
00000000
00010000
00000000
,
00100000
00000000
00000000
00001000
00000000
00001000
00000000
00010000
00000100
00000000
00000000
00001000
00000000
00001000
00000000
00001000
,
00000001
00000000
00000000
00000000
00000100
00000010
00001000
00000000
,
00000100
00000000
00001100
00000000
00000100
00010000
00001000
00000000
,
01000000
00000000
01100000
00000000
01000000
00010000
10000000
00000000
,
01000000
00000000
00110000
00000000
00100000
00001000
00010000
00000000
,
00000100
00000000
00000000
00000000
00001100
00000000
00000000
00000000
00000001
00000000
00000000
00000001
00000000
00000000
00000001
00000000
,
00001000
00000000
00000000
00001000
00000000
00000000
00001000
00000000
00000100
00000000
00000000
00000100
00000000
00000000
00000100
00000000
,
00010000
00000000
00000000
00010000
00000000
00000000
00010000
00000000
00001000
00000000
00000000
01000000
00000000
00000000
00100000
00000000
,
10000000
00000000
00000000
00010000
00000000
00000000
00100000
00000000
00001000
00000000
00010000
00000000
00001000
00010000
00000000
00001000
,
00010000
00000000
00000000
00000000
00000100
00001000
00000010
00000000
,
00000100
00000000
00000001
00000000
00000010
00000100
00001000
00000000
,
00000100
00000000
00010000
00000000
00001000
01000000
00100000
00000000
,
10000000
00000000
00010000
00000000
00100000
01000000
10000000
00000000
,
01000000
00000000
00100000
00001000
00010000
00000100
00001000
00000000
,
00000010
00000000
00000100
00000000
00000001
00000010
00000100
00000000
,
00000010
00000000
00000000
00000000
00000001
00000000
00000000
00000000
00001000
00000000
00000000
00001100
00000000
00000000
00000000
00000000
,
00000100
00000000
00000000
00010100
00000000
00000000
00000000
00000000
00010000
00000000
00000000
00011000
00000000
00000000
00000000
00000000
,
00001000
00000000
00000000
01001000
00000000
00000000
01000000
00000000
00100000
00000000
00000000
00100000
00000000
00000000
00100000
00000000
,
01000000
00000000
00000000
01000000
00000000
00000000
01000000
00000000
00010000
00000000
00000000
00100000
00000000
00000000
00001000
00000000
,
00010000
00000000
00000000
00000100
00000000
00000000
00001000
00000000
00000010
00000000
00001000
00000000
00000100
00000000
00000010
00000000
,
00000001
00001000
00000001
00000000
00000001
00000010
00000100
00001000
,
00000010
00000000
00000000
00010000
00000000
00001000
00010000
00000000
00002000
00000000
00000000
02003000
00000000
00000000
03200000
00000000
,
00000000
20300000
00000000
00000000
30100000
00000000
01000000
00000000
00020000
00000000
00000000
00230000
00000000
00000000
00302000
00000000
,
00000000
00023000
00000000
00000000
00030010
00000000
00000100
00000000
00000001
00000000
00001000
00000000
00000100
00010000
00000000
00011000
,
00000000
00001000
01000000
00000000
00100000
00000000
01000000
00000000
20020000
00000000
00000000
00000000
00000000
00000000
00000000
00000000
,
00000000
00000000
30030000
00000000
;

//--------------- dance-double - Pandemonium X ----------------
#NOTES:
     dance-double:
     Pandemonium X:
     Hard:
     15:
     0,0,0,0,0:
00000000
00000000
00000000
00000000
,
00000000
00000000
00000000
00000000
,
00000000
00000000
00000000
00000000
,
00000000
00000000
00000000
00000000
,
00000000
00000000
00000000
00000000
,
00010000
00000000
00000000
00001000
00000000
00000000
00100000
00000000
00000000
00000000
01000000
00000000
10000000
00000000
00100000
00000000
,
01000000
00000000
00000000
00001000
00000000
00000000
00010000
00000000
00000000
00000000
00001000
00000000
00010000
00000000
00000010
00000000
,
00000100
00000000
00000000
00000100
00000000
00000000
00000100
00000000
00000001
00000000
00000000
00000001
00000000
00000000
00000001
00000000
,
00001000
00000000
00000000
00001000
00000000
00000000
00001000
00000000
00000000
00000000
00000100
00000000
00010000
00000000
00001000
01000000
,
00100000
00000000
00000000
01000000
00000000
00000000
10010000
00000000
00000000
00000000
10000000
00000000
01000000
00000000
00100000
00001000
,
00010000
00000000
00000000
00000100
00000000
00000000
00000110
00000000
00000000
00000000
00000010
00000000
00000001
00000000
00000100
00001000
,
00000100
00000000
00000000
00000001
00000000
00000000
00001000
00000000
00000100
00000000
00000000
00010000
00000000
00010000
00000000
00000000
,
00022000
00000000
00030000
00003000
,
00110000
00000000
00000000
00000000
01000000
10000000
00100000
01000000
00010000
00000000
00000000
00000000
00100000
00000000
00001000
00000000
,
00011000
00000000
00000000
00000000
00000100
00001000
00000010
00000100
00000001
00000000
00000000
00000001
00000000
00000000
00000010
00000100
,
00001000
00000000
00000100
00010000
00000000
00010000
00001000
00000000
00010000
00000000
00001000
01000000
00000000
01000000
00100000
00000000
,
01000000
00000000
00010000
00100000
00000000
00100000
00001000
00010000
00000000
00000000
00010000
00000000
00000100
00000000
00001000
00000010
,
00000100
00000000
00000000
00000000
00000001
00000100
00000010
00001000
00000100
00000000
00000000
00000000
00010000
00000000
00001000
00000000
,
01000000
00000000
00000000
00000000
00100000
01000000
00010000
10000000
01000000
00000000
00100000
00000000
01000000
00000000
10000000
00010000
,
00200000
00000000
00000000
00302000
00000000
00000000
00013000
00000000
00020000
00000000
00000000
00000100
00000000
00030200
00000000
00000000
,
00002300
00000000
00000000
00003010
00000000
00000000
00000200
00000000
00000000
00000301
00000010
00000000
00000010
00000001
00001000
00000100
,
00010000
00001000
01000000
00000000
01000000
00100000
00000000
00100000
10000000
00000000
10000000
00010000
00000000
00010000
00100000
00001000
,
00000000
00010000
00001000
00000000
00001000
00100000
00000000
00100000
00001000
00000000
00001000
00010000
00000000
00010000
00000010
00000100
,
00000001
00000000
00000001
00000100
00001000
00000000
00020000
00000000
00000000
00000000
00031000
00000000
00011000
00000000
00001000
00000000
,
01000000
00000000
00100000
10000000
01000000
00000000
00020000
00000000
00000000
00000000
01030000
00000000
10000000
00000000
00010000
01000000
,
00010000
00100000
00101000
00001000
00010000
00010100
00000100
00001000
,
00001010
00000010
00000100
00000101
00000110
00000000
00000100
00001000
,
00000000
00001000
00010000
00000000
00022000
00000000
00000000
00000000
,
00000000
00033000
00110000
00100000
,
01000000
10000000
00000000
01000000
,
00100000
00010000
00000000
00010000
,
00001000
00000010
00000000
00000001
,
00001000
00000010
00000000
00001000
,
00010000
01000000
00000000
00100000
,
10000000
00010000
00000000
10000000
,
01000000
00000000
00010000
00000000
00011000
00000000
00000000
00011000
,
00000000
00010000
00001000
00000000
00010200
00000000
00000000
00000000
,
00001300
00001020
00000000
00000130
,
00001001
00000000
00001020
00000000
,
00010030
00000000
00000000
00011000
00000000
00000000
02001000
00000000
,
03020000
00000000
00130000
00001000
00010000
00000000
00000100
00010000
,
00001000
00000000
00100000
00000000
00000000
00000000
01000000
10000000
,
00100000
01000000
00020000
00100000
,
00100000
00130000
00000000
00001000
,
00011000
00000000
00000000
00000000
00010000
00000000
00000000
00000000
00011000
00000000
00000000
00000010
00000000
00000000
00010000
00000000
,
00001000
00000000
00000000
00100000
00000000
00001000
00000000
00010000
00000010
00000000
00000000
00000100
00000000
00000000
00000000
00000000
,
00000000
00000000
00000000
00000000
00000000
00000000
00000010
00010000
00001000
00000000
00000000
00010000
00000000
00000000
00000100
00000000
,
00010000
00000000
00000000
00001000
00000000
00001000
00000000
00010000
00000100
00000000
00000000
00010000
00000000
00001000
00000000
00010000
,
00011000
00000000
00000000
00000000
00010000
00001000
00100000
00010000
,
01000000
00100000
10000000
00010000
00100000
00001000
00010000
00000100
,
00001000
00000010
00000100
00000001
00000010
00000100
00001000
00000100
,
00010000
00001000
01000000
00100000
10000000
01000000
00100000
00010000
,
00100000
00000000
00001000
00000000
00010000
00000000
00000100
00000000
00010100
00000000
00000000
00011000
00000000
00000000
00001000
00000000
,
01001000
00000000
00000000
01000000
00000000
01000000
00100000
00000000
10010000
00000000
00000000
11000000
00000000
00000000
10010000
00000000
,
00110000
00000000
00000000
00101000
00000000
00001000
00010000
00000000
00001000
00000000
00010000
00000010
00000000
00000010
00000100
00000000
,
00000001
00000000
00000010
00000100
00000000
00000100
00001000
00000000
00022000
00000000
00000000
00000000
00000000
00000000
00000000
00000000
,
00000000
00000000
00000000
00000000
00033000
00000000
00000000
00000000
00101000
00000000
00100000
00010000
00000000
10000000
00000000
01000000
,
00000000
00100000
00000000
00001000
00000000
00010000
00000100
00001000
00000010
00000000
00000100
00000010
00000000
00001000
00000000
00000001
,
00000000
00000100
00000000
00000010
00010000
00001000
01000000
00010000
00100000
00000000
01000000
00100000
00000000
00010000
00000000
10000000
,
00000000
01000000
00000000
00100000
00000000
01000000
10000000
00010000
00100000
00000000
00001000
00010000
00000000
00000010
00000000
00000100
,
00000000
00001000
00000000
00000100
00000000
00000010
00001000
00000100
00010000
00000000
00001000
01000000
00000000
00100000
00000000
10000000
,
00000000
00010000
00000000
00100000
00000000
00010000
00100000
00001000
00010000
00000000
00000100
00001000
00000000
00000010
00000000
00000000
,
00000100
00000000
00000000
00000100
00000000
00000100
00000010
00001000
00000001
00000000
00000000
00001100
00000000
00000100
00010000
00000000
,
00011000
00000000
00000000
00101000
00000000
00100000
00010000
01000000
00100000
00000000
00000000
01100000
00000000
10000000
00010000
00000000
,
00100000
00000000
00010000
00000000
10000000
00000000
01000000
00000000
00100000
00000000
00010000
00100000
00000000
00001000
00010000
00000000
,
00000100
00000000
00001000
00000010
00000000
00000100
00000001
00000000
00000010
00000000
00000100
00000010
00000000
00000100
00001000
00000000
,
00000100
00000000
00010000
00001000
00000000
00100000
00010000
01000000
00100000
00000000
01000000
00000000
00010000
00100000
00000000
00001000
,
00000000
00010000
00000100
00000000
00001000
00000000
00000010
00000000
00000100
00000000
00000001
00000000
00000010
00000100
00000000
00000010
,
00000000
00000001
00000100
00000000
00000010
00000000
00001000
00000100
00020000
00000000
00000000
00000100
00000000
00000000
00001000
00000000
,
00000000
00000100
00000000
00000000
00030100
00000000
00011000
00000000
00002000
00000000
00000000
00100000
00000000
00000000
00010000
00000000
,
00000000
00100000
00000000
00000000
00013000
00000000
00011000
00000000
00001000
00000000
00010000
00000000
00000010
00010000
00000000
00001000
,
00000000
00100000
00001000
00000000
00010000
00000000
00001000
00000000
00020000
00000000
00000000
00000000
00000000
00000000
00000000
00000000
,
00000000
00000000
00031000
00000000
;

//--------------- dance-double - Pandemonium X ----------------
#NOTES:
     dance-double:
     Pandemonium X:
     Challenge:
     17:
     0,0,0,0,0:
00000000
00000000
00000000
00000000
,
00000000
00000000
00000000
00000000
,
00000000
00000000
00000000
00000000
,
00000000
00000000
00000000
00000000
,
00000000
00000000
00000000
00000000
,
00011000
00000000
00010000
00000100
00000000
00001000
00000020
00000000
00000000
00000000
00000130
00000000
00000001
00000000
00000010
00000100
,
00001000
00000000
00000100
00010000
00000000
00001000
00020000
00000000
00000000
00000000
00031000
00000000
01000000
00000000
00100000
10000000
,
00010000
00000000
00000000
00000000
00000000
00000000
10000000
00000000
00000000
00200000
00300000
00000000
00000000
00000000
00000000
00200000
00300000
00000000
00010000
00000000
00000000
00000000
00000000
00000000
10010000
00000000
00000000
00000000
00000000
00000000
00010000
00000000
00000000
02000000
03000000
00000000
00000000
00000000
00000000
02000000
03000000
00000000
10000000
00000000
00000000
00000000
00000000
00000000
,
10010000
00000000
10000000
00100000
00000000
01000000
00020000
00000000
00000000
00000000
00130000
00000000
01000000
00000000
10000000
00100000
,
01000000
00000000
00010000
01000000
00100000
00000000
01000000
00001000
00010000
00000000
00001000
00010000
00000100
00000000
00001000
00000010
,
00000100
00000000
00000010
00000100
00000001
00000000
00000010
00000100
00001000
00000000
00000100
00010000
00001000
00000000
00010000
00001000
,
00100000
00010000
00100000
00010000
10000000
01000000
10000000
01000000
10000000
00100000
10000000
00100000
01000000
00010000
01000000
00010000
,
00100000
00000000
00001000
00011000
,
00001100
00000000
00000000
00000000
00000000
00000000
00001000
00000010
00001000
00000010
00001000
00000010
00001000
00000000
00000000
00000000
00000000
00000000
00000001
00000000
00000000
00001000
00000000
00000000
,
00001100
00000000
00000100
00010000
00000000
00010000
00001000
00000000
00101000
00000000
00000000
01010000
00000000
00000000
00100000
10000000
,
01000000
00000000
00100000
00010000
00000000
00100000
00001000
00000000
00010000
00000000
00000100
00001000
00000000
00000100
00000010
00000000
,
00000001
00000000
00000100
00000010
00000000
00000100
00000001
00000100
00000000
00000000
00000010
00000000
00001000
00000000
00000100
00010000
,
00001000
00000000
00000000
00000000
00000000
00000000
00100000
00010000
00100000
00010000
00100000
00010000
00100000
00000000
00000000
00000000
00000000
00000000
01000000
00000000
00000000
10000000
00000000
00000000
,
10010000
00000000
00000000
00000000
00000000
00000000
00000000
00000000
00000000
00000000
00000000
00000000
10000000
00000000
00100000
00000000
10000000
00000000
00100000
00000000
10000000
00000000
00100000
00000000
10000000
00000000
00000000
00000000
00000000
00000000
01000000
00000000
00000000
00000000
00000000
00000000
10000000
00000000
00000000
00000000
00000000
00000000
00100000
00000000
00000000
01000000
00000000
00000000
,
00020000
00000000
00000000
02030000
00000000
00000000
03200000
00000000
00320000
00000000
00000000
00100000
00000000
00230000
00000000
00000000
,
02300000
00000000
00000000
03020000
00000000
00000000
20030000
00000000
00000000
30100000
01000000
00000000
01000000
00010000
00100000
00001000
,
00000000
00010000
00000100
00010000
00001000
00010000
00000100
00010000
00001000
00010000
00000100
00010000
00001000
00010000
00001000
00000000
,
00001000
01000000
00001000
00010000
00001000
01000000
00001000
00010000
00001000
01000000
00001000
00010000
00001000
01000000
00001000
00000000
,
00020000
00000000
00030100
00001000
00000010
00000000
00000200
00000000
00001300
00000100
00000001
00000000
00001000
00000000
00000100
00000000
,
00000002
00000000
00000000
00000000
00000000
00000000
00000103
00000000
00000000
00001000
00000000
00000000
00000010
00000000
00000000
00000000
00000000
00000000
00000002
00000000
00000000
00000000
00000000
00000000
00000013
00000000
00000000
00001000
00000000
00000000
00000100
00000000
00000000
00000000
00000000
00000000
00010000
00000000
00000000
00000000
00000000
00000000
00001000
00000000
00010000
00000000
00001000
00000000
,
00010000
00000100
00001100
00010000
00001000
01001000
00001000
00010000
,
00101000
00010000
00001000
00010100
00002000
00000000
00000000
02003000
,
00000000
03100000
20020000
00000000
,
00000000
00000000
30030000
00000000
10000000
01000000
00100000
00000000
,
00001000
00000000
00010000
00000000
00001000
00010000
00000100
00000000
,
00001000
00000000
00000010
00000000
00000100
00000001
00001000
00000000
,
00000100
00000000
00010000
00000000
00001000
01000000
00100000
00000000
,
10000000
00000000
01000000
00000000
00100000
00001000
00010000
00000000
,
00000100
00000000
00001000
00000000
00000010
00000100
00000001
00000000
,
00000010
00000000
00000001
00000000
00001000
00000100
00010000
00000000
,
00001000
00000000
00010000
00000000
00011000
00000000
00000000
02001000
,
00000000
03100000
10000000
00000000
11000000
00000000
00000000
00000000
,
01000000
01200000
00000000
00301000
,
00011000
00000000
00001100
00000000
,
00001010
00000000
00000000
00011000
00000000
00000000
01001000
00000000
,
01000000
00000000
00100000
10000000
01000000
00000000
00101000
00000000
,
00011000
00010100
00010000
00001100
,
00001010
00000101
00000020
00000000
,
00000000
00000000
00000000
00000000
,
00010030
00000000
00000000
00000000
00000000
00000000
00000000
00000000
00011000
00000000
00000000
00001000
00000000
00000000
01000000
00000000
,
00100000
00000000
00000000
10000000
00000000
01000000
00000000
00010000
01000000
00000000
00000000
10000000
00000000
00000000
00000000
00000000
,
00000000
00000000
00000000
00000000
00000000
00000000
00100000
01000000
00010000
00000000
00000000
00100000
00000000
00000000
00001000
00000000
,
00010000
00000000
00000000
00000010
00000000
00000100
00000000
00001000
00000100
00000000
00000000
00000001
00000000
00000010
00000000
00000100
,
00010000
00000000
00000000
00000000
00000000
00000000
00000000
00000000
00001000
01000000
00001000
00000000
01000000
00100000
01000000
00000000
,
00100000
00000000
10000000
00000000
00010000
00000000
00100000
00000000
00001000
00010000
00001000
00000000
00010000
00000100
00010000
00000000
,
00000100
00000000
00001000
00000000
00000010
00000000
00000100
00000001
00000010
00000100
00000010
00000000
00000100
00001000
00000100
00000000
,
00010000
00000000
00001000
00000000
01000000
00000000
00100000
00000000
10000000
00010000
10000000
00000000
00010000
00100000
00010000
00000000
,
00100000
00000000
00001000
00000000
00010000
00000000
00000010
00000000
00000110
00000000
00000000
00001010
00000000
00001000
00000100
00000000
,
00001100
00000000
00000000
00010100
00000000
00000100
00010000
00001000
00010000
00000000
00000000
01001000
00000000
01000000
00100000
00000000
,
10000000
01000000
00000000
00110000
00000000
11000000
00000000
10000000
00010000
01000000
00010000
00100000
00001000
00010000
00000100
00000000
,
00010000
00000000
00000000
00000010
00000000
00000000
00000100
00000000
00000000
00000010
00000000
00000000
00010000
00000000
00000000
00001000
00000000
00000000
00010000
00000000
00000000
00000000
00000000
00000000
00011000
00000000
00000000
00000000
00000000
00000000
00010000
00000000
00000000
00000000
00000000
00000000
00001000
00000000
00000000
00010000
00000000
00000000
00001000
00000000
00010000
00000000
00001000
00000000
,
00010000
00000000
00000000
00000000
00000100
00000000
00000100
00000000
00001000
00000000
00000010
00000001
00000000
00000010
00000000
00001000
,
00000000
00000100
00000000
00010000
00000000
00001000
01000000
00100000
10000000
00000000
00010000
01000000
00000000
10000000
00000000
01000000
,
00000000
00010000
00000000
00100000
00000000
01000000
10000000
00010000
00100000
00000000
00010000
00100000
00000000
10000000
00000000
00100000
,
00000000
00010000
00000000
00100000
00000000
00010000
00100000
00001000
00010000
00000000
00000100
00001000
00000000
00000010
00000000
00000001
,
00000000
00000010
00000000
00000100
00000000
00000010
00000100
00000001
00000100
00000000
00000001
00000010
00000000
00001000
00000000
00000010
,
00000000
00000001
00000000
00001000
00000000
00000100
00010000
00001000
01000000
00000000
00100000
00010000
00000000
00100000
00000000
00000000
,
10000000
00000000
00000000
00000000
00000000
00000000
00000000
00000000
00000000
00010000
00000000
00000000
00000000
00000000
00000000
10000000
00000000
00000000
00000000
00000000
00000000
01000000
00000000
00000000
00100000
00000000
00000000
00000000
00000000
00000000
00000000
00000000
00000000
00010000
00000000
00000000
00000000
00000000
00000000
00100000
00000000
00000000
00001000
00000000
00010000
00000000
00001000
00000000
,
00010000
00000000
00000000
00000000
00000000
00000000
00000100
00000000
00000000
00001000
00000000
00000000
00000000
00000000
00000000
00001000
00000000
00000000
00000010
00000000
00000100
00000000
00000010
00000000
00000100
00000000
00000000
00000000
00000000
00000000
00000001
00000000
00000000
00000010
00000000
00000000
00000000
00000000
00000000
00000010
00000000
00000000
00000100
00000000
00000000
00000000
00000000
00000000
,
00001000
00000000
00000100
00000000
00010000
00001000
00010000
00001000
00010000
00000000
00001000
01000000
00000000
01000000
00100000
00000000
,
01000000
00000000
00100000
10000000
00000000
10000000
00010000
00000000
00100000
00000000
00001000
00010000
00000000
00010000
00000100
00000000
,
00001000
00000000
00000010
00000100
00000000
00000100
00000001
00000010
00000100
00000000
00010000
00000000
00001000
01000000
00000000
00100000
,
00000000
00010000
00100000
00000000
10000000
00000000
00010000
00000000
00100000
00000000
00001000
00000000
00010000
00000010
00000000
00000100
,
00000000
00001000
00000100
00000000
00000001
00000000
00001000
00000100
00000010
00000001
00000100
00000001
00000010
00000001
00000100
00000001
,
00000010
00000001
00000100
00000001
00000010
00000100
00001000
00000100
00010000
00001000
00100000
00001000
00010000
00001000
00100000
00001000
,
00010000
00001000
00100000
00001000
00010000
00001000
01000000
00100000
10000000
00000000
01000000
00000000
00010000
01000000
00000000
10000000
,
00000000
00000000
00000000
00100000
00000000
00000000
01000000
00000000
00000000
00010000
00000000
00000000
00100000
00000000
00010000
00000000
00100000
00000000
00010000
00000000
00100000
00000000
00010000
00000000
00200000
00000000
00000000
00000000
00000000
00000000
00000000
00000000
00000000
00000000
00000000
00000000
00000000
00000000
00000000
00000000
00000000
00000000
00000000
00000000
00000000
00000000
00000000
00000000
,
00000000
00000000
00301000
00000000
;
