#TITLE:Ganymede;
#SUBTITLE:;
#ARTIST:玄武;
#TITLETRANSLIT:;
#SUBTITLETRANSLIT:;
#ARTISTTRANSLIT:GENBU;
#GENRE:;
#CREDIT:;
#MUSIC:Ganymede.ogg;
#BANNER:;
#BACKGROUND:;
#CDTITLE:;
#SAMPLESTART:46.890;
#SAMPLELENGTH:12.073;
#SELECTABLE:YES;
#OFFSET:-0.072;
#BPMS:0.000=82.000
,156.000=78.000
,158.000=75.000
,159.000=72.000
,160.000=78.000
;
#STOPS:;
#DISPLAYBPM:72.000:82.000;
#MENUCOLOR:;
#NEWMETERSYSTEM:NO;
#LISTSORT:;
#BGCHANGES:;
#FGCHANGES:;

//--------------- dance-single - Pandemonium X ----------------
#NOTES:
     dance-single:
     Pandemonium X:
     Beginner:
     2:
     0,0,0,0,0:
0000
0000
0000
0000
,
0000
0000
0000
0000
,
0000
0000
0000
0000
,
0000
0000
0000
0000
,
0001
0000
0000
0000
,
1000
0000
0000
0000
,
0001
0000
0000
0000
,
0010
0000
0000
0100
,
1000
0001
0100
0010
,
1000
0000
0010
1000
,
0100
0000
0010
0000
,
0000
0001
1000
0000
,
0010
0010
0000
0000
0000
0000
0000
0000
,
0010
0010
0000
0000
0000
0000
0000
0000
,
0010
0010
0000
0000
0000
0000
0000
0000
,
0010
0010
0000
0000
0000
0000
0000
0000
,
1001
0001
1000
0100
,
0010
0000
0100
1000
,
0001
0000
0100
0000
,
0001
0000
1000
0000
,
0010
0000
0100
0000
,
0001
0000
0000
0000
,
1000
0000
0100
0000
,
1000
0000
0000
0000
,
0000
0020
0000
0030
,
0100
0000
0000
0000
,
0001
0000
0000
0000
,
1000
0000
0000
0000
,
0100
0000
0010
0001
,
1000
0000
0001
0000
,
0100
0000
0010
1000
,
0100
0000
0010
0000
,
0001
0000
1000
0001
,
0100
0001
0010
0000
,
0100
1000
0010
0000
,
0100
0001
1000
0000
,
0001
1000
0100
0010
,
0001
0000
0000
0000
,
1000
0000
0000
0000
,
0010
0000
0100
0000
,
0001
0000
0001
0000
,
0001
0000
0001
0000
;

//--------------- dance-single - Pandemonium X ----------------
#NOTES:
     dance-single:
     Pandemonium X:
     Easy:
     8:
     0,0,0,0,0:
0000
0000
0000
0000
,
0000
0000
0000
0000
,
0000
0000
0000
0000
,
0000
0000
0000
0000
,
0001
1000
0001
1000
,
0010
0100
0010
0100
,
0001
0100
0001
0100
,
0010
0000
0000
0000
1000
0000
0000
0000
0010
0000
0000
0000
1000
0001
1000
0000
,
0000
0001
0010
0100
,
0010
0100
1000
0010
,
0100
0001
0010
0100
,
0010
0001
1000
0010
,
1001
1001
0000
0000
0000
0000
0000
0000
,
1001
1001
0000
0000
0000
0000
0000
0000
,
1001
1001
0000
0000
0000
0000
0000
0000
,
1001
1001
0000
0000
0000
0000
0000
0000
,
0101
0101
0001
0100
0010
1000
0100
0010
,
0110
0000
0110
0000
0100
0000
1000
0000
0010
0000
1000
0000
0001
0000
0010
0100
,
1100
0000
1100
0000
0100
0000
1000
0000
0010
0000
0100
0000
0001
0000
0010
0100
,
0110
0000
0110
0000
0001
0000
1000
0000
0010
1000
0010
0000
0100
0001
0010
0100
,
1000
0000
0001
0000
,
0100
0000
0000
0000
,
0010
0000
1000
0000
,
0100
0000
0000
0000
,
0000
2002
0000
3003
,
0001
0001
0001
0001
0001
0001
0001
0001
,
1000
1000
1000
1000
1000
1000
1000
1000
,
0010
0010
0010
0010
0010
0010
0010
0010
,
0100
0100
0100
0100
1000
0100
0001
1000
,
0001
0010
0001
0010
0001
0010
0001
0010
,
0100
1000
0100
1000
0100
1000
0010
0100
,
0001
1000
0001
1000
0001
1000
0010
1000
,
0001
0010
0001
0010
0100
1000
0100
0010
,
0002
0000
0000
0000
0203
0000
0000
0000
0020
0000
0000
0000
0300
0000
0130
0001
,
2000
0000
0000
0000
3200
0000
0000
0000
0020
0000
0000
0000
0300
0000
0130
1000
,
0002
2003
3020
2030
,
3200
0320
0032
0023
,
0130
1000
0010
0000
,
0100
0001
0010
0000
,
0100
0000
1000
0000
,
0001
0001
0001
0001
,
0001
0001
0001
0001
;

//--------------- dance-single - Pandemonium X ----------------
#NOTES:
     dance-single:
     Pandemonium X:
     Medium:
     13:
     0,0,0,0,0:
0000
0000
0000
0000
,
0000
0000
0000
0000
,
0000
0000
0000
0000
,
0000
0000
0000
0000
,
0001
0100
0001
1000
0100
0000
0000
0000
0010
0000
0000
0000
0100
0000
0000
0000
,
1000
0100
1000
0010
0100
0000
0000
0000
0001
0000
0000
0000
0010
0000
0000
0000
,
0100
1000
0010
1000
0001
0000
0000
0000
0010
0000
0000
0000
0001
0000
0000
0000
,
1000
0001
0010
0100
0010
0000
0000
0000
0001
0000
0000
0000
0100
0100
0100
0000
,
1001
0001
0100
0010
,
1000
0100
0010
0001
,
0100
0010
1000
0001
,
0010
0000
0000
0000
0100
0000
0000
0000
1000
0000
0000
0000
0100
1000
0010
0000
,
0101
0011
0000
0000
0000
0000
0000
0000
,
1010
0000
0000
0000
0101
0000
0000
0000
0000
0000
0000
0000
0000
0000
0000
0000
0000
0000
0000
0000
0000
0000
0000
0000
0000
0000
0000
0000
0000
0000
1000
0001
,
1000
0000
0110
0000
0000
0000
0000
0000
0000
0000
0000
0000
0000
0000
0001
0001
,
1001
0000
0000
0000
1010
0000
0000
0000
0000
0000
0101
0000
0000
0000
0101
0000
0000
0000
0101
0000
0000
0000
0001
0100
0001
0000
0100
0000
0001
0000
1000
0000
,
0100
0000
0010
0000
0100
0000
1000
0010
0100
0000
0010
0000
1000
0000
0001
0100
,
0010
0000
1000
0000
0001
0000
0010
0001
1000
0000
0100
0000
1000
0010
0100
0001
,
0010
0000
0100
0000
0010
0000
0001
0010
0100
0000
0010
0000
0001
0000
1000
0010
,
0100
0000
0000
0000
0010
0000
0000
0000
1000
0000
0000
0000
0001
0000
0010
0000
0100
0000
0100
0000
0010
0000
0010
0000
0001
1000
0001
1000
0001
1000
0001
1000
,
0001
0000
0100
0000
,
0010
1000
0100
0000
0020
0000
0000
0000
0000
0000
0000
0000
0030
0000
0000
0000
,
0000
0100
0010
0000
0000
0001
1000
0000
,
0000
0000
0000
0010
0000
0000
1000
0000
0000
0000
0000
0000
0000
0000
0000
0010
0000
0000
0100
0000
0010
0000
1000
0000
,
0001
0000
0000
0220
0000
0000
0000
0000
0000
0000
0330
0000
,
0001
0000
0001
1000
0000
1000
0100
0000
0100
0010
0000
0010
0001
0000
0001
0010
0000
0010
0100
0000
0100
1000
0000
1000
,
0010
0000
0010
0100
0000
0100
0001
0000
0001
0010
0000
0010
0100
0000
0100
1000
0000
1000
0010
0000
0010
0100
0000
0100
,
0001
0000
0001
1000
0000
1000
0001
0000
0001
1000
0000
1000
0010
0000
0010
0100
0000
0100
0001
0000
0001
0010
0000
0010
,
0100
0000
0100
0010
0000
0010
0001
0000
0001
0100
0000
0100
0010
0000
0010
1000
0000
1000
0001
0000
0001
0010
0000
0010
,
0100
0000
0010
0001
0000
0000
0100
0000
0010
1000
0000
0000
0100
0000
1000
0010
0000
0000
1000
0100
0010
0001
0000
0000
,
1000
0000
0001
0010
0000
0000
0100
0000
0010
0001
0000
0000
1000
0000
0010
0100
0000
0000
0010
0100
0001
1000
0100
0010
,
0100
0000
0010
0001
0000
0000
0100
0000
0010
1000
0000
0000
0001
0000
1000
0100
0000
0100
0010
0000
0010
0100
1000
0010
,
0100
0000
0010
1000
0000
0001
0010
0000
0100
0010
0000
0001
0010
0000
0100
1000
0000
0100
0010
0000
0010
0001
0000
0001
,
1000
0010
1000
0010
0100
0000
0010
0100
0010
0100
0001
0000
1000
0100
0010
0001
0010
0100
0010
0001
1000
0100
0010
0100
,
1000
0001
0100
0001
0010
0000
0001
1000
0100
1000
0010
0000
1000
0010
0100
0001
0010
0100
1000
0100
0010
0001
0010
0100
,
1000
0000
1000
0100
0000
0100
0010
0000
0010
0001
0000
0001
0100
0010
1000
0001
0000
1000
0001
0000
0001
0010
0000
0010
,
0100
0010
0001
1000
0000
0010
1000
0001
0010
0100
0000
0010
0001
0100
1000
0100
0001
0010
1000
0010
0001
0010
0100
1000
,
0001
0000
1000
0000
0010
0000
1000
0000
0001
0000
0010
0000
0001
0000
1000
0100
,
0010
0000
0100
0000
1000
0000
0010
0000
0001
0000
0010
0000
0100
0000
0001
0010
,
0100
1000
0100
0010
0100
1000
0001
0100
,
0010
1000
0001
1000
0001
1000
0001
1000
,
0001
1000
0001
1000
0001
1000
0001
1000
;

//--------------- dance-single - Pandemonium X ----------------
#NOTES:
     dance-single:
     Pandemonium X:
     Hard:
     16:
     0,0,0,0,0:
0000
0000
0000
0000
,
0000
0000
0000
0000
,
0000
0000
0000
0000
,
0000
0000
0000
0000
,
0001
0100
0010
0100
0001
0000
1000
0000
0100
0000
0010
0000
0100
0000
1000
0000
,
0010
1000
0100
1000
0010
0000
0100
0000
0001
0000
0010
0000
0100
0000
1000
0000
,
0001
1000
0100
1000
0010
0000
1000
0000
0001
0000
0010
0000
0100
0000
0010
0000
,
0001
0100
0001
1000
0001
0000
0010
0000
0100
0000
0010
0000
1001
1001
1001
0000
,
0001
1000
0002
0100
2003
0100
3020
0100
,
2030
0100
0001
3010
0020
0100
2030
0010
,
3200
0010
2300
0010
3002
0010
1000
0010
,
0203
0000
0000
0000
0010
0000
0000
0000
0320
0000
0000
0000
1000
0000
0000
0000
0230
0000
0000
0000
0010
0000
0000
0000
0301
1000
0001
1000
0001
1000
0001
1000
,
1001
0000
0000
0000
1001
0000
0001
1000
0001
0000
1000
0100
1000
0000
0100
0000
0000
0000
0010
0001
0010
0000
0100
1000
0100
0000
0010
0001
0010
0000
0100
0000
,
1001
0000
0000
0000
1001
0000
0001
0100
0001
0000
1000
0010
1000
0000
0100
0000
0000
0000
0010
0001
0010
0000
0001
0100
0001
0000
1000
0010
1000
0000
0001
1000
,
1001
0000
0000
0000
1001
0000
0001
0010
0001
0000
0010
0100
0010
0000
0100
0000
0000
0000
0010
0001
0010
0000
0100
1000
0100
0000
1000
0010
1000
0000
1010
0000
,
1001
0000
0000
0000
1001
0000
0001
1000
0001
0000
0101
0000
0000
0000
1010
0000
0000
0000
1001
0000
0000
0000
1000
0100
0010
0000
0001
0000
0001
0000
0001
0000
,
0101
0000
0101
0000
0200
0000
0310
1000
0200
0000
0301
0100
2000
0000
3010
0001
,
0020
0000
0130
0001
2000
0000
3001
0010
2000
0000
3010
0100
2000
0000
3100
0010
,
0002
0000
0100
0000
0010
0000
1003
0001
0020
0000
0100
0000
0001
0000
0130
1000
,
0002
0000
0000
0000
0103
0000
0000
0000
0200
0000
0000
0000
0310
0000
0000
0000
0100
0000
0100
0000
0001
0000
0001
0000
1000
0100
1000
0100
0010
0001
0010
0001
,
1000
0000
0000
0000
0001
0100
1000
0000
0200
0000
0000
0000
0300
0000
0000
0000
,
0010
1000
0001
0000
0021
0000
0000
0000
0000
0000
0000
0000
0030
0000
0000
0000
,
0100
1000
0010
0000
0010
0000
0000
0000
0100
0001
0010
0000
0010
0000
0000
0000
,
0100
0000
0000
1000
0000
0000
0010
0000
0000
0000
0000
0000
0010
0000
0000
0000
0000
0000
0000
0000
0000
0000
0000
0000
0000
0000
0000
0000
0000
0000
0100
0000
0000
0000
0000
0000
0020
0000
0000
0000
2030
0000
0000
0000
3002
0000
0000
0000
,
0020
0000
0033
2002
0000
0000
0000
0000
0000
0000
3003
0000
,
0001
1000
0001
1000
0010
1000
0001
1000
0001
0010
0001
1000
0001
1000
0001
0100
0001
1000
0001
1000
0001
1000
0010
1000
,
0100
0010
0100
1000
0001
1000
0001
0010
0100
0010
0001
1000
0001
0100
0010
0100
0001
1000
0010
0100
0010
1000
0001
1000
,
0100
0010
0001
1000
0010
0100
0001
0010
0100
1000
0001
0100
0010
1000
0100
0010
0001
0010
0100
0010
0001
1000
0100
0010
,
0001
0100
0010
1000
0001
0010
0001
1000
0010
1000
0100
0010
0001
0010
1000
0010
0001
0100
1000
0100
0010
1000
0001
0010
,
0001
0001
0010
0100
1000
0010
1000
1000
0010
0100
0001
1000
0001
0001
0010
0100
0010
0001
1000
1000
0100
0010
0100
1000
,
0010
0010
0100
0001
0010
0100
1000
1000
0100
1000
0001
0100
0001
0001
0010
0100
0100
1000
0001
0010
1000
0010
0001
0010
,
0100
0100
0010
0001
1000
0001
0010
0010
0100
0010
0001
1000
0100
0100
1000
0001
0100
0010
1000
1000
0010
0100
1000
0100
,
0001
0001
0010
1000
0010
0001
1000
1000
0100
0001
0100
1000
0010
0010
0100
0001
0001
1000
0100
0100
0010
0001
0001
1000
,
0100
0100
1000
0001
0100
0000
0100
0100
0001
1000
0010
0000
1000
0100
0010
0001
0010
0100
0010
0001
1000
0100
0010
0001
,
0010
0010
0001
1000
0010
0000
0010
0010
1000
0001
0100
0000
0001
0010
0100
1000
0100
0010
0100
1000
0001
0010
0100
1000
,
0001
0100
1000
0100
0001
0100
1000
0010
0001
0010
1000
0010
0001
0100
0010
1000
0001
0010
1000
0010
0001
0010
0100
0010
,
0001
1000
0100
0001
0100
1000
0010
0001
0010
0100
0010
0001
1000
1000
0001
0100
0100
0010
1000
1000
0100
0010
0010
0001
,
1001
0000
1000
0000
0001
0000
0010
0000
0001
0000
1000
0000
0100
0000
0010
0100
,
1000
0000
0010
0000
1010
0000
0100
0000
0101
0000
0001
0000
0010
0000
0010
0100
,
1100
1000
0100
0000
0010
0001
0100
0000
0010
0100
0001
0000
1000
0100
0010
0000
,
1001
0001
1000
0001
1000
0001
1000
0001
,
1000
0000
0000
0000
0001
0000
0000
0001
1000
0000
0000
0000
0001
0000
0000
0000
1000
0000
0000
0000
0001
0000
0000
0000
1000
0000
0000
0000
0001
0000
0000
0000
;

//--------------- dance-double - Pandemonium X ----------------
#NOTES:
     dance-double:
     Pandemonium X:
     Easy:
     8:
     0,0,0,0,0:
00000000
00000000
00000000
00000000
,
00000000
00000000
00000000
00000000
,
00000000
00000000
00000000
00000000
,
00000000
00000000
00000000
00000000
,
00010000
00000100
00001000
00000010
,
00010000
00001000
01000000
00010000
,
00100000
00001000
00010000
00001000
,
01000000
00000000
00000000
00000000
00010000
00000000
00000000
00000000
01000000
00000000
00000000
00000000
00100000
10000000
00100000
00000000
,
00000000
10000000
01000000
00100000
,
00010000
00100000
00001000
00010000
,
00000100
00000000
00001000
00000000
,
00000010
00000100
00000001
00001000
,
00001100
00001100
00000000
00000000
00000000
00000000
00000000
00000000
,
00011000
00011000
00000000
00000000
00000000
00000000
00000000
00000000
,
01001000
01001000
00000000
00000000
00000000
00000000
00000000
00000000
,
01100000
00000000
01100000
00000000
00000000
10000000
00000000
10000000
00000000
10000000
00000000
10000000
00010000
00000000
10000000
00000000
,
01000000
01000000
10000000
00000000
00100000
00100000
01000000
00000000
,
00010000
00010000
00100000
00000000
00001000
00001000
00010000
00000100
,
00001000
00001000
00000010
00000000
00000100
00000100
00000001
00000000
,
00001000
00001000
00000100
00000000
00010000
00001000
00010000
00001000
,
00011000
00000000
00000100
00000000
,
00001000
00000010
00000000
00000000
,
00000100
00000000
00001000
00000000
,
00010000
00000000
00000000
00000000
,
00000000
00002000
00000000
00000000
,
00103000
00010000
00100000
00010000
00100000
00010000
00100000
01000000
,
10000000
00100000
10000000
00100000
10000000
00100000
01000000
00010000
,
00100000
00001000
00100000
00001000
00100000
00001000
00010000
00001000
,
00010000
00000100
00001000
00000010
00000100
00000001
00000010
00000100
,
00001000
00000100
00001000
00000100
00001000
00000100
00010000
00001000
,
01000000
00001000
01000000
00001000
01000000
00001000
00010000
00000100
,
00001000
00000010
00001000
00000010
00001000
00000010
00010000
00001000
,
00010000
00001000
00010000
00000100
00010000
00001000
01000000
00100000
,
10100000
00000000
00000000
00000000
01010000
00000000
00000000
00000000
00110000
00000000
00000000
00000000
00000000
00000000
00100000
00001000
,
00010000
00000000
00000000
00000000
00011000
00000000
00000000
00000000
00001010
00000000
00000000
00000000
00000000
00000000
00000010
00000100
,
00000001
00000011
00000110
00001100
,
00010100
00011000
01001000
01100000
,
10010000
00000000
00000000
00000000
10000000
00000000
00000000
00000000
00100000
00000000
00000000
00000000
00000000
00000000
00000000
01000000
,
00010000
00000000
00000000
00000000
00100000
00000000
00000000
00000000
00001000
00000000
00000000
00000000
00000000
00000000
00000000
00010000
,
00000100
00000000
00001000
00000000
,
00000010
00000010
00000010
00000010
,
00000010
00000010
00000010
00000010
;

//--------------- dance-double - Pandemonium X ----------------
#NOTES:
     dance-double:
     Pandemonium X:
     Medium:
     13:
     0,0,0,0,0:
00000000
00000000
00000000
00000000
,
00000000
00000000
00000000
00000000
,
00000000
00000000
00000000
00000000
,
00000000
00000000
00000000
00000000
,
00010000
00000100
00010000
00000100
00001000
00000000
00000000
00000000
00000010
00000000
00000000
00000000
00000100
00000000
00000000
00000000
,
00000001
00001000
00000001
00001000
00000100
00000000
00000000
00000000
00010000
00000000
00000000
00000000
00001000
00000000
00000000
00000000
,
01000000
00010000
01000000
00010000
10000000
00000000
00000000
00000000
01000000
00000000
00000000
00000000
00100000
00000000
00000000
00000000
,
00001000
00100000
00001000
00100000
00010000
00000000
00000000
00000000
10000000
00000000
00000000
00000000
00100000
00100000
00100000
00000000
,
10010000
00020000
00230000
00302000
,
00023000
00030100
00002000
00003020
,
00020030
00031000
00200000
00310000
,
20000000
00000000
00000000
00000000
30200000
00000000
00000000
00000000
02300000
00000000
00000000
00000000
03010000
00100000
00100000
00100000
,
10010000
00110000
00000000
00000000
00000000
00000000
00000000
00000000
,
00011000
00001100
00000000
00000000
00000000
00000000
00000000
00000000
,
00000110
00000000
00001001
00000000
00000000
00000000
00000000
00000000
00000000
00000000
00000000
00000000
00000000
00000000
00000010
00001000
,
00001010
00000000
00000000
00000000
00010100
00000000
00000000
00000000
00000000
00000000
00010000
00000000
00000000
00000000
00001000
00000000
00000000
00000000
00010000
00000000
00000000
00000000
00001000
00010000
00001000
00000000
00010000
00000000
00001000
00000000
00010000
00000000
,
00000100
00000000
00010000
00000000
00001000
00000000
01000000
00000000
00100000
00000000
01000000
00000000
00010000
00000000
10000000
01000000
,
00100000
00000000
01000000
00000000
10000000
00000000
00010000
00000000
00100000
00000000
00001000
00000000
00010000
00000000
00000100
00001000
,
00000010
00000000
00000100
00000000
00000001
00000000
00000010
00000000
00000001
00000000
00001000
00000000
00000100
00000000
00000010
00000100
,
00001000
00000000
00000100
00000000
00010000
00000000
00001000
00000000
01000000
00001000
00010000
00000100
00001000
00000010
00000100
00000001
,
00001001
00000000
00000000
00000000
00000001
00000100
00000010
00000000
00010000
00000000
00000000
00000000
00000000
00000000
00000000
00000000
,
00001000
01000000
00010000
00000000
00200000
00000000
00000000
00000000
00000000
00000000
00000000
00000000
00300000
00000000
00000000
00000000
,
01000000
10000000
00100000
00000000
01000000
00000000
00000000
00000000
00100000
01000000
00010000
00000000
00100000
00000000
00000000
00000000
,
01000000
00000000
00000000
10000000
00000000
00000000
00100000
00000000
00000000
00000000
00000000
00000000
01000000
00000000
00000000
00000000
00000000
00000000
00000000
00000000
00000000
00000000
00000000
00000000
00000000
00000000
00000000
00000000
00000000
00000000
00010000
00000000
00000000
00000000
00000000
00000000
00100000
00000000
00000000
00000000
00001000
00000000
00000000
00000000
00010000
00000000
00000000
00000000
,
00000010
00000000
00000000
00000000
00000000
00000000
00002002
00000000
00000000
00000000
00000000
00000000
00000000
00000000
00000000
00000000
00000000
00003003
00000001
00000000
00000001
00000000
00000001
00000000
,
00001001
00000000
00000001
00000010
00000000
00000010
00000100
00000000
00000100
00001000
00000000
00001000
00000100
00000000
00000100
00010000
00000000
00010000
00001000
00000000
00001000
01000000
00000000
01000000
,
00100000
00000000
00100000
10000000
00000000
10000000
01000000
00000000
01000000
00100000
00000000
00100000
00001000
00000000
00001000
00010000
00000000
00010000
00000100
00000000
00000100
00001000
00000000
00001000
,
00000010
00000000
00000010
00000100
00000000
00000100
00000001
00000000
00000001
00001000
00000000
00001000
00000100
00000000
00000100
00010000
00000000
00010000
00001000
00000000
00001000
01000000
00000000
01000000
,
00100000
00000000
00100000
10000000
00000000
10000000
00010000
00000000
00010000
00100000
00000000
00100000
00001000
00000000
00001000
00010000
00000000
00010000
00000010
00000000
00000010
00000100
00000000
00000100
,
00000001
00001000
00000100
00000000
00001100
00000000
00000100
00010000
00001000
00000000
01001000
00000000
00001000
01000000
00100000
10000000
,
01000000
00100000
00010000
00100000
00101000
00000000
00100000
00001000
00010000
00000000
00011000
00000000
00010000
00000100
00001000
00000010
,
00000100
00000001
00000010
00000000
00001100
00000000
00000100
00010000
00001000
00000000
00011000
00000000
00010000
00001000
01000000
00100000
,
10000000
01000000
00100000
00001000
00010000
00000100
00001000
00000010
00000100
00000001
00000010
00000100
00001000
00000100
00010000
00001000
,
02000000
00000000
00000000
00000000
00000000
00000000
03010000
00000000
00000000
10000000
00000000
00000000
00020000
00000000
00000000
00000000
00000000
00000000
00130000
00000000
00000000
00010000
00000000
00000000
00200000
00000000
00000000
00000000
00000000
00000000
00000000
00000000
00000000
00000000
00000000
00000000
00000000
00000000
00000000
00000000
00000000
00000000
00310000
00000000
00100000
00000000
00001000
00000000
,
00020000
00000000
00000000
00000000
00000000
00000000
00030100
00000000
00000000
00010000
00000000
00000000
00000200
00000000
00000000
00000000
00000000
00000000
00010300
00000000
00000000
00000010
00000000
00000000
00020000
00000000
00000000
00000000
00000000
00000000
00000000
00000000
00000000
00000000
00000000
00000000
00000000
00000000
00000000
00000000
00000000
00000000
00031000
00000000
00010000
00000000
00000010
00000000
,
00000100
00000001
00000010
00000000
00000110
00000000
00000100
00001000
00000001
00000000
00001100
00000000
00000100
00010000
00001000
01000000
,
00100000
00000000
01000000
00010000
00000000
00010000
00100000
00000000
00100000
00001000
00000000
00001000
00010000
00000000
00010000
00000100
00000000
00000100
00001000
00000010
00000100
00000001
00000010
00000100
,
00001000
00000000
00000000
00000000
00010000
00000000
00000000
00000000
00001000
00000000
00000000
00000000
00000000
00000000
00000000
01000000
,
00100000
00000000
00000000
00000000
10000000
00000000
00000000
00000000
00010000
00000000
00000000
00000000
00000000
00000000
00000000
00100000
,
00001000
00010000
00000100
00001000
,
00000010
00000100
00000010
00000100
,
00000010
00000100
00000010
00000100
;

//--------------- dance-double - Pandemonium X ----------------
#NOTES:
     dance-double:
     Pandemonium X:
     Hard:
     16:
     0,0,0,0,0:
00000000
00000000
00000000
00000000
,
00000000
00000000
00000000
00000000
,
00000000
00000000
00000000
00000000
,
00000000
00000000
00000000
00000000
,
00010000
00000100
00010000
00001000
01000000
00000000
00010000
00000000
00100000
00000000
00001000
00000000
00010000
00000000
00000100
00000000
,
00010000
00001000
01000000
00001000
00010000
00000000
00000100
00000000
00001000
00000000
00000010
00000000
00000100
00000000
00000001
00000000
,
00000010
00000100
00001000
00000100
00010000
00000000
00001000
00000000
01000000
00000000
00100000
00000000
10000000
00000000
00010000
00100000
,
01000000
00000000
00100000
00010000
01000000
00000000
00100000
10000000
00010000
00000000
00100000
00000000
00101000
00101000
00101000
00000000
,
00001000
00010000
00020100
00031000
01002000
00103000
00210000
01300000
,
00120000
10030000
00200000
10300000
20000000
31000000
00200000
00301000
,
00020000
00030100
00001000
00000010
00000200
00000301
00000010
00000100
,
00001000
00000000
00000000
00000000
00000100
00000000
00000000
00000000
00010100
00000000
00000000
00000000
00001000
00000000
00000000
00000000
01001000
00000000
00000000
00000000
00001000
00000000
00000000
00000000
00010000
00000000
00000100
00010000
00000100
00010000
00001000
00010000
,
00011000
00100010
00000000
00000000
00010000
00000000
00000000
00000000
,
01000100
01000100
00000000
00000000
00001000
00000000
00000000
00000000
,
00100010
00000000
00100010
00000000
00000000
00000000
00000000
00000000
00001000
00000000
00000000
00000000
00000000
00000000
01000000
01000000
,
01000100
00000000
00000000
00000000
01000100
00000000
00000000
00000000
00000000
00000000
00000100
00000000
00000000
00000000
00000100
00000000
00000000
00000000
00000100
00000000
00000000
00000000
00000100
00010000
00001000
00000000
00011000
00000000
00010000
00000000
00011000
00000000
,
00011000
00000000
00010100
00000000
00000110
00000000
00000010
00000001
00001000
00000000
00000010
00010000
00001000
00000000
00010000
00001000
,
01000000
00000000
00100000
00000000
10000000
00000000
00010000
00000000
00110000
00000000
00100000
00000000
01100000
00000000
01000000
10000000
,
10010000
00000000
00110000
00000000
00100000
00000000
00001000
00010000
00010100
00000000
00001100
00000000
00001000
00000000
00000010
00000100
,
00000101
00000000
00000000
00000000
00000101
00000000
00000000
00000000
00000021
00000000
00000000
00000000
00000130
00000000
00000000
00000000
00000010
00000000
00000010
00000000
00000001
00000000
00000001
00000000
00001000
00000100
00001000
00000100
00010000
00000100
00010000
00001000
,
00010000
00000000
00000000
00000000
00001000
01000000
00100000
00000000
10000000
00000000
00000000
00000000
00000000
00000000
00000000
00000000
,
01000000
00100000
00010000
00000000
00021000
00000000
00000000
00000000
00030000
00000000
00000000
00000000
00000000
00000000
00000000
00000000
,
00001000
00000100
00000001
00000000
00001001
00000000
00000000
00000000
00000001
00000100
00001000
00000000
00011000
00000000
00000000
00000000
,
00001000
00000000
00000000
01000000
00000000
00000000
00100000
00000000
00000000
00000000
00000000
00000000
10010000
00000000
00000000
00000000
00000000
00000000
00000000
00000000
00000000
00000000
00000000
00000000
00000000
00000000
00000000
00000000
00000000
00000000
00000000
00000000
00000000
00000000
00000000
00000000
00010000
00000000
00000000
00000000
00100000
00000000
00000000
00000000
00001000
00000000
00000000
00000000
,
00020000
00000000
00000000
00002000
00000000
00000000
00000000
00000000
00000000
00000000
00000000
00033000
,
00100000
00010000
01000000
00010000
00100000
00010000
10000000
00100000
01000000
00100000
10000000
00100000
01000000
00010000
00100000
00010000
01000000
00010000
10000000
00100000
01000000
00100000
10000000
00010000
,
00100000
00001000
00010000
00001000
00100000
00001000
00010000
00000100
00010000
00001000
00010000
00000100
00001000
00000010
00000100
00000010
00001000
00000010
00000100
00000001
00000010
00000001
00000100
00000001
,
00001000
00000100
00001000
00000100
00010000
00001000
01000000
00001000
01000000
00001000
00010000
00000100
00001000
00000010
00001000
00000010
00000100
00000001
00000010
00000100
00001000
00000100
00010000
00001000
,
01000000
00100000
10000000
00010000
00100000
00001000
00010000
00000010
00000100
00000001
00001000
00000100
00000001
00000100
00001000
00000010
00000001
00000010
00000100
00001000
00000100
00000010
00010000
00001000
,
00100000
00001000
00010000
00001000
00100000
00010000
10000000
00100000
10000000
00010000
00100000
00001000
00010000
00000100
00001000
00000010
00010000
00000010
00000100
00000001
00000010
00000100
00000010
00000001
,
00001000
00000100
00010000
00001000
00100000
00001000
00010000
00000010
00000100
00000001
00000010
00000001
00001000
00000100
00010000
00001000
01000000
00001000
01000000
00100000
00010000
00100000
10000000
00010000
,
00100000
01000000
10000000
01000000
00100000
01000000
10000000
00010000
00100000
01000000
00100000
00001000
00010000
00001000
00010000
00000100
00001000
00000010
00000100
00001000
00000100
00000001
00001000
00000100
,
00000010
00000001
00001000
00000100
00001000
00000010
00000100
00000001
00001000
00000100
00010000
00001000
00100000
10000000
00100000
00010000
01000000
10000000
01000000
00010000
00100000
00001000
00010000
00000100
,
00001000
00000100
00010000
00001000
01000000
00000000
01000000
00001000
00010000
00000100
00001000
00000000
00001000
00000100
00010000
00001000
01000000
00100000
10000000
01000000
00100000
00010000
00100000
00001000
,
00010000
00000100
00001000
00000010
00000100
00000000
00000100
00000010
00010000
00000100
00010000
00000000
00010000
00001000
01000000
00010000
00100000
01000000
10000000
01000000
00100000
00010000
00100000
01000000
,
00100000
00001000
00010000
00000100
00001000
00000010
00000100
00000001
00000010
00000001
00001000
00000010
00001000
00000100
00010000
00001000
01000000
00100000
10000000
00010000
00100000
00001000
00010000
00000100
,
00001000
00000010
00000100
00000001
00000010
00000100
00001000
00000100
00010000
00001000
01000000
00001000
00010000
00000100
00010000
00001000
01000000
00100000
10000000
00010000
00100000
00001000
00010000
00000100
,
00010100
00000000
00001000
00000000
00101000
00000000
00010000
00000000
00011000
00000000
00000100
00000000
00010000
00000000
00000010
00000100
,
00000001
00000000
00000010
00000000
00000011
00000000
00001000
00000000
00001001
00000000
00000001
00000000
00001000
00000000
00000100
00010000
,
00011000
00000000
00001000
00000000
01000000
00000000
00100000
00000000
10100000
00000000
10000000
00000000
00010000
00000000
00100000
00001000
,
00011000
00001000
00010000
00001000
00010000
00001000
00010000
00001000
,
00010000
00001000
00011000
00001000
00010000
00001000
00010000
00001000
;
