#TITLE:Gabbalungang;
#SUBTITLE:;
#ARTIST:Hommarju;
#TITLETRANSLIT:;
#SUBTITLETRANSLIT:;
#ARTISTTRANSLIT:;
#GENRE:;
#CREDIT:;
#MUSIC:Gabbalungang.ogg;
#BANNER:;
#BACKGROUND:Gabbalungang-bg.png;
#CDTITLE:;
#SAMPLESTART:60.250;
#SAMPLELENGTH:19.269;
#SELECTABLE:YES;
#OFFSET:-0.250;
#BPMS:0.000=200.000;
#STOPS:;
#BGCHANGES:;
#FGCHANGES:;

//--------------- dance-single - Pandemonium X ----------------
#NOTES:
     dance-single:
     Pandemonium X:
     Beginner:
     5:
     0,0,0,0,0:
0000
0000
0000
0000
,
0000
0000
0000
0000
,
0000
0000
0000
0000
,
0000
0000
0000
0000
,
0000
0000
0000
0000
,
0000
0000
0000
0000
,
0000
0000
0000
0000
,
0000
0000
0000
0000
,
0000
0000
0000
0000
,
0000
0000
0000
0000
,
0001
0000
0000
0000
,
1000
0000
0000
0000
,
0001
0000
0000
0000
,
0100
0000
0010
0000
,
1000
0000
0000
0000
,
0001
0000
0000
0000
,
1000
0000
0000
0000
,
0000
0000
0000
0000
,
0001
0001
0001
0000
,
0001
0001
0001
0000
,
0001
0001
0001
0000
,
1001
0000
0000
0000
,
1000
1000
1000
0000
,
1000
1000
1000
0000
,
1000
1000
1000
0000
,
0110
0000
0000
0000
,
0001
0100
0001
0000
,
0100
0001
0100
0000
,
0001
0100
0001
0000
,
1001
0000
0000
0000
,
1000
0010
1000
0000
,
0010
1000
0010
0000
,
1000
0010
1000
0000
,
1001
0000
0000
0000
,
1000
0000
0000
0000
,
0100
0000
0000
0000
,
0010
0000
0000
0000
,
0100
0000
1000
0000
,
0010
0000
0000
0000
,
0100
0000
0000
0000
,
0001
0000
0000
0000
,
1000
0000
0001
0000
,
0110
0000
0000
0000
,
1001
0000
0000
0000
,
0110
0000
0000
0000
,
1001
0000
0100
0000
,
0101
0000
0000
0000
,
1010
0000
0000
0000
,
0101
0000
0000
0000
,
0010
0000
0000
0000
,
1000
0000
0001
0000
,
1000
1000
0000
0000
,
0001
0000
1000
0000
,
0001
0001
0000
0000
,
0100
0000
0000
0000
,
0010
0000
0000
0000
,
1000
0000
0000
0000
,
0100
0000
0000
0000
,
0010
0000
0100
0000
,
0010
0010
0000
0000
,
0100
0000
0010
0000
,
0100
0100
0000
0000
,
0010
0000
0001
0000
,
1000
1000
0000
0000
,
0010
0000
0100
0000
,
0001
0001
0000
0000
,
0110
0000
0000
0000
,
0000
0000
0000
0000
,
0000
0000
0000
0000
,
0000
0000
0000
0000
,
0000
0000
0000
0000
,
0000
0000
0000
0000
,
0000
0000
0000
0000
,
0000
0000
0000
0000
,
0001
0001
0001
0000
,
1000
1000
1000
0000
,
0001
0001
0001
0000
,
1001
0000
0110
0000
,
1000
1000
1000
0000
,
0001
0001
0001
0000
,
1000
1000
1000
0000
,
0110
0000
0000
0000
,
0001
0000
1000
0000
,
0010
0010
0010
0010
,
1000
0000
0001
0000
,
0100
0100
0100
0100
,
0001
0000
1000
0000
,
0010
0010
0010
0010
,
1000
0000
0001
0000
,
0110
0000
0000
0000
,
1000
0000
0001
0000
,
0010
0100
0010
0100
,
1000
0000
0010
0000
,
0100
0010
0100
0010
,
0100
0000
0001
0000
,
0010
0100
0010
0100
,
1000
0000
0010
0000
,
0100
0010
0100
0010
;

//--------------- dance-single - Pandemonium X ----------------
#NOTES:
     dance-single:
     Pandemonium X:
     Easy:
     8:
     0,0,0,0,0:
0000
0000
0000
0000
,
0000
0000
0000
0000
,
0000
0000
0000
0000
,
0000
0000
0000
0000
,
0000
0000
0000
0000
,
0000
0000
0000
0000
,
0000
0000
0000
0000
,
0000
0000
0000
0000
,
0000
0000
0000
0000
,
0000
0000
0000
0000
,
0001
0001
0001
0000
,
1000
1000
1000
0000
,
0010
0010
0010
0000
,
0100
0001
0100
0010
,
1000
1000
1000
0000
,
0001
0001
0001
0000
,
0010
0010
0010
0000
,
1001
0000
0000
0000
,
1000
0010
0100
0000
,
0001
0010
0100
0000
,
0010
0001
1000
0000
,
0001
0100
1000
0100
,
0001
1000
0010
0000
,
1000
0001
0010
0000
,
0001
1000
0010
0000
,
1000
0010
0001
0010
,
0100
0001
0010
0000
,
0100
1000
0010
0000
,
0100
0001
0010
0000
,
0100
0010
0001
1000
,
0001
1000
0100
0000
,
1000
0001
0100
0000
,
0001
1000
0100
0000
,
0010
0100
1000
0010
,
0100
0001
0100
0010
,
0100
0001
0100
0010
,
0100
0001
0100
0010
,
0100
0001
1000
0010
,
1000
0100
0010
0100
,
1000
0100
0010
0100
,
1000
0100
0010
0100
,
1000
0100
0010
0001
,
1001
0000
0000
0000
,
1010
0000
0000
0000
,
0101
0000
0000
0000
,
0011
0000
1100
0000
,
2001
0000
0000
0000
,
0010
0000
0000
0000
,
0100
0000
0000
0000
,
3001
0000
0000
0000
,
1000
0010
0001
0010
,
1000
1001
0000
0000
,
0001
0010
1000
0010
,
0001
1001
0000
0000
,
0001
0000
1000
0000
,
0100
0100
0000
0000
,
1000
0000
0001
0000
,
0010
0010
0000
0000
,
0001
0100
1000
0100
,
0001
1001
0000
0000
,
1000
0100
0001
0100
,
1000
1001
0000
0000
,
0001
0010
1000
0010
,
0001
1001
0000
0000
,
0001
0100
1000
0100
,
0010
1001
0000
0000
,
0001
1000
1000
0000
,
0001
1000
1000
0000
,
0001
1000
1000
0000
,
0001
0010
0100
1000
,
0001
1000
1000
0000
,
0001
1000
1000
0000
,
0001
1000
1000
0000
,
0001
0010
0100
1000
,
0100
0010
0001
0000
,
0010
0100
1000
0000
,
0100
0010
0001
0000
,
0010
0100
1000
0100
,
0010
0001
0100
0000
,
0010
1000
0100
0000
,
0010
0100
1000
0000
,
2002
0000
0000
3003
,
0001
0100
0010
1000
,
0100
0100
0100
0100
,
0010
0001
1000
0010
,
1000
1000
1000
1000
,
0001
0010
0100
0100
,
0010
0010
0010
0010
,
0001
1000
0100
0100
,
2002
0000
0000
3003
,
0001
1000
0010
1000
,
0100
0010
0100
1000
,
0001
0100
0010
1000
,
0100
0001
0100
1000
,
0001
0100
0010
1000
,
0001
0010
0100
1000
,
0100
0001
0100
0010
,
0001
1000
0100
0010
;

//--------------- dance-single - Pandemonium X ----------------
#NOTES:
     dance-single:
     Pandemonium X:
     Medium:
     12:
     0,0,0,0,0:
0000
0000
0000
0000
,
0000
0000
0000
0000
,
0000
0000
0000
0000
,
0000
0000
0000
0000
,
0000
0000
0000
0000
,
0000
0000
0000
0000
,
0000
0000
0000
0000
,
0000
0000
0000
0000
,
0000
0000
0000
0000
,
0000
0000
0000
0000
,
1000
1000
1000
0000
,
0001
0001
0001
0000
,
1000
1000
1000
0000
,
0001
1000
0010
0100
,
0001
0001
0001
0000
,
1000
1000
1000
0000
,
0001
0001
0001
0000
,
0000
0000
0000
0000
,
0001
0100
0010
0000
,
0100
0010
1000
0000
,
0100
0010
0001
0000
,
0010
0100
0010
0000
0100
0010
0100
0000
,
0010
0001
1000
0000
,
0010
1000
0001
0000
,
0010
0100
1000
0000
,
0010
0100
0010
0000
0100
0010
0100
0000
,
0001
1000
0100
0000
,
1000
0001
0100
0000
,
0001
1000
0100
0000
,
0011
0000
0010
0000
0100
1000
0001
0000
,
0100
0010
1000
0000
,
0010
1000
0001
0000
,
0010
0100
1000
0000
,
0100
0000
1000
0010
0100
0001
0010
0000
,
0100
0010
0001
0100
,
0001
1000
0100
0010
,
0100
1000
0010
0100
,
0001
0000
0000
0001
0000
0000
0001
0000
1000
0000
0100
0000
0010
0000
0100
0000
,
1000
0010
1000
0001
,
0010
0100
0010
0001
,
1000
0100
0010
0100
,
1000
0100
1000
0100
0010
0001
0010
0001
,
0100
0000
0000
0100
0000
0000
0100
0000
0000
0000
0000
0000
0000
0000
0000
0000
,
0010
0000
0000
0010
0000
0000
0010
0000
0000
0000
0000
0000
0000
0000
0000
0000
,
1000
0000
0000
1000
0000
0000
1000
0000
0000
0000
0000
0000
0000
0000
0000
0000
,
0001
0000
0000
0001
0000
0000
0001
0000
1000
0000
1000
0000
0100
0000
0000
0000
,
0010
0000
0000
0100
0000
0000
1000
0000
0000
0000
0000
0000
0000
0000
0000
0000
,
0100
0000
0000
0010
0000
0000
0001
0000
0000
0000
0000
0000
0000
0000
0000
0000
,
0100
0000
0000
0010
0000
0000
1000
0000
0000
0000
0000
0000
0000
0000
0000
0000
,
2002
0000
0000
3003
,
0001
0100
0010
0000
0100
0000
0001
0000
,
1000
0100
0010
0000
0100
0000
1000
0000
,
0001
1000
0100
0000
0010
0000
0100
0000
,
0010
0001
0100
0000
0001
0000
1000
0000
,
1100
0000
0000
1000
1010
0000
0110
0000
,
0101
0000
0000
0001
0011
0000
0110
0000
,
1100
0000
0000
1000
1100
0000
1010
0000
,
0101
0001
0010
0100
1000
0100
0010
0001
,
1000
0100
0001
0000
0100
0000
0010
0000
,
0010
0001
0100
0000
0010
0000
0100
0000
,
0001
0100
1000
0000
0100
0000
0010
0000
,
0010
0100
0001
0000
1000
0000
0001
0000
,
1000
0010
0001
0000
0010
0000
0100
0000
,
0001
0010
0100
0000
0010
0000
0001
0000
,
1000
0100
0001
0000
0100
0000
1000
0000
,
0100
0010
0001
0010
0100
1000
0001
0000
,
1000
0001
0001
0000
,
1000
0001
0001
0000
,
1000
0001
0001
0000
,
2000
3010
2000
3001
,
0100
0010
0010
0000
,
0100
0010
0010
0000
,
0100
0010
0010
0000
,
0200
0301
0020
0130
,
1000
0100
0010
0001
,
0100
0010
1000
0001
,
0010
0001
0100
0010
,
1000
0010
0100
0000
0100
0001
0010
0000
,
0100
0010
0001
0100
,
0010
1000
0100
0010
,
0001
1000
0001
1000
0001
1000
0001
1000
,
0001
0000
0000
0000
,
1000
0000
0001
0000
0100
0010
0100
0000
,
0001
0100
0001
0100
0001
0100
0001
0000
,
0100
0000
0010
0000
1000
0010
1000
0000
,
0001
1000
0001
1000
0001
1000
0001
0000
,
1000
0000
0100
0000
0010
0001
0010
0000
,
0001
0100
0001
0100
0001
0100
0001
0000
,
0100
0000
0010
0000
1000
0010
1000
0000
,
2002
0000
0000
3003
,
1000
0000
0100
1000
0000
0100
0010
0000
,
0100
0000
0010
0001
0000
0100
0010
0000
,
0100
0000
0001
0010
0000
0001
1000
0000
,
0100
0000
0010
0100
0000
0010
0001
0000
,
0100
0000
0001
0000
0100
0010
1000
0000
,
0001
0010
0100
0010
0001
0100
0010
0000
,
1000
0000
0010
0000
0100
0010
1000
0000
,
0010
0100
0010
1000
0100
0010
0001
1000
;

//--------------- dance-single - Pandemonium X ----------------
#NOTES:
     dance-single:
     Pandemonium X:
     Hard:
     16:
     0,0,0,0,0:
0000
0000
0000
0000
,
0000
0000
0000
0000
,
0000
0000
0000
0000
,
0000
0000
0000
0000
,
0000
0000
0000
0000
,
0000
0000
0000
0000
,
0000
0000
0000
0000
,
0000
0000
0000
0000
,
0000
0000
0000
0000
,
0000
0000
0000
0000
,
0001
0100
1000
0000
,
0100
0010
1000
0000
,
1000
0100
0001
0000
,
0100
0000
0010
0001
0100
0000
0000
0000
0010
0100
0010
1000
0100
0000
0000
0000
,
1000
0100
0001
0000
,
0100
0010
0001
0000
,
0100
0001
1000
0000
,
0000
0000
0000
0000
,
0101
0011
0101
0000
,
1010
1100
1010
0000
,
1001
1100
1001
0000
,
0101
0000
0001
0010
0100
0000
0000
0000
1000
0100
0010
0100
1000
0000
0001
0000
,
0101
1010
1001
0000
,
1100
0011
1001
0000
,
0011
0110
1100
0000
,
1200
0000
0310
1000
0010
0001
1000
0010
,
0100
0001
0010
0001
0100
0000
1001
0000
,
1000
0010
0100
0010
1000
0000
1001
0001
,
0010
0001
1000
0100
0010
0000
1100
0000
,
0011
0000
0001
0100
0000
0010
1000
0000
0100
0010
0100
0000
0010
0000
0001
1000
,
0001
0100
0010
0100
0001
0000
1010
0000
,
1000
0010
1000
0100
0010
0000
0011
0001
,
0001
1000
0100
0010
0100
0000
1001
0000
,
0102
0000
0000
0000
0103
0000
0010
0000
1000
0001
1000
0001
1000
0001
1000
0001
,
1000
0000
0001
0100
0010
0000
0010
1000
,
0100
0000
0100
0010
0001
0000
0001
1000
,
0100
0000
0100
1000
0010
0000
0010
0100
,
0001
0000
0010
0001
0000
0010
0100
0000
0010
0001
0000
1000
0010
0000
0100
0010
,
1000
0000
0001
0100
0010
0000
0010
0100
,
0001
0000
1000
0100
0010
0000
0010
0100
,
1000
0000
1000
0001
0100
0000
0100
0001
,
0010
0000
0100
0000
1000
0000
0001
0000
0100
0010
0100
0010
0100
0010
0100
0010
,
0100
0000
0000
0101
0000
0000
0011
0000
0000
0000
0000
0000
0000
0000
0000
0000
,
1001
0000
0000
1100
0000
0000
1010
0000
0000
0000
0000
0000
0000
0000
0000
0000
,
1100
0000
0000
0110
0000
0000
0011
0000
0000
0000
0000
0000
0000
0000
0000
0000
,
1001
0000
0000
1100
0000
0000
0011
0000
0001
0000
0001
0000
1001
0000
0000
0000
,
0101
0000
0000
1001
0000
0000
1100
0000
0000
0000
0000
0000
0000
0000
0000
0000
,
0011
0000
0000
1100
0000
0000
0101
0000
0000
0000
0000
0000
0000
0000
0000
0000
,
0101
0000
0000
1100
0000
0000
1001
0000
0000
0000
0000
0000
0000
0000
0000
0000
,
0201
0000
0310
0001
0010
1000
0100
0000
,
0010
0001
0010
0001
0010
0000
0000
0000
0001
0000
0000
0000
0001
0000
0000
0000
,
1000
0100
1000
0001
1000
0000
0000
0000
1000
0000
0001
0100
0001
0000
0001
0100
,
0001
0010
0001
1000
0100
0000
0000
0000
0100
0000
0000
0000
0100
0000
0000
0000
,
0100
0010
0100
0010
0001
0000
0000
0000
1000
0010
1000
0010
1000
0000
0000
0000
,
0001
0000
0000
1000
1100
0000
0000
0000
,
0010
1000
0100
0010
0100
0000
1000
0000
1100
0000
0000
0000
0001
0000
0000
0000
,
0101
0000
0000
0010
0110
0000
1001
0000
,
1000
0000
0100
0000
1000
0000
0001
0100
0001
0000
0100
0010
0100
0000
0010
1000
,
0001
0000
0000
0001
0000
0000
0010
0000
0100
0000
0000
0100
0000
0000
1000
0000
,
0010
0100
0001
0010
0100
0000
0000
0000
1000
0000
0001
1000
0001
0000
1000
0000
,
0100
0000
0000
0100
0000
0000
1000
0000
0001
0000
0000
0001
0000
0000
0100
0000
,
0010
1000
0100
0010
0100
0000
1000
0000
0001
0100
0001
0100
0001
0000
1000
0000
,
0001
0010
0100
0010
0001
0000
0000
0000
0001
0000
0000
0000
0001
0000
0000
0000
,
0010
0001
0010
0100
0010
0000
0000
0000
0010
0000
0000
0000
0001
0000
0000
0000
,
0100
0010
0100
0001
0100
0000
0000
0000
0100
0000
0000
0000
0100
0000
0000
0000
,
0001
0000
0010
0000
0100
0000
1000
0000
0001
1000
0001
1000
0001
1000
0001
1000
,
0001
0100
0010
0000
,
0100
0010
1000
0000
,
0100
0010
0001
0000
,
0010
0100
1000
0100
0010
0000
0000
0000
0001
0010
0100
0010
0001
0000
0000
0000
,
1000
0010
0100
0000
,
0001
0010
0100
0000
,
0010
0001
1000
0000
,
0001
0010
0001
1000
0001
0000
0000
0000
1000
0010
0100
0010
1000
0000
0000
0000
,
0001
0100
0010
0100
0001
0000
0011
0000
,
1000
0100
0010
0100
1000
0000
1010
0000
,
0001
0100
0010
0100
0001
0000
0101
0000
,
0001
0010
0100
1000
0001
0000
0000
0000
1000
0100
0010
0001
1000
0000
0000
0000
,
0001
0100
0010
1000
0100
0010
0001
0010
,
0001
0100
0010
1000
0001
0010
0100
1000
,
0001
1000
0001
1000
0001
1000
0001
1000
0001
1000
0001
1000
0001
1000
0001
1000
,
0001
0100
0010
0000
0100
0010
1000
0000
,
1001
0000
0000
0001
0000
0000
0010
0000
0100
0000
0100
0000
0100
0000
0000
0000
,
0010
0010
0010
0010
0010
0010
0001
0000
,
1000
0000
0000
1000
0000
0000
1000
0000
0010
0000
0010
0000
0010
0000
0000
0000
,
0100
0100
0100
0100
0100
0100
0010
0000
,
0010
0000
0000
0010
0000
0000
0100
0000
0001
0000
0001
0000
0001
0000
0000
0000
,
0010
0010
0010
0010
0010
0010
0100
0000
,
0100
0000
0000
0100
0000
0000
1000
0000
0010
0000
0010
0000
0010
0000
0000
0000
,
1020
0000
0130
1000
0100
0001
0010
0100
,
1000
0000
0000
0100
0010
0000
0100
0000
1000
0000
1000
0000
1001
0000
0000
0000
,
0001
0000
0000
0100
0010
0000
0100
0000
0001
0000
0001
0000
1001
0000
0000
0000
,
0001
0000
0000
0010
0100
0000
1000
0000
0010
0000
0010
0000
1001
0000
0000
0000
,
1000
0000
0001
0100
0010
0000
0100
0010
1000
0000
0001
0000
1001
0000
0000
0000
,
0001
0000
0000
0100
0000
0000
0010
0000
1000
0000
0100
0000
0110
0000
0010
0001
,
1000
0010
0100
0001
1000
0010
1001
0000
,
1000
0000
0000
0010
0000
0000
0100
0000
0001
0000
0010
0000
0110
0000
0100
1000
,
0001
0000
1000
0010
0100
0000
0001
0010
0100
0000
0010
0001
1000
0000
0020
0000
,
0000
0000
0000
0000
,
0000
0000
0000
0000
,
0030
0000
0000
0000
;

//--------------- dance-double - Pandemonium X ----------------
#NOTES:
     dance-double:
     Pandemonium X:
     Easy:
     8:
     0,0,0,0,0:
00000000
00000000
00000000
00000000
,
00000000
00000000
00000000
00000000
,
00000000
00000000
00000000
00000000
,
00000000
00000000
00000000
00000000
,
00000000
00000000
00000000
00000000
,
00000000
00000000
00000000
00000000
,
00000000
00000000
00000000
00000000
,
00000000
00000000
00000000
00000000
,
00000000
00000000
00000000
00000000
,
00000000
00000000
00000000
00000000
,
00001000
00001000
00001000
00000000
,
00010000
00010000
00010000
00000000
,
00001000
00001000
00001000
00000000
,
00100000
00010000
10000000
01000000
,
00100000
00100000
00100000
00000000
,
01000000
01000000
01000000
00000000
,
10000000
10000000
10000000
00000000
,
10010000
00000000
00000000
00000000
,
00010000
00100000
00001000
00000000
,
00010000
00000010
00000100
00000000
,
00000010
00001000
00000100
00000000
,
00000001
00000100
00001000
00000001
,
00000100
00001000
00000100
00000000
,
00000010
00001000
00000100
00000000
,
00010000
00001000
01000000
00000000
,
00010000
00100000
10000000
00010000
,
01000000
00010000
00100000
00000000
,
00001000
00010000
00000010
00000000
,
00000100
00000001
00000010
00000000
,
00000100
00001000
00000100
00000001
,
00001000
00000100
00010000
00000000
,
00001000
01000000
00010000
00000000
,
00100000
01000000
10000000
00000000
,
10000000
01000000
00010000
01000000
,
10000000
00100000
10000000
00100000
,
01000000
00010000
01000000
00010000
,
00100000
00010000
00100000
00010000
,
00100000
00100000
00100000
00100000
,
00001000
00010000
00001000
00010000
,
00000100
00010000
00000100
00010000
,
00000100
00001000
00000100
00001000
,
00000010
00000010
00000010
00000010
,
00001001
00000000
00000000
00000000
,
00001010
00000000
00000000
00000000
,
00001100
00000000
00000000
00000000
,
00011000
00000000
00000000
00000000
00001000
00010000
00001000
00000000
,
00101000
00000000
00000000
00000000
,
00110000
00000000
00000000
00000000
,
11000000
00000000
00000000
00000000
,
10010000
00000000
00000000
00000000
,
10000000
00100000
01000000
01000000
,
00010000
00100000
00000000
00000000
,
00010000
00100000
00001000
00001000
,
00010000
00000010
00000000
00000000
,
00000100
00000000
00000001
00000000
,
00000010
00000010
00000000
00000000
,
00000100
00000000
00010000
00000000
,
00001000
00001000
00000000
00000000
,
00010000
00001000
01000000
00010000
,
00100000
01000000
00000000
00000000
,
00100000
00001000
00010000
00000010
,
00000100
00000001
00000000
00000000
,
00000010
00000001
00001000
00000100
,
00010000
00001000
00000000
00000000
,
00010000
00001000
01000000
00010000
,
00100000
01000000
00000000
00000000
,
10000000
00000000
10000000
00000000
,
01000000
00000000
01000000
00000000
,
00100000
00000000
00100000
00000000
,
00010000
00001000
00000100
00000000
,
00001000
00000000
00001000
00000000
,
00000010
00000000
00000010
00000000
,
00000100
00000000
00000100
00000000
,
00001000
00010000
00100000
00000000
,
01000000
01000000
01000000
00000000
,
00100000
00100000
00100000
00000000
,
10000000
10000000
10000000
00000000
,
00010000
00100000
00001000
00010000
,
00000010
00000010
00000010
00000000
,
00000100
00000100
00000100
00000000
,
00000001
00000001
00000001
00000000
,
00001001
00000000
00000000
00000000
,
00001000
00000100
00010000
00001000
,
01000000
00010000
00100000
01000000
,
10000000
00100000
01000000
00010000
,
00100000
00001000
00010000
00000010
,
00000100
00000001
00000010
00000100
,
00001000
00000100
00010000
00001000
,
01000000
00001000
00010000
00000100
,
00001000
00000000
00000000
00000000
,
00000010
00000100
00000001
00000001
,
00000010
00000100
00001000
00001000
,
00000100
00010000
00001000
00001000
,
00010000
00001000
01000000
00010000
,
00100000
01000000
10000000
10000000
,
01000000
00100000
00010000
00010000
,
00100000
00001000
00010000
00000010
,
00000100
00000000
00001000
00000000
00000100
00000000
00000001
00001000
;

//--------------- dance-double - Pandemonium X ----------------
#NOTES:
     dance-double:
     Pandemonium X:
     Medium:
     12:
     0,0,0,0,0:
00000000
00000000
00000000
00000000
,
00000000
00000000
00000000
00000000
,
00000000
00000000
00000000
00000000
,
00000000
00000000
00000000
00000000
,
00000000
00000000
00000000
00000000
,
00000000
00000000
00000000
00000000
,
00000000
00000000
00000000
00000000
,
00000000
00000000
00000000
00000000
,
00000000
00000000
00000000
00000000
,
00000000
00000000
00000000
00000000
,
00010000
00000100
00010000
00000000
,
00001000
01000000
00001000
00000000
,
00010000
00000100
00010000
00000000
,
00011000
00011000
00011000
00000000
,
00010000
00000010
00010000
00000000
,
00001000
00100000
00001000
00000000
,
00010000
00000010
00010000
00000000
,
00011000
00000000
00000000
00000000
,
00001000
01000000
00100000
00000000
,
10000000
01000000
00100000
00000000
,
01000000
00100000
00010000
00000000
,
00100000
00001000
00010000
00000010
,
00000100
00000001
00000010
00000000
,
00000100
00000010
00000001
00000000
,
00001000
00000100
00010000
00000000
,
00011000
00100000
00011000
00000010
,
00010000
00000100
00001000
00000000
,
00000010
00000100
00000001
00000000
,
00001000
00000100
00010000
00000000
,
00001000
01000000
00010000
00100000
,
01000000
10000000
00010000
00000000
,
01000000
00100000
10000000
00000000
,
00010000
00100000
00001000
00000000
,
00010000
00000100
00001000
00000010
,
00000100
00000001
00000100
00001000
,
00000100
00000001
00000100
00001000
,
00000100
00000001
00000100
00001000
,
00010000
00100000
01000000
10000000
,
01000000
00010000
01000000
10000000
,
01000000
00010000
01000000
10000000
,
01000000
00010000
10000000
01000000
,
00100000
00010000
00001000
00000100
,
00000110
00000000
00000000
00000000
,
00001001
00000000
00000000
00000000
,
00000110
00000000
00000000
00000000
,
00001001
00000000
00000000
00000000
00000001
00001000
00000001
00000000
,
00001010
00000000
00000000
00000000
,
00001100
00000000
00000000
00000000
,
00011000
00000000
00000000
00000000
,
00210000
02300000
23000000
30200000
,
01300000
00010000
00100000
00000000
01000000
00000000
01000000
00000000
,
01000000
10000000
00010000
00000000
00000000
00000000
00000000
00000000
,
00100000
00001000
00010000
00000000
00010000
00000000
00010000
00000000
,
00010000
00000100
00001000
00000000
00000000
00000000
00000010
00000000
,
00000100
00000000
00000000
00000001
00000010
00000000
00000000
00000000
,
00000100
00000000
00000000
00001000
00000100
00000000
00010000
00000000
,
00001000
00000000
00000000
00100000
00010000
00000000
01000000
00000000
,
00100000
10000000
00010000
00100000
,
01000000
00100000
00001000
00010000
,
00000100
00001000
00000010
00000000
00000000
00000000
00000000
00000000
,
00000100
00000010
00001000
00000100
,
00010000
00001000
00100000
00000000
00000000
00000000
00000000
00000000
,
00010000
01000000
00100000
00000000
10000000
00000000
01000000
00000000
,
00100000
00001000
00010000
00000000
00000100
00000000
00001000
00000000
,
00000010
00000100
00000001
00000000
00000010
00000000
00000100
00000000
,
00000010
00000001
00001000
00000000
00000010
00000000
00001000
00000000
,
00000100
00010000
00010000
00000000
,
00001000
01000000
01000000
00000000
,
00010000
00100000
00100000
00000000
,
01000000
00010000
01000000
10000000
,
00100000
01000000
01000000
00000000
,
00010000
00100000
00100000
00000000
,
00001000
00010000
00010000
00000000
,
00001000
00000010
00000001
00000010
,
00000100
00000001
00000010
00000000
,
00000100
00001000
00000010
00000000
,
00010000
00001000
00100000
00000000
,
00010000
00100000
01000000
10000000
,
10020000
10000000
10000000
00000000
,
01000000
01000000
01000000
00000000
,
00100000
00100000
00130000
00000000
,
10010000
00000000
00000000
00000000
,
00010000
00000000
00100000
00000000
00001000
00001000
00001000
00000000
,
00010000
00000000
00000100
00000000
00001000
00001000
00001000
00000000
,
00000010
00000000
00000100
00000000
00000001
00000001
00000001
00000000
,
00000010
00000001
00000100
00000010
00000100
00000001
00001000
00000000
,
00000100
00000000
00010000
00000000
00001000
00001000
00001000
00000000
,
00010000
00000000
00001000
00000000
01000000
01000000
01000000
00000000
,
00010000
00000000
00100000
00000000
01000000
01000000
01000000
00000000
,
00100000
00000000
00010000
01000000
00100000
10000000
01000000
00100000
,
00010000
00000000
00000000
10000000
00010000
00000000
00100000
00000000
01000000
00000000
01000000
00000000
01000000
00000000
00000000
00000000
,
00100000
00000000
00000000
00001000
00010000
00000000
00000100
00000000
00001000
00000000
00001000
00000000
00001000
00000000
00000000
00000000
,
00000010
00000000
00000000
00000100
00000001
00000000
00000010
00000000
00000100
00000000
00000100
00000000
00000100
00000000
00000000
00000000
,
00000010
00000001
00001000
00000010
00010000
00010000
00011000
00000000
,
00001000
00000000
00000000
01000000
00010000
00000000
00100000
00000000
01000000
00000000
00100000
00000000
00010000
00000000
00000000
00000000
,
10000000
00000000
00000000
01000000
10000000
00000000
00100000
00000000
01000000
00000000
00010000
00000000
00100000
00000000
00000000
00000000
,
00010000
00000000
00000000
00100000
00001000
00000000
00010000
00000000
00000010
00000000
00000100
00000000
00000001
00000000
00001000
00000000
,
00000100
00000001
00000100
00001000
00000100
00010000
00001000
00010000
;

//--------------- dance-double - Pandemonium X ----------------
#NOTES:
     dance-double:
     Pandemonium X:
     Hard:
     16:
     0,0,0,0,0:
00000000
00000000
00000000
00000000
,
00000000
00000000
00000000
00000000
,
00000000
00000000
00000000
00000000
,
00000000
00000000
00000000
00000000
,
00000000
00000000
00000000
00000000
,
00000000
00000000
00000000
00000000
,
00000000
00000000
00000000
00000000
,
00000000
00000000
00000000
00000000
,
00000000
00000000
00000000
00000000
,
00000000
00000000
00000000
00000000
,
00010000
00000100
00001000
00000000
,
00000010
00000100
00000001
00000000
,
00001000
00000001
00000100
00000000
,
00000010
00001000
00000100
00000000
00000010
00000001
00000100
00000000
,
00000010
00001000
00000010
00001000
00000010
00001000
00000010
00001000
,
00000100
00001000
00000100
00001000
00000100
00001000
00000100
00001000
,
00000010
00001000
00000010
00001000
00000010
00000100
00000001
00000100
00000001
00001000
00000001
00001000
00000001
00000010
00000001
00000010
,
00000000
00000000
00000000
00000000
,
00001100
00011000
00001100
00000000
,
00010100
00011000
00010100
00000000
,
00011000
00110000
00011000
00000000
,
00001000
01000000
00010000
00100000
01000000
00000000
00000000
00000000
00100000
00010000
10000000
00100000
01000000
00000000
00000000
00000000
,
01010000
00110000
10010000
00000000
,
00110000
00011000
00110000
00000000
,
00011000
00001100
00011000
00000000
,
00002100
00000000
00003010
00000001
00000010
00000100
00000001
00000000
,
00001000
00000010
00001000
00000001
00000010
00000000
00001000
00000000
,
00000100
00010000
00001000
01000000
00010000
00000000
00100000
00100000
,
01000000
00100000
00010000
00100000
01000000
00000000
10000000
00000000
,
01000000
00000000
00100000
00010000
00000000
01000000
00001000
00000000
00010000
00000100
00000000
00001000
00000010
00000000
00000100
00000001
,
00001000
00000100
00000010
00000001
00000010
00000000
00000100
00000000
,
00000010
00000001
00001000
00000010
00010000
00001000
00100000
00100000
,
00010000
00100000
01000000
10000000
00100000
01000000
00100000
00000000
,
01020000
00000000
00000000
00000000
00130000
00000000
00001000
00000000
00010000
00001000
00010000
00001000
00010000
00001000
00010000
00001000
,
00010000
00000000
00000100
00010000
00001000
00000000
00010000
00001000
,
01000000
00000000
00001000
00010000
00000100
00000000
00010000
00001000
,
01000000
00000000
00001000
00010000
00000100
00000000
00010000
00001000
,
01000000
00000000
00010000
01000000
00000000
00100000
10000000
00000000
00010000
01000000
00000000
00010000
00100000
00000000
00100000
00001000
,
00010000
00000000
00000010
00010000
00001000
00000000
00010000
00001000
,
00100000
00000000
00001000
00010000
00000010
00000000
00010000
00001000
,
00100000
00000000
00001000
00010000
00000010
00000000
00010000
00001000
,
00100000
00000000
00010000
00000000
10000000
00000000
01000000
00000000
00100000
00010000
00100000
00010000
00100000
00010000
00100000
00010000
,
00100000
00000000
00000000
00101000
00000000
00000000
00011000
00000000
00000000
00000000
00000000
00000000
00000000
00000000
00000000
00000000
,
00010100
00000000
00000000
00001100
00000000
00000000
00001010
00000000
00000000
00000000
00000000
00000000
00000000
00000000
00000000
00000000
,
00001010
00000000
00000000
00010100
00000000
00000000
00010010
00000000
00000000
00000000
00000000
00000000
00000000
00000000
00000000
00000000
,
00001100
00000000
00000000
00000011
00000000
00000000
00000001
00000000
00001001
00000000
00001001
00000000
00001001
00000000
00000000
00000000
,
00010200
00000000
00000000
00010000
00000000
00000000
00010000
00000000
00000000
00000000
00000000
00000000
00000000
00000000
00000000
00000000
,
00001000
00000000
00000000
00001000
00000000
00000000
00001000
00000000
00000000
00000000
00000000
00000000
00000000
00000000
00000000
00000000
,
00010000
00000000
00000000
00010000
00000000
00000000
00010000
00000000
00000000
00000000
00000000
00000000
00000000
00000000
00000000
00000000
,
00002300
00000000
00003010
00000001
00000010
00000100
00000001
00000000
,
00001000
00000100
00010000
00000000
00001000
00000000
00000000
00000000
00001000
00000000
00000000
00000000
00001000
00000000
00000000
00000000
,
00001000
01000000
00001000
00010000
00001000
00000000
00000000
00000000
00110000
00000000
00010000
00100000
00010000
00000000
10000000
01000000
,
10000000
00100000
01000000
00000000
00010000
00000000
00000000
00000000
00010000
00000000
00000000
00000000
00010000
00000000
00000000
00000000
,
00010000
00100000
01000000
00100000
00010000
00000000
00000000
00000000
01000000
00100000
01000000
00100000
01000000
00000000
00000000
00000000
,
00100000
10000000
01000000
00000000
00100000
00000000
00000000
00000000
00100000
00000000
00000000
00000000
00100000
00000000
00000000
00000000
,
00100000
00001000
00010000
00000010
00001000
00000000
00000000
00000000
00000000
00000000
00000000
00000000
00000010
00000000
00000000
00000000
,
00000100
00000001
00000010
00000000
00000100
00000000
00000000
00000000
00000100
00000000
00000000
00000000
00000100
00000000
00000000
00000000
,
00000100
00000000
00000010
00000000
00000001
00000000
00001000
00000010
00000100
00000000
00000100
00000001
00000010
00000000
00000010
00000100
,
00001000
00000000
00000000
00000100
00000000
00000000
00010000
00000000
00001000
00000000
00000000
01000000
00000000
00000000
00010000
00000000
,
00100000
01000000
00100000
00010000
10000000
00000000
00010000
00000000
01000000
00000000
00010000
01000000
00010000
00000000
10000000
00100000
,
10000000
00000000
00000000
00010000
00000000
00000000
00100000
00000000
00001000
00000000
00000000
00010000
00000000
00000000
00000010
00000000
,
00001000
00000010
00000100
00000010
00001000
00000000
00000001
00000000
00000010
00000100
00000010
00000100
00000010
00000000
00000100
00000000
,
00001000
00000010
00000100
00000000
00000010
00000000
00000000
00000000
00000010
00000000
00000000
00000000
00000010
00000000
00000000
00000000
,
00000010
00000100
00000001
00001000
00000100
00000000
00000000
00000000
00001000
00000000
00000000
00000000
00000100
00000000
00000000
00000000
,
00010000
00001000
01000000
00000000
00100000
00000000
00000000
00000000
00100000
00000000
00000000
00000000
00100000
00000000
00000000
00000000
,
00100000
00000000
01000000
00000000
00010000
00000000
00100000
00000000
01000000
10000000
01000000
10000000
01000000
10000000
01000000
10000000
,
00010000
10000000
10000000
00000000
,
00010000
10000000
10000000
00000000
,
00010000
10000000
10000000
00000000
,
00010000
01000000
00100000
01000000
00010000
00000000
00000000
00000000
00100000
00010000
00100000
00001000
00010000
00000000
00000000
00000000
,
00000100
00001000
00001000
00000000
,
00000100
00001000
00001000
00000000
,
00000100
00001000
00001000
00000000
,
00000100
00001000
00000010
00000100
00000010
00000000
00000000
00000000
00000100
00000001
00000010
00000100
00000010
00000000
00000000
00000000
,
00000100
00001000
00000010
00000100
00000001
00000000
00001000
00000000
,
00000100
00010000
00001000
01000000
00010000
00000000
00100000
00100000
,
01000000
00010000
01000000
10000000
00100000
00000000
01000000
00000000
,
00010000
00100000
01000000
10000000
00010000
00000000
00000000
00000000
10000000
01000000
00100000
01000000
10000000
00000000
00000000
00000000
,
00010000
01000000
00010000
00100000
00010000
00100000
00001000
00100000
,
00001000
00010000
00000100
00010000
00000010
00001000
00000010
00000100
,
00000010
00001000
00000010
00000100
00000001
00000100
00000001
00000010
00000001
00000010
00000100
00000010
00000100
00001000
00000100
00010000
,
00000100
00010000
00001000
00010000
00000100
00000000
00000000
00000000
00010000
00001000
01000000
00001000
00010000
00000000
00000000
00000000
,
00011000
00000000
00000000
00001000
00000000
00000000
01000000
00000000
00100000
00000000
01000000
00000000
10010000
00000000
00000000
00000000
,
10000000
00000000
10000000
00000000
01000000
00000000
00100000
00010000
01000000
00000000
01000000
00000000
10010000
00000000
00000000
00000000
,
10100000
00000000
00000000
00100000
00000000
00000000
01000000
00000000
00001000
00000000
00001000
00000000
00011000
00000000
00000000
00000000
,
00010000
00000000
00000100
00001000
00000010
00000000
00000010
00000100
00000001
00000000
00000001
00001000
00000100
00000000
00000010
00000001
,
00001000
00000000
00000000
00000010
00000000
00000000
00001000
00000000
00000100
00000000
00000100
00000000
00001100
00000000
00000000
00000000
,
00000100
00010000
00001000
01000000
00010000
00010000
00110000
00000000
,
10000000
00000000
00000000
00010000
00000000
00000000
01000000
00000000
00100000
00000000
00100000
00000000
10010000
00000000
00000000
00000000
,
00120000
00000000
00230000
00302000
00023000
00030020
00000230
00002300
,
00003100
00000000
00000000
00000100
00000001
00000000
00000010
00000000
00000100
00000000
00000100
00000000
00000110
00000000
00000000
00000000
,
00000100
00000000
00000000
00000100
00001000
00000000
00000100
00000000
00010000
00000000
00010000
00000000
00011000
00000000
00000000
00000000
,
00101000
00000000
00000000
00010000
00100000
00000000
01000000
00000000
00100000
00000000
00100000
00000000
01100000
00000000
00000000
00000000
,
01000000
00000000
01000000
10000000
00100000
00000000
01000000
00010000
00100000
00000000
01000000
10000000
00100000
00000000
10000000
00000000
,
00010000
00000000
00000000
10000000
00100000
00000000
01000000
00000000
00010000
00000000
00100000
00000000
00101000
00000000
00001000
00010000
,
00000100
00000000
00000000
00001000
00000010
00000000
00000100
00000000
00000001
00000000
00000001
00000000
00000011
00000000
00000010
00000100
,
00001000
00000000
00000100
00001000
00000010
00000000
00010000
00001000
00100000
00000000
00010000
00100000
01000000
00000000
10000000
00000000
,
00010000
00000000
00100000
01000000
10000000
00000000
01000000
00100000
00010000
00000000
00100000
00001000
00010000
00000000
00001000
00010000
;
