#TITLE:GET ENUF;
#SUBTITLE:;
#ARTIST:長沼英樹;
#TITLETRANSLIT:;
#SUBTITLETRANSLIT:;
#ARTISTTRANSLIT:HIDEKI NAGANUMA;
#GENRE:;
#CREDIT:;
#MUSIC:GET ENUF.ogg;
#BANNER:GET ENUF.png;
#BACKGROUND:GET ENUF-bg.png;
#CDTITLE:;
#SAMPLESTART:28.622;
#SAMPLELENGTH:14.137;
#SELECTABLE:YES;
#OFFSET:1.423;
#BPMS:0.000=135.811
,223.500=130.230
,224.000=135.810
;
#STOPS:;
#DISPLAYBPM:136.000;
#ORIGIN:;
#TAGS:;
#PREVIEWVID:;
#JACKET:GET ENUF-jacket.png;
#CDIMAGE:;
#DISCIMAGE:;
#BGCHANGES:;
#FGCHANGES:;

//--------------- dance-single - Pandemonium X ----------------
#NOTES:
     dance-single:
     Pandemonium X:
     Beginner:
     3:
     0.202904,0.284716,0.268477,0.008661,0,164,133,31,1,0,0,0,0,0,0.202904,0.284716,0.268477,0.008661,0,164,133,31,1,0,0,0,0,0:
0000
0000
0000
0000
,
0000
0000
0000
0000
,
0000
0000
0000
0000
,
0000
0000
0000
0000
,
0000
0000
0000
0000
,
0001
0000
1000
0100
,
1000
0000
0000
0110
,
1001
0001
1000
0000
,
0010
0100
0010
0000
,
1001
0000
0000
0000
,
0001
0000
0000
0010
,
0110
0000
0000
0100
,
1000
0000
0000
0010
,
1001
0000
0000
0001
,
1000
0000
0000
0010
,
0110
0000
1001
0000
,
0001
0100
0010
1000
,
1100
0000
0000
0000
,
0011
0000
0000
0000
,
0101
0000
0000
0000
,
1010
0000
0000
0000
,
1001
0000
0000
0000
,
0110
0000
0000
0000
,
0001
0000
1000
0000
,
0010
0010
0010
0000
,
0100
0000
0001
0000
,
0010
0100
1000
0000
,
0100
0000
1000
0000
,
0001
1000
0010
0000
,
0100
0000
0010
0000
,
1001
0000
0000
0000
,
0020
0000
0000
0030
,
1001
0001
1000
0010
,
0000
1000
0001
0010
,
0000
0001
1000
0010
,
0100
0100
1001
0000
,
1001
0000
0001
0000
,
1000
0100
1000
0000
,
0110
0100
0001
0000
,
0100
0010
1000
0000
,
1001
0000
0000
0000
,
0101
0000
0000
0010
,
1001
0000
0000
0000
,
1100
0000
0000
0100
,
0011
0000
0000
0000
,
1001
0000
0000
1000
,
0110
0000
0000
0000
,
0001
0000
0000
0100
,
0001
0000
0000
0000
,
1000
0000
0000
0000
,
0100
0000
0000
0000
,
0010
0000
0000
0000
,
0001
0000
1000
0001
,
0100
0000
0000
0010
,
0100
0000
0010
1000
,
0100
0000
0000
0010
,
1001
0001
1000
0000
,
0100
1000
0010
0000
,
0100
0001
0010
0000
,
0100
1000
0010
0000
,
1001
0001
1000
0000
,
0100
1000
0010
0000
,
1001
0000
0110
0000
,
0101
0000
1010
0000
,
1000
0100
0010
0001
,
0001
0001
0001
0001
;

//--------------- dance-single - Pandemonium X ----------------
#NOTES:
     dance-single:
     Pandemonium X:
     Easy:
     7:
     0.264766,0.341659,0.190532,0.15589,0.129908,214,192,22,18,0,0,0,0,0,0.264766,0.341659,0.190532,0.15589,0.129908,214,192,22,18,0,0,0,0,0:
0000
0000
0000
0000
,
0000
0000
0000
0000
,
0000
0000
0000
0000
,
0000
0000
0000
0000
,
0000
0000
0000
0000
,
0001
0000
2000
3002
,
0103
0000
0001
0000
,
1001
0000
1000
0100
1000
0000
0000
0000
,
0001
0000
0010
0001
0010
0000
0000
0000
,
1001
0001
0100
0010
,
1000
0001
0010
1100
,
1000
0001
0100
0001
,
0010
0001
1000
0011
,
0001
1000
0010
1000
,
0100
0010
0001
1100
,
1001
0000
0110
0000
,
0002
0203
0320
2030
,
3100
0000
0000
0000
1000
0000
0000
0001
0000
0000
0000
0000
0000
0000
0000
0000
,
0100
0000
0000
0000
0001
0000
0000
0010
0000
0000
0100
0000
0000
0000
0000
0000
,
0010
0000
0000
0000
0001
0000
0000
1000
0000
0000
0000
0000
0000
0000
0000
0000
,
0100
0000
0000
0000
1000
0000
0000
0010
0000
0000
0000
0000
0000
0000
0000
0000
,
0100
0000
0000
0000
0001
0000
0000
0010
0000
0000
0000
0000
0000
0000
0000
0000
,
0100
0000
0000
0000
0010
0000
0000
0001
0000
0000
1000
0000
0000
0000
0000
0000
,
0001
0000
0000
0000
1000
0000
0010
0000
1000
0000
0000
1000
0000
0000
0000
0000
,
0100
0000
0000
0000
0010
0000
0000
0011
0000
0000
0000
0000
0000
0000
0000
0000
,
0001
0000
0000
0000
0010
0000
0000
0100
0000
0000
0000
0010
0000
0000
0000
0000
,
0000
0000
0000
0000
0001
0000
0000
1000
0000
0000
0000
0000
0000
0000
0000
0000
,
0010
0000
0000
0000
1000
0000
0000
0100
0000
0000
0000
1000
0000
0000
0000
0000
,
0000
0000
0000
0000
0010
0000
0000
0100
0000
0000
0000
0000
0000
0000
0000
0000
,
0010
0100
0001
1000
,
0220
0000
0000
0330
,
0000
0000
0000
0000
,
1001
0000
0001
0000
1000
0000
0010
0100
,
0000
0000
0001
0000
1000
0000
0100
0010
,
0000
0100
1000
1010
,
1000
0001
2002
3003
,
0000
0000
0001
0000
0010
0000
0100
1000
,
0000
0000
0100
0000
0010
0000
0001
1000
,
0000
0000
0001
0100
0001
0000
0000
0000
,
1000
0000
0010
1000
0010
0000
0000
0000
,
1000
0000
0000
1000
0000
0000
1000
0000
0000
0000
0000
0000
0000
0000
0000
0000
,
0001
0000
0000
0001
0000
0000
0001
0000
0000
0000
0000
0000
0000
0000
0000
0000
,
0100
0000
0000
0100
0000
0000
0100
0000
0000
0000
0000
0000
0000
0000
0000
0000
,
0010
0000
0000
0010
0000
0000
0010
0000
0000
0000
0000
0000
0000
0000
0000
0000
,
1000
0000
0000
0100
0000
0000
0010
0000
0000
0000
0000
0000
0000
0000
0000
0000
,
0100
0000
0000
0010
0000
0000
0001
0000
0000
0000
0000
0000
0000
0000
0000
0000
,
0010
0000
0000
0100
0000
0000
1000
0000
0000
0000
0000
0000
0000
0000
0000
0000
,
0001
0000
0000
0010
0000
0000
0100
0000
0000
0000
0000
0000
0000
0000
0000
0000
,
2000
0000
0000
0000
0000
0000
0000
3000
0000
0000
0000
0000
0000
0000
0000
0000
,
0002
0000
0000
0000
0000
0000
0000
0003
0000
0000
0000
0000
0000
0000
0000
0000
,
0200
0000
0000
0000
0000
0000
0000
0300
0000
0000
0000
0000
0000
0000
0000
0000
,
0020
0000
0000
0000
0000
0000
0000
0030
0000
0000
0000
0000
0000
0000
0000
0000
,
2000
0000
0000
0000
0000
0000
0000
3000
0001
0000
0000
0000
0010
0000
0000
0000
,
0200
0000
0000
0000
0000
0000
0000
0300
0000
0000
0000
0000
1001
0000
0000
0000
,
0002
0000
0000
0000
0000
0000
0000
0003
1000
0000
0000
0000
0010
0000
0000
0000
,
0200
0000
0000
0000
0000
0000
0000
0300
0000
0000
0000
0000
0110
0000
0000
0000
,
1001
1000
0001
0010
,
0100
0010
0001
1001
,
1000
0001
0100
0001
,
1000
0001
0010
1100
,
0100
1000
0010
0100
,
0001
1000
0010
0101
,
1001
0000
0110
0000
,
1001
0000
0110
0000
,
0001
0100
0010
1000
,
1000
1000
1000
1000
;

//--------------- dance-single - Pandemonium X ----------------
#NOTES:
     dance-single:
     Pandemonium X:
     Medium:
     11:
     0.450349,0.484017,0.31178,0.103927,0.320441,364,328,36,12,0,0,0,0,0,0.450349,0.484017,0.31178,0.103927,0.320441,364,328,36,12,0,0,0,0,0:
0000
0000
0000
0000
,
0000
0000
0000
0000
,
0000
0000
0000
0000
,
0000
0000
0000
0000
,
0000
0000
0000
0000
,
0001
1000
0000
1000
0000
1000
0100
0000
0010
0000
0100
0000
1000
0000
0000
0000
,
0001
0000
0000
0010
0000
0000
0001
0000
0000
0000
0100
0000
0010
1000
0000
0000
,
0001
0000
0000
0000
1000
0000
0100
0000
0001
0000
0000
0000
0000
0000
0000
0100
,
1000
0000
0010
0000
0001
0000
0010
0000
1000
0000
0001
0000
0100
0010
0000
0000
,
1000
0000
0000
0001
0000
0000
0010
0000
0000
0000
0100
0000
1100
0000
0000
0000
,
0100
0000
0000
1000
0000
0000
0010
0000
0000
0000
0100
0000
0001
0010
0000
0000
,
0100
0000
0000
0010
0000
0000
0001
0000
0000
0000
1000
0000
1010
0000
0000
0000
,
0100
0000
0000
0010
0000
0000
1000
0000
0000
0000
0001
0000
1000
0100
0000
0000
,
0110
0000
0000
0100
0000
0000
1000
0000
0000
0000
0001
0000
1001
0000
0000
0000
,
1000
0000
0000
0001
0000
0000
0010
0000
0000
0000
0100
0000
0010
0001
0000
0000
,
0100
0000
0010
1000
0000
0001
0000
0000
0100
0000
0010
1000
0000
0001
0000
0000
,
1000
0100
0010
0001
0010
0100
2000
0000
,
3001
0000
0100
0000
0010
0000
0000
0110
0000
0000
0000
0000
0000
0000
0000
0000
,
0100
0000
0010
0000
1000
0000
0000
0001
0000
0000
1001
0000
0000
0000
0000
0000
,
1000
0000
0100
0000
0010
0000
0000
0011
0000
0000
0000
0000
0000
0000
1000
0000
,
0001
0000
0100
0000
0010
0000
0000
1010
0000
0000
0000
0000
0000
0000
0000
0000
,
1000
0000
0001
0000
0010
0000
0000
0011
0000
0000
0000
0000
0000
0000
0000
0000
,
0100
0000
1000
0000
0001
0000
0000
1000
0000
0000
0101
0000
0000
0000
0000
0000
,
0001
0000
0000
1000
0000
0000
0001
0000
0100
0000
0000
0100
0000
0000
0010
0000
,
1000
0000
0001
0000
0010
0000
0000
1001
0000
0000
1000
0000
1000
0000
1000
0000
,
0001
0000
0010
0000
0001
0000
0000
0001
0000
0000
0000
2000
0000
0000
3100
0000
,
0000
0000
1000
0000
0001
0000
1000
0001
0000
0000
0000
0000
0000
0000
0000
0000
,
1000
0000
0001
0000
1000
0000
0000
1000
0000
0000
0000
0002
0000
0000
1003
0000
,
0000
0000
0001
0000
1000
0000
0001
1000
0000
0000
0000
0000
0000
0000
0000
0000
,
0001
0100
0010
0100
0001
1000
0100
0010
,
0200
0000
0000
0300
,
0012
0103
2010
3100
,
1001
0000
0001
0000
2000
0000
0010
3010
,
0000
0000
1000
0000
0002
0000
0010
0013
,
0000
0000
0001
0010
0100
1000
1001
0000
,
1000
0100
0010
0001
2002
0000
0000
3003
,
0101
0000
0010
0000
2000
0000
0100
3100
,
0000
0000
0010
0000
0002
0000
0100
0103
,
1001
0000
0000
0000
0001
0000
0100
0000
1000
0000
0000
0000
0000
0000
0000
1000
,
0100
0000
0001
0000
0010
0000
1000
0000
0010
0000
0001
0000
1000
0001
0000
0000
,
1001
0000
0000
0010
0000
0000
1000
0000
0000
0000
0001
0000
1001
0000
0000
0000
,
1000
0000
0000
0100
0000
0000
0010
0000
0000
0000
0100
0000
1000
0001
0000
0000
,
0101
0000
0000
0001
0000
0000
0010
0000
0000
0000
0100
0000
1100
0000
0000
0000
,
1000
0000
0000
0001
0000
0000
0010
0000
0000
0000
0100
0000
0010
0001
0000
0000
,
1001
0000
0000
0001
0000
0000
1000
0000
0000
0000
0010
0000
1010
0000
0000
0000
,
1000
0000
0000
0100
0000
0000
0010
0000
0000
0000
0100
0000
1000
0010
0000
0000
,
0101
0000
0000
0001
0000
0000
0010
0000
0000
0000
0100
0000
0110
0000
0000
0000
,
0010
0000
0000
0001
0000
0000
0100
0000
0000
0000
0010
0000
0100
0000
0001
0000
,
1000
0000
0000
0001
0000
0000
0010
0000
0000
0000
0000
0000
0000
0000
0000
0000
,
0100
0000
0000
1000
0000
0000
0001
0000
0000
0000
0000
0000
0000
0000
0000
0000
,
0100
0000
0000
0001
0000
0000
0010
0000
0000
0000
0000
0000
0000
0000
0000
0000
,
0100
0000
0000
1000
0000
0000
0010
0000
0000
0000
0000
0000
0000
0000
0000
0000
,
0100
0000
0000
0010
0000
0000
1000
0000
0001
0000
0010
0000
0100
0000
0000
0000
,
0010
0000
0000
0001
0000
0000
1000
0000
0000
0000
0100
0000
1000
0010
0000
0000
,
0100
0000
0000
0001
0000
0000
1000
0000
0001
0000
0010
0000
0100
0000
0000
0000
,
0010
0000
0000
0001
0000
0000
1000
0000
0000
0000
0010
0000
0100
0000
0001
0000
,
1001
0000
0000
0001
0000
0000
0010
0000
0100
0000
0010
0000
0001
0000
0000
0000
,
1001
0000
0000
0001
0000
0000
1000
0000
0000
0000
0010
0000
0100
0001
0000
0000
,
0101
0000
0000
0010
0000
0000
1000
0000
0001
0000
0010
0000
0100
0000
0000
0000
,
0011
0000
0000
0010
0000
0000
0100
0000
0000
0000
1000
0000
0001
0100
0000
0000
,
0101
0000
0000
0100
0000
0000
0010
0000
1000
0000
0001
0000
0010
0000
0000
0000
,
1100
0000
0000
1000
0000
0000
0001
0000
0000
0000
1000
0000
0001
0100
0000
0000
,
1001
0000
0000
0001
0000
0001
0000
0000
1001
0000
0000
1000
0000
1000
0000
0000
,
1001
0000
0000
0001
0000
0001
0000
0000
1001
0000
0000
1000
0000
1000
0000
0000
,
0001
0100
0010
1000
0100
0010
0001
0000
,
0001
0001
0001
0001
;

//--------------- dance-single - Pandemonium X ----------------
#NOTES:
     dance-single:
     Pandemonium X:
     Hard:
     15:
     0.673049,0.713819,0.355083,0.675524,0.887707,544,503,41,78,0,0,0,0,0,0.673049,0.713819,0.355083,0.675524,0.887707,544,503,41,78,0,0,0,0,0:
0000
0000
0000
0000
,
0000
0000
0000
0000
,
0000
0000
0000
0000
,
0000
0000
0000
0000
,
0000
0000
0000
0000
,
0001
0010
0000
0100
0000
0100
1000
0001
0200
0000
0301
0000
0200
0000
0310
1000
,
0001
0000
0000
1000
0000
0100
1000
0010
0000
0000
0100
0000
0001
0001
0000
0000
,
1001
0000
0000
0000
0002
0203
0320
2030
3002
0000
0003
0000
0000
0000
0000
1000
,
0001
0000
1000
0000
0002
0203
0320
2030
3002
0000
1003
0000
0100
0010
0000
0000
,
1001
0001
0000
0010
0000
0010
0001
1000
0000
0000
0101
0000
1001
0000
0000
0000
,
1000
0100
0000
1000
0000
0010
0100
0001
0000
0000
1000
0000
0001
0001
0000
0000
,
1000
0100
1000
0001
0000
0001
0010
0100
0000
0000
0011
0000
1001
0000
0000
0000
,
0001
0100
0000
0010
0000
1000
0001
0010
0000
0000
0110
0000
1000
1000
0000
0000
,
1001
0001
0000
0100
0000
0010
1000
0100
0000
0000
0110
0000
1001
0000
0000
0000
,
0001
0010
0000
0100
0000
0010
0001
0100
0000
0000
0010
0000
1000
1000
0000
0000
,
0001
0100
0010
1000
0000
1010
0000
1000
0001
0100
0010
1000
0000
1010
0000
1000
,
0002
0103
0002
1003
2000
3001
0020
0000
,
0230
0000
0310
0000
0002
0000
1003
0010
0000
0000
0100
0000
0010
1000
0010
1000
,
0200
0000
0310
0000
0200
0000
1300
0001
0000
0000
1010
0000
0000
0000
0000
0000
,
0020
0000
1030
0000
0002
0000
0013
0100
0000
0000
0010
0001
0010
0001
1000
0000
,
0002
0000
0103
0000
0002
0000
1003
0010
0000
0000
0100
0000
1001
0000
0000
0000
,
2000
0000
3100
0000
2000
0000
3100
0010
0000
0000
0001
0000
0001
0010
0001
0010
,
0200
0000
0301
0000
0200
0000
1300
0010
0000
0000
0110
0000
0000
0000
0000
0000
,
1000
0001
0000
0010
0000
0010
0001
1000
0020
0000
0000
0230
0000
0000
0301
0000
,
1000
0000
0001
0000
0100
0000
0001
0010
0000
0000
0100
0000
0100
0000
0100
0000
,
2000
0000
3100
0000
0020
0000
0031
1000
0000
0000
0010
0200
0000
0000
0301
0000
,
0000
0000
1000
0000
0001
0000
0010
0100
0000
0000
0010
0000
1001
0000
0000
0000
,
0002
0000
0103
0000
0020
0000
0130
0001
0000
0000
0010
0200
0000
0000
1300
0000
,
0000
0000
0001
0000
1000
0000
0010
0100
0000
0000
0010
0000
1001
0000
0000
0000
,
1000
0002
0023
2030
3020
0032
0203
0320
,
1030
0001
0000
0010
0000
0010
0001
1000
0020
0000
0000
0000
0030
0000
0000
0000
,
1001
0000
0001
0100
1000
0000
1000
0100
0000
0001
0000
0010
1000
0000
0010
0000
,
0011
0000
2100
0000
3020
0000
0130
1001
,
0000
0000
0021
0000
0230
0000
0310
1001
,
0000
0000
0001
0100
1000
0010
0001
0000
,
1000
0100
0001
0010
2000
0000
0000
0000
,
3001
0000
1200
0000
0320
0000
0130
1001
,
0000
0000
0201
0000
0320
0000
0130
1001
,
0110
0000
0000
0000
0002
0203
0320
2030
3002
0000
0003
0000
0000
0000
0000
0010
,
0001
0000
1000
0000
0002
0203
0320
2030
3002
0000
1003
0000
0001
0001
0000
0000
,
0001
1000
0000
0010
0000
1000
0001
1000
0000
0000
0011
0000
1100
0000
0000
0000
,
1000
0010
0000
0100
0000
0001
0010
0100
0000
0000
1000
0000
0001
0001
0000
0000
,
1001
1000
0001
0010
0000
0010
0001
0100
0000
0000
1010
0000
0101
0000
0000
0000
,
0001
0010
0000
0100
0000
1000
0010
0100
0000
0000
0001
0000
1000
1000
0000
0000
,
1001
0001
0000
1000
0000
1000
0100
1000
0000
0000
1010
0000
0101
0000
0000
0000
,
0001
1000
0000
0010
0000
1000
0001
0010
0000
0000
0100
0000
0010
0110
0000
0000
,
1000
0001
1000
0010
0000
0100
0001
1000
0000
0000
0101
0000
1010
0000
0000
0000
,
1000
0000
0001
0010
0000
0100
0010
0001
0000
0000
0100
0000
0100
0000
0100
0000
,
0010
1000
0000
0001
0000
1000
0010
0100
0000
0000
0000
0000
0000
0000
0000
0000
,
0001
0000
0000
0100
0000
0000
0001
1000
0000
0000
0000
0000
0000
0000
0000
0000
,
0100
0010
0000
0100
0000
0010
0001
1000
0000
0000
0001
0000
0100
0000
0000
0000
,
0010
1000
0000
0001
0000
1000
0100
1000
0000
0000
0100
0000
0010
0000
0001
0000
,
0100
0010
0000
1000
0000
0001
0010
0100
0020
0000
0031
0000
0020
0000
0130
1000
,
0001
0100
0000
0001
0000
0010
0100
0010
0000
0000
0001
0000
1000
1000
0000
0000
,
0001
0100
0000
0001
0000
0010
0100
0010
0002
0000
0013
0000
0200
0000
1300
0010
,
0100
0000
0000
0001
0000
1000
0001
1000
0000
0000
0100
0000
0100
0000
0100
0000
,
1001
1000
0000
0010
0000
0001
0010
1000
0002
0000
0013
0000
0002
0000
1003
0100
,
1000
0100
0000
0001
0000
0100
1000
0010
0000
0000
0100
0000
0001
0001
0000
0000
,
1000
0001
1000
0100
0000
1000
0100
0010
0002
0000
0103
0000
0020
0000
0130
0010
,
1000
0010
0000
1000
0000
0010
0100
0001
0000
0000
0010
0000
0001
0001
0000
0000
,
0001
0100
0000
0010
0000
0100
0010
1000
0200
0000
0310
0000
0200
0000
1300
0001
,
0100
0001
0000
0010
0000
0100
0010
0100
0000
0000
0011
0000
1000
1000
0000
0000
,
1000
0001
0010
0001
0000
0100
0000
0001
1000
0001
0100
0001
0000
0100
0000
0001
,
1000
0001
0010
0001
0000
0100
0000
0001
1000
0001
0100
0001
0000
0100
0000
0001
,
1000
0000
0100
0000
0001
0000
0010
0000
1000
0000
0001
0000
2000
0000
0000
3000
,
2000
0000
0000
3000
2000
0000
0000
3000
2000
0000
0000
3000
2000
0000
0000
3000
;

//--------------- dance-single - Pandy as flagdiscount ----------------
#NOTES:
     dance-single:
     Pandy as flagdiscount:
     Challenge:
     16:
     0.744808,0.828815,0.718826,1.073909,1.177836,602,519,83,124,21,0,10,0,0,0.744808,0.828815,0.718826,1.073909,1.177836,602,519,83,124,21,0,10,0,0:
0000
0000
0000
0000
,
0000
0000
0000
0000
,
0000
0000
0000
0000
,
0000
0000
0000
0000
,
0000
0000
0000
0000
,
0001
0100
0000
1010
0000
1000
0100
0010
0200
0000
1300
0000
2000
0000
3010
0000
,
0100
0001
0000
1010
0000
1000
0001
1000
0000
0000
1010
0000
0001
1001
0000
0000
,
1001
0000
0000
0000
0000
0000
0000
0000
0002
0000
0023
0030
0020
0000
2030
0000
0002
0000
0000
0000
3003
0000
0000
0000
0000
0000
0000
0000
0000
0000
2000
0000
,
3002
0000
0000
0000
2003
0000
0000
0000
3002
0000
0203
0300
0200
0000
2300
0000
3002
0000
0000
0000
1003
0000
0000
0000
0001
0000
1001
0000
0000
0000
0000
0000
,
0101
0001
0000
0011
0000
0010
0100
1000
0000
0000
0001
0000
101M
0000
0000
0000
,
1000
0001
0000
0010
0000
0001
0100
0010
0000
0000
1020
0000
0130
0110
0000
0000
,
0010
0100
0010
1000
0000
0100
0010
0001
0000
0000
1000
0000
M101
0000
0000
0000
,
1001
0000
0000
0011
0000
0001
0100
0001
0000
0000
0102
0000
1003
1010
0000
0000
,
1001
0001
0010
0100
0000
0100
0010
0001
1000
0000
0001
0000
101M
0000
0000
0000
,
1000
0010
0000
0110
0000
0100
0001
1000
0000
0000
0101
0000
0001
0011
0000
0000
,
0001
0001
0010
0100
0000
1100
0000
1000
0001
0001
0010
0100
0000
1100
0000
1000
,
0002
0000
0023
0000
2030
0000
3200
0000
0302
0000
2003
0000
0002
0000
0000
3003
,
1000
0000
0000
0000
0000
0000
0020
0030
0000
0000
0000
0000
0020
0030
0000
0000
0000
0000
0001
0000
0000
1000
0000
0000
0000
0000
0000
0000
0000
0000
0001
0000
0000
0000
0000
0000
0100
0000
0000
0001
0000
0000
0010
0000
0000
0100
0000
0000
,
1000
0000
0000
0000
0000
0000
0200
0300
0000
0000
0000
0000
0200
0300
0000
0000
0000
0000
0001
0000
0000
2000
0000
0000
0000
0000
0000
0000
0000
0000
0020
0000
0000
0000
0000
0000
3030
0000
0000
0000
0000
0000
0000
0000
0000
0000
0000
0000
,
0001
0000
0000
0000
0000
0000
0020
0030
0000
0000
0000
0000
0020
0030
0000
0000
0000
0000
1000
0000
0000
0001
0000
0000
0000
0000
0000
0000
0000
0000
0100
0000
0000
0010
0000
0000
0100
0000
0000
0000
0000
0000
0010
0000
0000
0000
0000
0000
,
1000
0000
0000
0000
0000
0000
0200
0300
0000
0000
0000
0000
0200
0300
0000
0000
0000
0000
0001
0000
0000
1000
0000
0000
0000
0000
0000
0000
0000
0000
0110
0000
0000
0000
0000
0000
0001
0000
0000
0020
0000
0000
0000
0000
0000
0000
0000
0000
,
0031
0000
0000
0000
0000
0000
0200
0300
0000
0000
0000
0000
0200
0300
0000
0000
0000
0000
1000
0000
0000
0001
0000
0000
0000
0000
0000
0000
0000
0000
1000
0000
0000
0000
0000
0000
0001
0000
0000
0010
0000
0000
0100
0000
0000
1000
0000
0000
,
0001
0000
0000
0000
0000
0000
0020
0030
0000
0000
0000
0000
0020
0030
0000
0000
0000
0000
1000
0000
0000
0001
0000
0000
0000
0000
0000
0000
0000
0000
1010
0000
0000
0000
0000
0000
0010
0000
0000
0100
0000
0000
0001
0000
0000
1000
0000
0000
,
0100
0100
0000
0010
0100
0000
1000
0000
1020
0000
0000
0230
0000
0000
0301
0000
,
0021
0000
013M
0000
1020
0000
M130
0020
0000
0030
10M1
0000
1010
0000
1100
0000
,
1001
0000
0000
0000
0000
0000
1000
0000
0000
0000
0000
0000
0020
0030
0000
0000
0000
0000
0020
0030
0000
0001
0000
0000
0000
0000
0000
0000
0000
0000
0001
0000
0000
0020
0030
0000
0000
0000
0000
0000
0000
0000
0020
0030
0000
0000
0000
0000
,
0000
0000
0000
0000
0000
0000
1000
0000
0000
0000
0000
0000
0020
0030
0000
0000
0000
0000
0020
0030
0000
0001
0000
0000
0000
0000
0000
0000
0000
0000
0000
0000
0000
0000
0000
0000
0000
0000
0000
0000
0000
0000
0000
0000
0000
0000
0000
0000
,
1001
0000
0000
0000
0000
0000
0001
0000
0000
0000
0000
0000
0200
0300
0000
0000
0000
0000
0200
0300
0000
1000
0000
0000
0000
0000
0000
0000
0000
0000
1000
0000
0000
0200
0300
0000
0000
0000
0000
0000
0000
0000
0200
0300
0000
0000
0000
0000
,
0000
0000
0000
0000
0000
0000
0001
0000
0000
0000
0000
0000
0200
0300
0000
0000
0000
0000
0200
0300
0000
1000
0000
0000
0000
0000
0000
0000
0000
0000
0000
0000
0000
0000
0000
0000
0000
0000
0000
0000
0000
0000
0000
0000
0000
0000
0000
0000
,
0001
0100
0010
1000
0001
0010
0100
1000
0001
1000
0010
1000
0001
0010
0100
1000
,
0100
2000
0000
3020
0000
0031
0010
1000
0002
0000
0023
0000
0230
0000
2300
0000
,
3004
0003
0004
0043
0430
0300
4000
3400
0300
0040
0030
0400
4300
3000
0004
0003
,
1001
0000
0201
0000
2300
0000
3100
M101
,
0000
0000
0021
0000
1000
0000
0031
10M1
,
0000
0000
0002
0203
2300
3020
0031
0000
,
2000
3200
0302
0023
2030
0000
0000
3000
,
1001
0000
1200
0000
0001
0000
1300
1M01
,
0000
0000
1020
0000
0001
0000
1030
01M1
,
1010
0000
0000
0000
0000
0000
0000
0000
2000
3000
0020
0030
0020
0030
0002
0003
2000
0000
0000
3000
0000
0000
0000
0000
0000
0000
0000
0000
0000
0000
0002
0003
,
2000
3000
0000
0000
2000
0000
3000
0000
0002
0003
0020
0030
0020
0030
2000
3000
0002
0000
0000
0003
1000
0000
0000
0000
0010
0000
0110
0000
0000
0000
0000
0000
,
1001
1000
0000
0001
0000
0010
0100
0010
0000
0000
0011
0000
11MM
0000
0000
0000
,
1000
0010
0000
0100
0000
0010
1000
0001
0000
0000
1000
0000
0001
1001
0000
0000
,
1000
0000
0000
0000
0200
0300
0000
0000
0200
0300
0000
0000
0001
0000
0000
0000
0000
0000
0000
0000
0001
0000
0000
0000
0100
0000
0000
0000
0010
0000
0000
0000
0000
0000
0000
0000
0000
0000
0000
0000
1010
0000
0000
0000
0000
0000
0000
0000
M1M1
0000
0000
0000
0000
0000
0000
0000
0000
0000
0000
0000
0000
0000
0000
0000
,
0001
1000
0000
0010
0000
0100
0001
0010
0000
0000
0110
0000
1000
1100
0000
0000
,
1001
1000
0010
1000
0000
0100
0010
0100
0000
0000
1100
0000
MM11
0000
0000
0000
,
0001
0100
0000
0001
0000
1000
0100
0010
0000
0000
0011
0000
1001
0001
0000
0000
,
0001
0000
0000
0200
0300
0000
0200
0300
0000
1000
0000
0000
0000
0000
0000
1000
0000
0000
0001
0000
0000
0010
0000
0000
0100
0000
0000
0000
0000
0000
1100
0000
0000
0000
0000
0000
1M01
0000
0000
0000
0000
0000
0000
0000
0000
0000
0000
0000
,
0001
0010
0000
1000
0000
0010
0001
0100
0000
0000
0101
0000
1010
0000
1100
0000
,
1001
1000
0000
0001
0000
0010
0100
1000
0000
0002
0203
0000
031M
0000
0000
0000
,
0100
0000
0000
0001
0000
0000
1000
0200
0320
0030
0100
0000
0M10
0002
0000
0000
,
1003
0001
0000
0100
0000
0001
0010
0200
0000
1300
0010
0000
1M01
0000
0000
0000
,
1000
0000
0000
0100
0000
0000
0200
2300
0000
0000
3100
0000
0M10
0001
0000
0000
,
1000
0000
0000
0010
0000
0000
0000
0000
0000
0101
0000
0000
0000
0000
0000
0001
0000
0000
1000
0000
0000
0001
0000
0000
1000
0000
0000
0000
0000
0000
0020
0030
0000
0000
0000
0000
0020
0030
0000
0000
0000
0000
0001
0000
0000
1000
0000
0000
,
0100
0000
0000
1010
0000
0010
0100
0001
0000
0000
1000
0000
0001
1001
0000
0000
,
0001
0000
0010
0000
0000
0000
0100
0000
0000
0000
0010
0000
0001
0000
1000
0000
0001
0000
0000
0000
0020
0030
0000
0000
0020
0030
0000
0000
1000
0000
0001
0000
,
0100
0000
0000
0101
0000
0001
0010
0100
0000
0000
1100
0000
0110
0000
0011
0000
,
1001
0000
1000
0000
0000
0000
0010
0000
0000
0000
0100
0000
0010
0000
1000
0000
0001
0000
0000
0000
0020
0030
0000
0000
0020
0030
0000
0000
1000
0000
0001
0000
,
0100
0000
0000
0101
0000
0001
0010
0100
0000
0000
1000
0000
0001
0101
0000
0000
,
1000
0000
0000
0020
0030
0000
0020
0030
0000
0001
0000
0000
0000
0000
0000
1000
0000
0000
0001
0000
0000
0100
0000
0000
0001
0000
0000
0000
0000
0000
0200
0300
0000
0000
0000
0000
0200
0300
0000
0000
0000
0000
1000
0000
0000
0001
0000
0000
,
0010
0000
0100
1000
0000
0100
1000
0001
0000
0000
1000
0000
0001
1001
0000
0000
,
1000
0000
0000
0010
0000
0000
0000
0000
0000
0101
0000
0000
0000
0000
0000
0001
0000
0000
0010
0000
0000
0100
0000
0000
1000
0000
0000
0000
0000
0000
0200
0300
0000
0000
0000
0000
0200
0300
0000
0000
0000
0000
0001
0000
0000
1000
0000
0000
,
0010
0000
0000
1001
0000
0001
0010
0100
0000
0000
1000
0000
0001
0101
0000
0000
,
0001
0001
0010
0100
0000
1100
0000
1000
0001
0001
0010
0100
0000
1100
0000
1000
,
0001
0001
0010
0100
0000
1100
0000
1000
0001
0001
0010
0100
0000
1100
0000
0001
,
2000
0000
0000
3200
0000
0000
0302
0000
0000
0023
0000
0000
2030
0000
0000
3002
0000
0000
2003
0000
0000
0000
0000
3000
,
2000
0000
0000
0000
0000
3000
2000
0000
0000
0000
0000
3000
2000
0000
0000
0000
0000
3000
2000
0000
0000
0000
0000
0000
,
3000
0000
0000
0000
;

//--------------- dance-double - Pandemonium X ----------------
#NOTES:
     dance-double:
     Pandemonium X:
     Easy:
     6:
     0.256105,0.341659,0.181872,0.173211,0.051963,207,186,21,20,0,0,0,0,0,0.256105,0.341659,0.181872,0.173211,0.051963,207,186,21,20,0,0,0,0,0:
00000000
00000000
00000000
00000000
,
00000000
00000000
00000000
00000000
,
00000000
00000000
00000000
00000000
,
00000000
00000000
00000000
00000000
,
00000000
00000000
00000000
00000000
,
00001000
00010000
00000200
00002300
,
00003010
00000100
00000001
00000010
,
00001100
00000000
00000100
00010000
00001000
00000000
00000000
00000000
,
00010000
00000000
00001000
01000000
00100000
00000000
10000000
00000000
,
01010000
00010000
10000000
00000000
,
01000000
00001000
00010000
00000000
,
00000100
00001000
00000010
00000000
,
00000100
00000001
00001000
00000000
,
00000100
00010000
00001000
00000000
,
00100000
00001000
01000000
00000000
,
01100000
00000000
10010000
00000000
,
10000000
01000000
00100000
00010000
,
00101000
00001000
00010000
00000000
,
00001000
00010000
00001000
00000000
,
00010000
00000100
00001000
00000000
,
00000010
00000100
00000010
00000000
,
00000100
00000001
00000010
00000000
,
00000100
00010000
00001000
00000000
,
00011000
00000000
00001000
00000000
,
01000000
00100000
10010000
00000000
,
10000000
00010000
00100000
00001000
,
00010000
00000100
00001100
00000000
,
00001000
00000100
00010000
00001000
,
01000000
00010000
10010000
00000000
,
00010000
00100000
00001000
00010000
,
00022000
00000000
00000000
00000000
,
00033000
00000000
00000000
00000000
,
00001100
00001000
00000010
00000100
,
00000000
00000010
00001000
00000001
,
00000000
00000001
00001000
00000010
,
00001000
00000001
00000022
00000000
,
00000033
00000001
00001000
00000100
,
00000000
00010000
00001000
01000000
,
01100000
00000000
00010000
01000000
00010000
00000000
00000000
00000000
,
10000000
00000000
01000000
00100000
01000000
00000000
10000000
00000000
,
00010000
00000000
00000000
10000000
00000000
00000000
00100000
00000000
00000000
00000000
00000000
00000000
00000000
00000000
00000000
00000000
,
01000000
00000000
00000000
00010000
00000000
00000000
00100000
00000000
00000000
00000000
00000000
00000000
00000000
00000000
00000000
00000000
,
00001000
00000000
00000000
00010000
00000000
00000000
00000100
00000000
00000000
00000000
00000000
00000000
00000000
00000000
00000000
00000000
,
00001000
00000000
00000000
00000010
00000000
00000000
00000100
00000000
00000000
00000000
00000000
00000000
00000000
00000000
00000000
00000000
,
00000001
00000000
00000000
00000010
00000000
00000000
00000100
00000000
00000000
00000000
00000000
00000000
00000000
00000000
00000000
00000000
,
00000010
00000000
00000000
00000100
00000000
00000000
00001000
00000000
00000000
00000000
00000000
00000000
00000000
00000000
00000000
00000000
,
00000100
00000000
00000000
00010000
00000000
00000000
00001000
00000000
00000000
00000000
00000000
00000000
00000000
00000000
00000000
00000000
,
01000000
00000000
00000000
00100000
00000000
00000000
10000000
00000000
00000000
00000000
00000000
00000000
00000000
00000000
00000000
00000000
,
00020000
00000000
00000000
00000000
00000000
00000000
00000000
00030000
00000000
00000000
00000000
00000000
00000000
00000000
00000000
00000000
,
00200000
00000000
00000000
00000000
00000000
00000000
00000000
00300000
00000000
00000000
00000000
00000000
00000000
00000000
00000000
00000000
,
00002000
00000000
00000000
00000000
00000000
00000000
00000000
00003000
00000000
00000000
00000000
00000000
00000000
00000000
00000000
00000000
,
02000000
00000000
00000000
00000000
00000000
00000000
00000000
03000000
00000000
00000000
00000000
00000000
00000000
00000000
00000000
00000000
,
00020000
00000000
00130000
00001000
,
00020000
00000000
00030100
00000000
,
00002000
00000000
00003010
00000100
,
00000002
00000000
00001003
00000001
,
00000110
00000010
00002000
00003200
,
00010300
00001000
01000000
10010000
,
00010000
10000000
02000000
03200000
,
01300000
00010000
00100000
00101000
,
00001000
00010000
00000200
00002300
,
00003010
00000100
00000001
00001001
,
00000110
00000000
00001001
00000000
,
00000110
00000000
00001001
00000000
,
00000001
00000100
00000010
00001000
,
00001000
00001000
00001000
00001000
;

//--------------- dance-double - Pandemonium X ----------------
#NOTES:
     dance-double:
     Pandemonium X:
     Medium:
     11:
     0.455298,0.512488,0.207853,0.268477,0.346422,368,344,24,31,0,0,0,0,0,0.455298,0.512488,0.207853,0.268477,0.346422,368,344,24,31,0,0,0,0,0:
00000000
00000000
00000000
00000000
,
00000000
00000000
00000000
00000000
,
00000000
00000000
00000000
00000000
,
00000000
00000000
00000000
00000000
,
00000000
00000000
00000000
00000000
,
00010000
00000000
00000100
00000000
00001000
00000010
00000100
00000001
,
00000010
00000000
00000000
00000000
00000100
00000000
00000000
00000000
00001000
00000000
00000100
00000000
00010000
00000100
00000000
00000000
,
00011000
00000000
00000000
00000000
00001000
00000000
01000000
00000000
00200000
00000000
00000000
00000000
00300000
00000000
00000000
01000000
,
00100000
00000000
01000000
00000000
00010000
00000000
10000000
00000000
00020000
00000000
00130000
00000000
00001000
00010000
00000000
00000000
,
00001100
00000000
00000000
00001000
00000000
00000000
00000010
00000000
00000000
00000000
00000100
00000000
00000001
00000000
00000000
00000000
,
00001000
00000000
00000000
00000010
00000000
00000000
00000100
00000001
00000000
00000000
00001000
00000000
00000100
00010000
00000000
00000000
,
00011000
00000000
00000000
00001000
00000000
00000000
01000000
00100000
00000000
00000000
01000000
00000000
00010000
00000000
00000000
00000000
,
10000000
00000000
00000000
01000000
00000000
00000000
00100000
01000000
00000000
00000000
00100000
00000000
00001000
00010000
00000000
00000000
,
00010100
00000000
00000000
00000100
00000000
00000000
00001000
00000010
00000000
00000000
00000100
00000000
00000001
00000000
00000000
00000000
,
00000010
00000000
00000000
00000100
00000000
00000000
00000010
00000001
00000000
00000000
00001000
00000000
00000100
00010000
00000000
00000000
,
00011000
00000000
00000000
01000000
00000000
00100000
00000000
00000000
10010000
00000000
00000000
00010000
00000000
00100000
00000000
01000000
,
10000000
00010000
00100000
00001000
00010000
00000010
00000200
00000000
,
00000301
00000000
00001000
00000000
00000100
00000000
00001000
00000100
00000000
00000000
00000000
00000000
00000000
00000000
00000000
00000000
,
00000100
00000000
00010000
00000000
00001000
00000000
00000000
01000000
00000000
00000000
00100000
00000000
00000000
00000000
00000000
00000000
,
01000000
00000000
00010000
00000000
10000000
00000000
00010000
00100000
00000000
00000000
00000000
00000000
00000000
00000000
00100000
00000000
,
00001000
00000000
00010000
00000000
00000100
00000000
00000010
00000100
00000000
00000000
00000000
00000000
00000000
00000000
00000000
00000000
,
00000100
00000000
00000010
00000000
00001000
00000000
00000100
00010000
00000000
00000000
00000000
00000000
00000000
00000000
00000000
00000000
,
00001000
00000000
01000000
00000000
00100000
00000000
10000000
00010000
00000000
00000000
00100000
00000000
00000000
00000000
00000000
00000000
,
01100000
00000000
00000000
00000000
10000000
00000000
00010000
00000000
00100000
00000000
00000000
00100000
00000000
00000000
00010000
00000000
,
01000000
00000000
00001000
00000000
00010000
00000000
00001000
00100000
00000000
00000000
00000000
00000000
00000000
00000000
00000000
00000000
,
01000000
00000000
10000000
00000000
00010000
00000000
00000000
01000000
00000000
00000000
00000000
00020000
00000000
00000000
00130000
00000000
,
00000000
00000000
00001000
00000000
00010000
00000000
00000100
00001000
00000000
00000000
00000000
00000000
00000000
00000000
00000000
00000000
,
00010000
00000000
00000100
00000000
00001000
00000000
00000010
00000100
00000000
00000000
00000000
00000002
00000000
00000000
00000013
00000000
,
00000000
00000000
00000100
00000000
00000010
00000000
00000001
00001000
00000000
00000000
00000000
00000000
00000000
00000000
00000000
00000000
,
00000010
00001000
00000100
00010000
00001000
01000000
00100000
10000000
,
00220000
00000000
00000000
00330000
,
10000000
00000000
00010000
01000000
00100000
00000000
10000000
00010000
00000000
00100000
00000000
00001000
00010000
00000000
00000100
00000000
,
00011000
00000000
00010000
00000000
00000200
00000000
00001000
00001300
,
00000000
00000000
00000010
00000000
00000200
00000000
00000001
00000301
,
00000000
00000000
00000001
00000100
00001000
00010000
00100000
00000000
,
01000000
00010000
00100000
00001000
00022000
00000000
00000000
00033000
,
00101000
00000000
00100000
00000000
00020000
00000000
01000000
01030000
,
00000000
00000000
00100000
00000000
20000000
00000000
01000000
31000000
,
00110000
00000000
00000000
00000000
00100000
00000000
00001000
00000000
00020000
00000000
00000000
00000000
00030000
00000000
00000000
00000010
,
00000100
00000001
00001000
00000100
00020000
00000000
00030000
00000000
,
00011000
00000000
00000000
00001000
00000000
00000000
01000000
00000000
00000000
00000000
00100000
00000000
10000000
00000000
00000000
00000000
,
10010000
00000000
00000000
00010000
00000000
00000000
00100000
00000000
00000000
00000000
01000000
00000000
10000000
00100000
00000000
00000000
,
01010000
00000000
00000000
00010000
00000000
00000000
00100000
00000000
00000000
00000000
00100000
00000000
01000000
00000000
00000000
00000000
,
00100000
00000000
00000000
00001000
00000000
00000000
00010000
00000000
00000000
00000000
00000100
00000000
00001000
00000010
00000000
00000000
,
00000101
00000000
00000000
00000001
00000000
00000000
00001000
00000000
00000000
00000000
00000100
00000000
00000010
00000000
00000000
00000000
,
00000100
00000000
00000000
00010000
00000000
00000000
00001000
00000000
00000000
00000000
01000000
00000000
00100000
10000000
00000000
00000000
,
00110000
00000000
00000000
00100000
00000000
00000000
01000000
00000000
00000000
00000000
10000000
00000000
00100000
00000000
00000000
00000000
,
01000000
00000000
00000000
00010000
00000000
00000000
00100000
00000000
00000000
00000000
00001000
00000000
00010000
00000000
00000010
00000000
,
00020000
00000000
00000000
00030200
00000000
00000000
00001300
00000000
00000000
00000000
00000000
00000000
00000000
00000000
00000000
00000000
,
00000020
00000000
00000000
00000230
00000000
00000000
00000301
00000000
00000000
00000000
00000000
00000000
00000000
00000000
00000000
00000000
,
00000020
00000000
00000000
00000032
00000000
00000000
00001003
00000000
00000000
00000000
00000000
00000000
00000000
00000000
00000000
00000000
,
00000200
00000000
00000000
00020300
00000000
00000000
00031000
00000000
00000000
00000000
00000000
00000000
00000000
00000000
00000000
00000000
,
00020000
00000000
00000000
00032000
00000000
00000000
01003000
00000000
00100000
00000000
10000000
00000000
00010000
00000000
00100000
00000000
,
02000000
00000000
00000000
03200000
00000000
00000000
00301000
00000000
00000000
00000000
00010000
00000000
00001000
00010000
00000000
00000000
,
00020000
00000000
00000000
00030200
00000000
00000000
00001300
00000000
00000010
00000000
00000100
00000000
00000001
00000000
00000010
00000000
,
00000200
00000000
00000000
00020300
00000000
00000000
00031000
00010000
00000000
00000000
00001000
00000000
01000000
00000000
00100000
00000000
,
10010000
00000000
00000000
10000000
00000000
00000000
01000000
00000000
10000000
00000000
00100000
00000000
01000000
00000000
00010000
00000000
,
00100000
00000000
00000000
00001000
00000000
00000000
00010000
00000000
00000000
00000000
00000100
00000000
00001000
00000010
00000000
00000000
,
00000101
00000000
00000000
00000001
00000000
00000000
00000010
00000000
00000001
00000000
00000100
00000000
00000010
00000000
00010000
00000000
,
00001000
00000000
00000000
00010000
00000000
00000000
00001000
00000000
00000000
00000000
01000000
00000000
00100000
10000000
00000000
00000000
,
10010000
00000000
00000000
10000000
00000000
00000000
00010000
00000000
00100000
00000000
01000000
00000000
10000000
00000000
00010000
00000000
,
01000000
00000000
00000000
00010000
00000000
00000000
00100000
00000000
00000000
00000000
00001000
00000000
00010000
00001000
00000000
00000000
,
00010100
00000000
00000000
00001000
00000000
00000010
00000000
00000000
00000101
00000000
00000000
00000001
00000000
00001000
00000000
00000000
,
00010100
00000000
00000000
00001000
00000000
00000010
00000000
00000000
00001010
00000000
00000000
00000010
00000000
00010000
00000000
00001000
,
01000000
10000000
01000000
00010000
00100000
00001000
00010000
00000000
,
00010000
00010000
00010000
00010000
;

//--------------- dance-double - Pandemonium X ----------------
#NOTES:
     dance-double:
     Pandemonium X:
     Hard:
     15:
     0.658202,0.828815,0.346422,0.554276,0.879047,532,492,40,64,0,0,0,0,0,0.658202,0.828815,0.346422,0.554276,0.879047,532,492,40,64,0,0,0,0,0:
00000000
00000000
00000000
00000000
,
00000000
00000000
00000000
00000000
,
00000000
00000000
00000000
00000000
,
00000000
00000000
00000000
00000000
,
00000000
00000000
00000000
00000000
,
00001000
01000000
00000000
00100000
00000000
00100000
01000000
00010000
20000000
00000000
31000000
00000000
00200000
00000000
00310000
01000000
,
00010000
00000000
00000000
00100000
00000000
00001000
00010000
00001000
00000000
00000000
00010000
00000000
00000100
00000100
00000000
00000000
,
00001100
00000000
00000000
00000000
00000001
00000010
00000100
00001000
00000200
00000000
00000000
00000000
00000300
00000000
00000000
00001000
,
00000001
00000000
00001000
00000000
00000001
00000010
00000100
00001000
00000200
00000000
00020300
00000000
00001000
00031000
00000000
00000000
,
00101000
00100000
00000000
01000000
00000000
01000000
10000000
00100000
00000000
00100000
01000000
00000000
01010000
00000000
00000000
00000000
,
01000000
00000000
00000000
00010000
00000000
00100000
00001000
00010000
00000000
00001000
00010000
00000000
00000100
00000100
00000000
00000000
,
00001100
00001000
00000100
00000010
00000100
00000000
00001000
00000100
00000000
00010000
00001000
00000000
01000000
00000000
00000000
00000000
,
01010000
00000000
00000000
10000000
00000000
00010000
10000000
01000000
00000000
00000000
00100000
00000000
01000000
01000000
00000000
00000000
,
01100000
01000000
10000000
00010000
00000000
00010000
10000000
00100000
00000000
00100000
01000000
00000000
01010000
00000000
00000000
00000000
,
00010000
00000000
00000000
00100000
00000000
00001000
00010000
00000100
00000000
00000000
00001100
00000000
00000001
00000001
00000000
00000000
,
00001000
00000001
00000100
00000010
00000000
00001000
00000000
00000100
00010000
00001000
00100000
00010000
00000000
01000000
00000000
00100000
,
10000000
01000000
00100000
00010000
00001000
00000100
00000020
00000000
,
00000230
00000000
00010300
00000000
00001000
00000000
00100000
01000000
00000000
00000000
01000000
00000000
00100000
00010000
10000000
00000000
,
00020000
00000000
01030000
00000000
00020000
00000000
00130000
00002000
00000000
00000000
00013000
00000000
00000000
00000000
00000000
00000000
,
00000010
00000000
00000100
00000000
00000001
00000000
00001000
00000200
00000000
00000000
00000010
00000310
00000000
00000000
00000100
00000000
,
00020000
00000000
00031000
00000000
02000000
00000000
03100000
10000000
00000000
00000000
00010000
00000000
10000000
00200000
00000000
00000000
,
02300000
00000000
03001000
00000000
00020000
00000000
00030100
00001000
00000000
00001000
00000010
00000000
00000100
00000001
00000100
00000010
,
00002000
00000000
00003100
00000000
00020000
00000000
00031000
02000000
00000000
00000000
03010000
00000000
10000000
00010000
00000000
00000000
,
01000000
01000000
00000000
00000000
00100000
00000000
10000000
00000000
00020000
00000000
00000000
00130000
00000000
00000000
00100000
00000000
,
00001000
00000000
00010000
00000000
00000100
00000000
00000010
00000010
00000000
00000000
00001001
00000000
00001001
00000000
00000110
00000000
,
00001001
00000000
00001000
00000000
00000100
00000000
00010000
00001000
00000000
00000000
00010000
00000020
00000000
00000000
00000130
00000000
,
00000000
00000000
00000010
00000000
00010000
00000000
00001000
00011000
00000000
00000000
00000000
00000000
00000000
00000000
00000000
00000000
,
00001000
00000000
01000000
00000000
00100000
00000000
10000000
00010000
00000000
00000000
00100000
02000000
00000000
00000000
13000000
00000000
,
00000000
00000000
00010000
00000000
00100000
00000000
00001000
00011000
00000000
00000000
00000000
00000000
00000000
00000000
00000000
00000000
,
00010000
00000010
00000100
00000001
00000010
00000100
00010000
00001000
,
01000000
00100000
00000000
01000000
00000000
00100000
10000000
00010000
00200000
00000000
10300000
00000000
00200000
00000000
00310000
00000000
,
02000000
03000000
00000000
00000000
00002000
00003000
00020000
00030000
00000020
00000030
00000000
00000000
00000200
00000300
00000002
00000003
00000000
00000000
00000020
00000030
00000000
00000000
00002000
00003000
00000020
00000030
00000000
00000000
00000002
00000003
00000000
00000000
,
00001001
00000000
00000020
00000000
00020030
00000000
00031000
00011000
,
00000000
00000000
00002000
00000000
02003000
00000000
03100000
10010000
,
00000000
00000000
10000000
01000000
00100000
00010000
00100000
00000000
,
00001000
00010000
00001000
00100000
02000000
00000000
00000000
00000000
,
13000000
00000000
00210000
00000000
00302000
00000000
00013000
00011000
,
00000000
00000000
00010200
00000000
00002300
00000000
00003010
00001010
,
00000101
00000000
00000000
00000000
00000001
00000100
00000010
00010000
00001000
00000000
00000000
00000000
00000000
00000000
00000000
00010000
,
00001000
00000000
00010000
00000000
00001000
01000000
00100000
10000000
00020000
00000000
00230000
00000000
01000000
01300000
00000000
00000000
,
10010000
10000000
00000000
00010000
00000000
00100000
00001000
00010000
00000000
00000100
00001000
00000000
00001010
00000000
00000000
00000000
,
00000010
00000100
00000000
00000001
00000000
00001000
00000100
00000010
00000000
00000000
00000001
00000000
00000010
00000010
00000000
00000000
,
00000001
00000010
00000100
00001000
00000000
00000100
00010000
00001000
00000000
00010000
00000100
00000000
00010100
00000000
00000000
00000000
,
00001000
00000000
00000000
01000000
00000000
00100000
10000000
00010000
00000000
00000000
10000000
00000000
01000000
01000000
00000000
00000000
,
01100000
01000000
10000000
00010000
00000000
01000000
00010000
00100000
00000000
00001000
00010000
00000000
00010100
00000000
00000000
00000000
,
00001000
00000010
00000000
00000100
00000000
00000001
00000010
00000100
00000000
00000000
00010000
00000000
00001000
00001000
00000000
00000000
,
00010000
00000010
00000100
00000001
00000000
00000000
00000010
00000100
00000000
00000100
00001000
00000000
00000011
00000000
00000000
00000000
,
00000001
00000000
00000000
00000100
00000000
00000000
00000010
00010000
00000000
00000000
00011000
00000000
00011000
00000000
00011000
00000000
,
00001000
01000000
00000000
00100000
00000000
10000000
00010000
00100000
00000000
00000000
00000000
00000000
00000000
00000000
00000000
00000000
,
01000000
00000000
00000000
10000000
00000000
00000000
00010000
10000000
00000000
00000000
00000000
00000000
00000000
00000000
00000000
00000000
,
00010000
01000000
00000000
00010000
00000000
00100000
00001000
00010000
00000000
00000000
00000000
00000000
00000000
00000000
00000000
00000000
,
00010000
00000000
00000000
00000100
00000000
00000000
00001000
00000010
00000000
00000000
00000000
00000000
00000000
00000000
00000000
00000000
,
00000100
00000010
00000000
00001000
00000000
00000100
00010000
00001000
02000000
00000000
03010000
00000000
20000000
00000000
30100000
01000000
,
00010000
00000000
00000000
01000000
00000000
00100000
10000000
00010000
00000000
00000000
10000000
00000000
01000000
01000000
00000000
00000000
,
00100000
01000000
00000000
10000000
00000000
10000000
00010000
00100000
00002000
00000000
00013000
00000000
00020000
00000000
00030010
00000100
,
00000001
00000000
00000000
00000010
00000000
00000000
00000100
00000010
00000000
00000000
00000011
00000000
00000011
00000000
00001100
00000000
,
00001001
00000001
00000000
00000100
00000000
00000010
00010000
00001000
00020000
00000000
00030100
00000000
00020000
00000000
00031000
01000000
,
00100000
10000000
00000000
01000000
00000000
01000000
10000000
00010000
00000000
00000000
10000000
00000000
00010000
00010000
00000000
00000000
,
00100000
00001000
00010000
00000010
00000000
00000100
00000000
00000100
00000002
00000000
00000013
00000000
00000200
00000000
00001300
00000010
,
00010000
00000000
00000000
00001000
00000000
00010000
00001000
01000000
00000000
00000000
00100000
00000000
10000000
10000000
00000000
00000000
,
00110000
00100000
00000000
01000000
00000000
00100000
00010000
01000000
00020000
00000000
00130000
00000000
00002000
00000000
00013000
00000010
,
00000100
00000000
00000000
00000001
00000000
00000010
00000100
00001000
00000000
00000000
00000100
00000000
00010000
00010000
00000000
00000000
,
00001000
00001000
00010000
00000010
00000000
00000110
00000000
00000100
00000010
00000010
00010000
00001000
00000000
00011000
00000000
00001000
,
01000000
01000000
00100000
01000000
00000000
01100000
00000000
00100000
01000000
01000000
00001000
00010000
00000000
00011000
00000000
00010000
,
00000200
00010300
00002000
01003000
00002000
00023000
00030020
00000000
,
00000230
00000320
00000230
00000320
,
00000030
00000000
00000000
00000000
;

//--------------- dance-double - Pandemonium X ----------------
#NOTES:
     dance-double:
     Pandemonium X:
     Challenge:
     16:
     0.722538,0.942242,0.580257,1.203817,1.004625,584,517,67,139,0,0,10,0,0,0.722538,0.942242,0.580257,1.203817,1.004625,584,517,67,139,0,0,10,0,0:
00000000
00000000
00000000
00000000
,
00000000
00000000
00000000
00000000
,
00000000
00000000
00000000
00000000
,
00000000
00000000
00000000
00000000
,
00000000
00000000
00000000
00000000
,
00010000
00000100
00000000
00000100
00000000
00000100
00001000
00000010
00000200
00000000
00001300
00000000
00000200
00000000
00000302
00000023
,
00000130
00000000
00010000
00001000
00000000
00010000
00001000
01000000
00000000
00000000
00100000
00000000
01000000
10010000
00000000
00000000
,
01100000
00000000
00000000
00000000
00000000
00000000
00000000
00000000
10000000
00000000
02000000
03000000
02000000
03000000
00010000
00000000
10000000
00000000
00000000
00000000
00000000
00000000
00000000
00000000
00000000
00000000
00000000
00000000
00000000
00000000
10000000
00000000
,
00010000
00000000
00000000
00000000
00010000
00000000
00000000
00000000
00010000
00000000
00200000
00300000
00200000
00300000
10000000
00000000
00010000
00000000
00000000
00000000
10000000
00000000
00000000
00000000
00010000
00000000
01010000
00000000
00000000
00000000
00000000
00000000
,
00011000
00010000
00000000
00000100
00000000
00001000
00000010
00000100
00000000
00000100
00000010
00000000
00001001
00000000
00000000
00000000
,
00000001
00000010
00000000
00000011
00000000
00000001
00001000
00000100
00000000
00000000
00010000
00000000
00001000
00011000
00000000
00000000
,
00101000
00001000
01000000
00100000
00000000
01000000
00010000
10000000
00000000
10000000
00010000
00000000
00100000
00000000
00000000
00000000
,
01000000
00000000
00000000
10000000
00000000
00100000
01000000
00010000
00000000
00000000
00100000
00000000
00100000
00101000
00000000
00000000
,
00010100
00000100
00001000
00000010
00000000
00000100
00000001
00001000
00000000
00001000
00000001
00000000
00000010
00000000
00000000
00000000
,
00000100
00000000
00000000
00010000
00000000
00000000
00001000
01000000
00100000
00000000
01000000
00000000
00010000
01010000
00000000
00000000
,
00010000
00100000
00001000
00010000
00000000
00010100
00000000
00000100
00010000
00000100
00010000
00001000
00000000
01001000
00000000
00001000
,
00020000
00030010
00000020
00010030
00002000
00203000
02300000
00000000
,
23000000
00000000
30200000
00000000
02300000
00000000
03002000
00020000
00033000
00000100
00010000
00000000
00010000
00000010
00000100
00000001
,
00002000
00000000
00003200
00000000
00020300
00000000
00032000
02000000
00003000
00000000
03010000
00000000
10000000
01000000
00000000
00000000
,
00200000
00000000
00302000
00000000
00023000
00000000
00030020
00000230
00000300
00000000
00000001
00001000
00000001
00000000
00001000
00000000
,
00000200
00000000
00020300
00000000
00032000
00000000
00023000
00030200
00000300
00000100
00001000
00000000
00001000
00000020
00000000
00000000
,
00000230
00000000
00000302
00000000
00000023
00000000
00000032
00002000
00003003
00001000
00000001
00000000
00000001
00000010
00000100
00001000
,
00000200
00000000
00020300
00000000
00032000
00000000
02003000
00020000
03000000
00000000
00130000
00000000
01000000
10000000
00000000
00000000
,
00010000
00010000
00000000
00000000
10000000
00000000
00100000
00000000
01020000
00000000
00000000
00230000
00000000
00000000
02300000
00000000
,
03200000
00000000
00320000
00000000
00032000
00000000
00003200
00000320
00000000
00000000
00000001
00000000
00000100
00000000
00000031
00000000
,
00001002
00000000
00000000
00000000
00000000
00000000
00002003
00000000
00000000
00000000
00000000
00000000
00003020
00000000
00000000
00000000
00000000
00000000
00020030
00000000
00000000
00032000
00000000
00000000
00000000
00000000
00000000
00000000
00000000
00000000
02000000
00000000
03000000
02003000
00000000
00000000
00000000
00000000
00000000
00000000
00000000
00000000
00200000
00000000
00000000
03300000
00000000
00000000
,
00000000
00000000
02000000
00000000
03200000
00000000
20300000
00020000
30030000
00000000
00000000
00000000
00000000
00000000
00000000
00000000
,
20000000
00000000
00000000
00000000
00000000
00000000
32000000
00000000
00000000
00000000
00000000
00000000
03200000
00000000
00000000
00000000
00000000
00000000
00302000
00000000
00000000
00023000
00000000
00000000
00000000
00000000
00000000
00000000
00000000
00000000
00000200
00000000
00000300
00030200
00000000
00000000
00000000
00000000
00000000
00000000
00000000
00000000
00002000
00000000
00000000
00003300
00000000
00000000
,
00000000
00000000
00000020
00000000
00000230
00000000
00000302
00002000
00003003
00000000
00000000
00000000
00000000
00000000
00000000
00000000
,
00000001
00000100
00000010
00001000
00000100
00010000
00001000
01000000
00001000
01000000
00100000
10000000
00010000
00100000
01000000
10000000
,
00010000
00200000
00000000
00302000
00000000
00013000
00000010
00000100
00000002
00000000
00000023
00000000
00000230
00000000
00002300
00000000
,
00003400
00000300
00040000
00030400
00004300
00003000
00000400
00040300
00030000
00004000
00003000
04000000
03004000
00003000
00040000
00030000
,
00011000
00000000
00200010
00000000
00302000
00000000
00013000
00011000
,
00000000
00000000
02000100
00000000
03002000
00000000
00013000
00011000
,
00000000
00000000
00200000
00302000
00023000
00030020
00000130
00000000
,
00000020
00000000
00020030
00000000
00032000
00000000
02003000
00000000
03010000
01000000
00100000
01000000
00010000
00000000
00000000
00000000
,
00110000
00000000
00200010
00000000
00302000
00000000
00013000
00011000
,
00000000
00000000
01000200
00000000
00020300
00000000
00031000
00011000
,
00001100
00000000
00000000
00000000
00000000
00000000
00000000
00000000
00001000
00000000
00000200
00000300
00000200
00000300
00000001
00000000
00001000
00000000
00000000
00000000
00000000
00000000
00000000
00000000
00000000
00000000
00000000
00000000
00000000
00000000
00001000
00000000
,
00000001
00000000
00000000
00000000
00000001
00000000
00000000
00000000
00000001
00000000
00000200
00000300
00000200
00000300
00001000
00000000
00000001
00000000
00000000
00000000
00001000
00000000
00000000
00000000
00000010
00000000
00000110
00000000
00000000
00000000
00000000
00000000
,
00001001
00001000
00000000
00000100
00000000
00010000
00001000
01000000
00000000
01000000
00010000
00000000
10010000
00000000
00000000
00000000
,
11000000
00000000
00000000
01100000
00000000
01000000
10000000
00100000
00000000
00000000
01000000
00000000
00010000
01010000
00000000
00000000
,
00110000
00100000
00001000
00010000
00000000
00000100
00001000
00000010
00000000
00000010
00000100
00000000
00001001
00000000
00000000
00000000
,
00000101
00000000
00000000
00001010
00000000
00000010
00001000
00000100
00000000
00000000
00011000
00000000
00001000
01001000
00000000
00000000
,
01100000
00100000
10000000
01000000
00000000
00100000
01000000
10000000
00000000
10000000
00010000
00000000
00110000
00000000
00000000
00000000
,
00011000
00000000
00000000
00101000
00000000
00001000
00010000
00000100
00000000
00000000
00001000
00000000
00000010
00001010
00000000
00000000
,
00000110
00000100
00000001
00001000
00000000
00000001
00000010
00000100
00000000
00000100
00001000
00000000
00001100
00000000
00000000
00000000
,
00010100
00000000
00000000
00011000
00000000
00000000
00001000
02000000
00000000
00000000
00100000
00000000
00010000
00000000
03100000
00000000
,
01000000
00010000
00000000
00100000
00000000
00001000
00010000
00000010
00000000
00000000
00000000
00000000
00000000
00000000
00000000
00000000
,
00000100
00000000
00000000
00000010
00000000
00000000
00010000
00001000
00000000
00000000
00000000
00000000
00000000
00000000
00000000
00000000
,
00010000
00001000
00000000
01000000
00000000
00100000
10000000
00010000
00000000
00000000
00000000
00000000
00000000
00000000
00000000
00000000
,
00100000
00000000
00000000
00001000
00000000
00000000
00010000
00000100
00000000
00000000
00000000
00000000
00000000
00000000
00000000
00000000
,
00000100
00001000
00000000
00000010
00000000
00000100
00000001
00000010
00000200
00000000
00020300
00000000
00032000
00000000
02003000
03200000
,
10300000
00010000
00000000
00100000
00000000
01000000
10000000
00010000
00000000
00000000
10000000
00000000
00100000
01100000
00000000
00000000
,
01000000
00010000
00000000
00100000
00000000
00100000
01000000
10000000
00020000
00000000
00230000
00000000
00302000
00000000
00023000
00030020
,
00000130
00000001
00000000
00000010
00000000
00000100
00000010
00000001
00000000
00000000
00000011
00000000
00001100
00000000
00001010
00000000
,
00010010
00000010
00000000
00000100
00000000
00000010
00010000
00001000
02000000
00000000
03002000
00000000
00023000
00000000
00032000
02003000
,
03100000
10000000
00000000
00110000
00000000
00100000
01000000
10000000
00000000
00000000
00010000
00000000
10000000
10010000
00000000
00000000
,
00110000
00100000
00001000
00010000
00000000
00000010
00000100
00000001
00000020
00000000
00000032
00000000
00002003
00000000
00003200
00020300
,
00031000
00010000
00000000
00000100
00000000
00001000
00000010
00000100
00000000
00000000
00000001
00000000
00000010
00000110
00000000
00000000
,
00001100
00000100
00010000
00001000
00000000
00010000
00001000
01000000
00200000
00000000
20300000
00000000
32000000
00000000
03200000
02300000
,
13000000
01000000
00000000
00110000
00000000
00100000
00001000
00010000
00000000
00000000
00000100
00000000
00000010
00000110
00000000
00000000
,
00001001
00000001
00000100
00000010
00000000
00001010
00000000
00000010
00001010
00001000
00000100
00010000
00000000
00011000
00000000
00001000
,
00011000
00001000
01000000
00100000
00000000
01100000
00000000
00100000
01100000
01000000
00100000
10000000
00000000
10010000
00000000
10000000
,
02000000
00000000
03200000
00000000
00320000
00000000
00032000
00000000
00003200
00000000
00000320
00000000
00000032
00000000
00000000
00000003
,
00000002
00000000
00000000
00000003
00000002
00000000
00000000
00000003
00000002
00000000
00000000
00000003
00000002
00000000
00000000
00000003
;
