#TITLE:GENOCIDE;
#SUBTITLE:;
#ARTIST:dj Killer;
#TITLETRANSLIT:;
#SUBTITLETRANSLIT:;
#ARTISTTRANSLIT:;
#GENRE:;
#CREDIT:;
#MUSIC:GENOCIDE.ogg;
#BANNER:;
#BACKGROUND:GENOCIDE-bg.png;
#CDTITLE:;
#SAMPLESTART:22.393;
#SAMPLELENGTH:11.007;
#SELECTABLE:YES;
#OFFSET:-0.450;
#BPMS:0.000=87.500
,14.000=43.750
,15.000=175.000
,155.000=87.500
,157.000=175.000
;
#STOPS:;
#BGCHANGES:;
#FGCHANGES:;

//--------------- dance-single - Pandemonium X ----------------
#NOTES:
     dance-single:
     Pandemonium X:
     Beginner:
     6:
     0,0,0,0,0:
0000
0000
0000
0000
,
0000
0000
0000
0000
,
0000
0000
0000
0000
,
0000
0000
0000
0001
,
0000
1000
0000
0100
,
0000
0000
0000
1000
,
0000
0001
0000
0100
,
0000
0000
0000
0001
,
0000
1000
0000
0020
,
0000
0000
0000
0130
,
0000
0001
0000
1000
,
0001
1000
0001
1000
,
0000
0010
0000
2000
,
0000
0000
0000
3001
,
0000
0010
0000
0100
,
0000
0010
0000
0001
,
0000
0100
0000
0020
,
0000
0000
0000
0130
,
0000
0001
0000
1001
,
0000
0110
0000
0001
,
0000
0000
0000
1000
,
0000
0000
0000
0010
,
0000
0000
0000
0110
,
0000
0000
0000
0100
,
0000
0100
0000
0010
,
0000
0010
0000
1000
,
0000
1000
0000
0001
,
0000
0001
0000
1000
,
0000
0100
0000
0010
,
0000
0001
0000
0010
,
0000
0001
0000
1000
,
0000
0100
0000
0010
,
0000
0100
0000
1000
,
0000
0001
0000
0100
,
0000
0001
0000
1001
,
0000
0110
0000
0001
,
0000
0000
0000
1000
,
0000
0000
0000
0010
,
0000
0000
0000
0100
,
0000
0010
0000
0010
,
0000
0100
0000
0100
,
0000
0001
0000
0001
,
0000
1000
0000
1000
,
0000
0010
0000
0010
,
0000
0100
0000
0100
,
0000
0001
0000
0001
,
0000
1000
0000
0110
,
0000
0001
0000
1000
,
0000
0100
0000
0010
,
0000
0100
0000
1000
,
0000
0010
0000
0100
,
0001
0100
0000
0001
,
0000
1000
0000
0001
,
1000
0001
0000
0100
,
0000
0000
0010
0100
,
0001
1000
0000
0001
,
0000
0010
0000
0100
,
0000
0010
0000
0001
,
0000
1000
0001
0100
,
0010
1000
0000
0010
,
0000
0100
0000
0001
,
0000
0010
0000
0100
,
0000
0010
0001
1000
,
0010
1001
0000
0000
;

//--------------- dance-single - Pandemonium X ----------------
#NOTES:
     dance-single:
     Pandemonium X:
     Easy:
     9:
     0,0,0,0,0:
0000
0000
0000
0000
,
0000
0000
0000
0000
,
0000
0000
0000
0000
,
0000
0000
0000
0000
0000
0000
0001
1000
,
0010
1000
0100
0010
,
0100
0000
1000
0000
0001
0000
0100
0001
,
0010
0100
0010
0001
,
1000
0000
0100
0000
0010
0000
0100
1000
,
0010
0000
0100
0000
0001
1000
0200
0000
,
0000
0000
0000
0000
0000
0000
0310
0001
,
0100
0010
0100
1001
,
0010
1001
0100
0001
,
0100
0000
0010
0000
1000
0100
0020
0000
,
0000
0000
0000
0130
,
0010
0001
0100
1000
,
0100
0010
1000
0001
,
0010
0000
0001
0000
0100
0001
2000
0000
,
0000
0000
0000
3001
,
0010
0100
1000
0001
,
0100
0000
0010
0000
0100
0001
1000
0000
,
0100
0010
0010
0100
,
1000
0001
0001
0100
,
0010
1000
1000
0010
,
0100
0001
1000
0001
,
0010
1000
0010
0100
,
0001
0100
1000
0010
,
0001
0010
0100
0001
,
0010
1000
0010
0100
,
0001
0100
1000
0010
,
0100
1000
0100
0010
,
0001
0010
0100
0001
,
1000
0100
0001
0100
,
1000
0010
0100
0001
,
0010
1000
0010
0001
,
0100
1000
0100
0010
,
1000
0000
0001
0000
0010
0000
1001
0001
,
1000
0000
0001
0100
0001
0000
1000
1000
,
1000
0000
0001
0001
0001
0000
1000
0010
,
1000
0000
0001
0100
0001
0000
2000
3000
,
0002
0003
1000
0001
0000
0000
0001
0100
,
0000
0000
0100
0010
0000
0000
0010
1000
,
0000
0000
1000
0100
0000
0000
0100
0010
,
0000
0000
0010
0001
0000
0000
0001
0100
,
0000
0000
0010
0100
0000
0000
0001
0010
,
0000
0000
0100
1000
0000
0000
0100
0010
,
0000
0000
0100
1000
0000
0000
0010
0100
,
0000
0000
0001
1000
0010
0000
1002
0000
,
0000
0023
0000
0230
,
0000
2300
0000
3200
,
0000
0310
0002
0000
0000
0103
0020
0000
,
0000
1030
0002
0000
0000
0013
0200
0000
,
1300
0002
0000
0203
,
0000
2300
0000
3200
,
0302
2003
0000
3200
,
0000
0000
0320
0230
,
2300
3001
0010
0001
,
0100
0010
1000
0001
,
0010
0100
0010
0001
,
0100
0000
0010
0000
1000
0100
0010
0001
,
0010
0100
1000
0000
0001
0000
0100
0000
,
0001
1000
0100
0010
,
0100
1000
0001
0100
,
0010
0000
1000
0100
0010
0100
1000
0001
,
0010
0100
2000
0000
0000
0000
0000
0000
,
0000
0000
0000
0000
,
3000
0000
0000
0000
;

//--------------- dance-single - Pandemonium X ----------------
#NOTES:
     dance-single:
     Pandemonium X:
     Medium:
     13:
     0,0,0,0,0:
0000
0000
0000
0000
,
0000
0000
0000
0000
,
0000
0000
0000
0000
,
0000
0000
0000
0000
0000
0000
0001
0001
,
1100
0000
0000
0000
1000
0000
0010
0000
0100
0010
0000
0100
0010
0000
0010
0000
,
1000
0000
0001
0000
0000
1000
0100
0000
1001
0000
0000
0000
1000
0000
1000
0000
,
0011
0000
0000
0000
0001
0000
0100
0000
0010
0100
0000
0010
0100
0000
0100
0000
,
0001
0000
1000
0000
0000
0001
0010
0000
1001
0000
0000
0000
1000
0000
1000
0000
,
0011
0000
0000
0000
0010
0000
0100
0000
1000
0001
0000
0100
0020
0000
0000
0000
,
0000
0000
0000
0000
0000
0000
0130
0001
,
1000
0000
0000
0000
0100
0000
0010
0000
0001
0000
0000
0000
1000
0000
0001
0100
,
0000
0100
0010
0000
0010
1000
0000
1000
0100
0000
0010
0000
0100
0000
1000
0000
,
0000
0000
0010
0000
0001
0000
0010
0000
1000
0000
0001
1000
0200
0000
0000
0000
,
0000
0000
0000
0000
0000
0000
0310
0001
,
0000
0010
0001
0100
0010
0100
0001
1000
,
0000
0000
0100
0000
1000
0000
0010
0000
0100
0001
0000
0001
0010
0000
0100
0000
,
0000
0000
0010
0000
0001
0000
0100
0000
1000
0000
0100
0001
0020
0000
0000
0000
,
0000
0000
0000
0000
0000
0000
0130
1000
,
0000
0000
0100
0000
0010
0000
0001
0000
0100
0000
0001
0000
1000
0000
0001
0100
,
0000
0100
0010
0000
0010
0100
0000
0100
0020
0000
0000
0000
1030
0000
0100
0000
,
1000
0000
0001
0000
0100
0000
1000
0000
0000
0100
0000
0000
0001
0000
0010
0000
,
0100
1000
0100
0010
0010
0100
0010
0001
,
1000
0000
0100
0000
1000
0000
0010
0000
0000
0100
0000
0000
0001
0000
1000
0000
,
0100
0000
0000
0010
0000
0000
0100
0000
0000
1000
0000
0000
0010
0000
0000
0100
0000
0000
0001
0000
0000
0000
1000
0000
,
0100
0000
0100
0010
0000
0010
0001
0000
0000
1001
0000
0001
,
0100
0000
0100
0010
0000
0010
1000
0100
0010
0001
0000
0010
,
0001
0000
0001
0100
0000
0100
0010
0000
0000
1001
0000
1000
,
0010
0000
0010
0100
0000
0100
0001
0000
0001
0010
0000
0100
,
1000
0000
0100
0010
0000
0001
1000
0000
0000
1010
0000
0010
,
1000
0000
0001
0010
0000
0100
0010
0000
0001
0100
0000
0010
,
1000
0000
0100
0010
0000
0001
0100
0000
0000
1001
0000
0001
,
0010
0000
0010
0100
0000
0100
1000
0000
0100
0010
0001
0100
,
0010
0100
0001
0010
0100
1000
0001
0000
0000
1000
0010
0100
,
0010
1000
0010
0100
0001
0010
0100
1000
0100
0010
0100
1000
,
0001
0000
0010
0000
0100
0000
0010
0000
0001
0000
1000
0000
0100
0000
0000
0000
0000
0000
0010
0000
0000
0001
0000
0000
,
0001
0100
0010
0000
1000
0001
1000
0000
1001
0000
1001
0000
0001
0000
0100
0000
,
0010
0000
0100
0001
1000
0000
0100
0100
,
0100
0000
0010
0010
0010
0000
0001
0010
,
0100
0000
0000
0000
0010
0000
0100
0000
1000
0000
0000
0000
0001
0001
0001
0000
,
1000
1000
1000
0000
0001
0000
0101
0000
0000
0000
0100
0000
0010
0000
1010
0000
,
0000
1000
0100
0110
0000
0010
0001
0101
,
0000
0001
1000
1010
0000
1000
0001
0011
,
0000
0001
1000
1100
0000
1000
0001
0101
,
0000
0000
1000
0000
0001
0100
0001
0000
0000
0000
0000
0000
1000
0010
1000
0000
,
0000
0000
0000
0000
0100
0010
0100
0000
0000
0000
0000
0000
0010
0001
0010
0000
,
0000
0000
0000
0000
0100
1000
0100
0000
1000
0000
0010
0000
0100
0010
0100
0000
,
0010
0000
0100
0000
0001
0100
0001
0000
0100
0000
0010
0000
2001
0000
0000
0000
,
0000
3200
1300
0200
,
0310
0002
0103
0020
,
0130
0000
0001
0010
0200
0000
0000
0000
0310
0000
0100
1000
0002
0000
0000
0000
,
1003
0000
0010
1000
0200
0000
0000
0000
0310
0000
0100
1000
0001
0000
0100
0000
,
0010
1000
0000
1000
0200
0000
0000
0000
0310
0000
0000
0000
0002
0000
0000
0000
,
0103
0002
1003
0200
,
0320
0032
0103
0020
,
1030
0001
0020
0230
,
2300
0000
3001
0100
0010
0100
0001
1000
,
0100
0010
0000
0100
0000
0010
0001
1000
,
0100
0010
0100
0010
0001
1000
0010
1000
,
0100
0000
1001
0000
0001
0100
1000
0100
,
0001
1000
0100
0010
0100
1000
0001
0010
,
0100
0010
0000
1100
0000
0100
1000
0010
,
0000
1010
0000
1010
0000
0001
0100
0010
,
1000
0100
0010
0010
0001
0010
0001
0010
,
0100
1000
2002
0000
0000
0000
0000
0000
,
0000
0000
0000
0000
,
3003
0000
0000
0000
;

//--------------- dance-single - Pandemonium X ----------------
#NOTES:
     dance-single:
     Pandemonium X:
     Hard:
     17:
     0,0,0,0,0:
0000
0000
0000
0000
,
0000
0000
0000
0000
,
0000
0000
0000
0000
,
0000
0000
0000
0000
0000
0000
0001
0100
,
1010
0000
0000
0000
1000
0000
0100
0000
0010
0100
0000
1000
0001
0000
0100
0000
,
0110
0000
1000
0000
0000
0001
1000
0000
1000
0001
0000
0000
1000
0000
0100
0000
,
0011
0000
0000
0000
0001
0000
0100
0000
0010
1000
0000
0001
0010
0000
0100
0000
,
1100
0000
0100
0000
0000
1000
0010
0000
0100
0001
0000
1000
0100
0000
1000
0000
,
1001
0000
0000
0000
1000
0000
0010
0000
0100
0001
1000
0001
0200
0000
0000
0000
,
0010
0000
1000
0000
0001
0000
0310
0100
,
1001
0000
0000
0000
1000
0000
0010
0000
1000
0100
0000
0010
0100
1000
0001
0000
,
0100
0001
0000
0010
0100
1000
0001
0100
0001
0010
0100
1000
0001
0100
0001
0000
,
1000
0000
0100
0010
0100
0000
1000
0000
1001
0000
1000
0100
0020
0000
0000
0000
,
0001
0000
0000
0000
1000
0000
0000
0000
0001
0000
0000
0000
0130
1000
0001
0000
,
0100
0000
0010
0100
0001
0000
1000
0000
0001
0010
0100
0010
0001
1000
0001
0000
,
0100
0000
0010
1000
0001
0000
0010
0000
0001
0010
0001
0100
0010
1000
0100
0000
,
0010
0000
0100
1000
0001
0000
1000
0000
0001
0010
0100
0010
0002
0000
0000
0000
,
0010
0000
0000
0000
1000
0000
0000
0000
1000
0000
0000
0000
0013
0001
0100
0000
,
0010
0000
0100
0010
1000
0000
0001
0000
1000
0100
0010
0001
1000
0000
1100
0000
,
0000
0000
0000
0011
0000
0000
0000
0000
0000
0000
0000
0000
1100
0000
0000
0000
0000
0000
1001
0000
0000
0000
0000
0000
0001
0000
0100
0000
0001
0000
0100
0000
0001
0000
0100
0000
0001
0000
0000
1000
0000
0000
0100
0000
0000
0000
0000
0000
,
0010
0001
0010
0100
0010
0001
1000
0010
0000
0010
0000
0000
0100
0010
1000
0000
,
0001
1000
0100
1000
0100
0010
0001
0010
0100
0010
0001
1000
0100
1000
0010
0000
,
0100
0001
0010
0001
1000
0010
1000
0001
0000
0001
0000
0000
1000
0001
0100
0000
,
0010
1000
0001
0010
0100
1000
0100
1000
0001
0100
0001
0010
0100
0000
1000
0010
,
0100
0000
0010
1000
0100
0000
0010
0000
0002
0000
0000
0000
1003
0000
0001
0100
,
0010
0000
0100
0001
0010
0000
0001
0100
0010
1000
0010
1000
0100
0000
1000
0001
,
0010
0000
0001
1000
0010
0000
1000
0001
0020
0000
0000
0000
0130
0000
0010
0001
,
0100
0000
0010
1000
0100
0000
0010
0001
0100
0010
0100
0010
0100
0000
0010
1000
,
0010
0000
0100
0001
0100
0000
0001
0010
0001
0000
0001
0000
1000
0000
0100
1000
,
0100
0000
0010
0001
0010
0000
0001
0100
0001
0000
0001
0000
1000
0000
1000
0001
,
1000
0000
0001
0010
0001
0000
0010
0100
0010
0000
0010
0000
0100
0000
1000
0001
,
1000
0000
0001
0100
0001
0000
1000
0010
1000
0000
0001
0000
1000
0001
0100
0000
,
0010
1000
0100
0000
0010
0001
1000
0000
0020
0000
0230
0000
0301
0100
0010
0000
,
1000
0100
0010
0000
0100
1000
0001
0000
0100
0001
0010
0000
0100
0010
0001
0000
,
0010
0001
1000
0000
0010
0100
0001
0000
2000
0000
3002
0000
1003
0000
0110
0000
,
0001
0100
0010
1000
0100
0010
0001
0100
0010
1000
0010
1000
0001
0000
0100
0000
,
0010
0000
0100
0001
1000
0000
0100
0100
,
0100
0000
0010
0010
0010
0000
0001
0010
,
0100
0000
0000
0000
0010
0000
0001
0000
1000
0000
0000
0000
0010
0010
0010
0000
,
0100
0100
0100
0000
0001
1000
0001
0000
0001
1000
0001
1000
0001
1000
0010
0000
,
1000
0001
1000
0001
1000
0001
0010
0000
0001
1000
0001
1000
0001
1000
0010
0000
,
1000
0001
1000
0001
1000
0001
0100
0000
0001
1000
0001
1000
0001
1000
0100
0000
,
1000
0001
1000
0001
1000
0001
0100
0000
0001
1000
0001
1000
0001
1000
0100
0000
,
1000
0001
1000
0001
0100
0010
1000
0000
0010
0100
0010
0100
0001
1000
0001
0000
,
1000
0001
1000
0001
1000
0100
0010
0000
0100
0010
0100
0010
0001
1000
0010
0000
,
0100
0010
0100
0001
1000
0000
1001
0000
0101
0000
1010
0000
1100
0000
0110
0000
,
0011
0000
0000
0000
0000
0000
0000
0000
0000
0000
0000
0000
0000
0000
0000
0000
0000
0000
0000
0000
0000
0000
0000
0000
0110
0000
0000
0000
0000
0000
0000
0000
0000
0000
0000
0000
0000
0000
0000
0000
0000
0000
0000
0000
0000
0000
0000
0000
1000
0000
0000
0000
0000
0000
0000
0000
0000
0000
0000
0000
0001
0000
0000
0000
0000
0000
0000
0000
0000
0000
0000
0000
1000
0000
0000
0000
0000
0000
0000
0000
0000
0000
0000
0000
0001
0000
0000
0000
0000
0000
0000
0000
0000
0000
0000
0000
1000
0000
0000
0000
0000
0000
0000
0000
0000
0000
0000
0000
0001
0000
0000
0000
0000
0000
0000
0000
0000
0000
0000
0000
1000
0000
0000
0000
0000
0000
0000
0000
0000
0000
0000
0000
0001
0000
0000
0000
0000
0000
0000
0000
0000
0000
0000
0000
1000
0000
0000
0000
0000
0000
0000
0000
0000
0000
0001
0000
0000
0000
0000
0000
0000
0000
0000
1000
0000
0000
0000
0000
0000
0000
0000
0000
0000
0001
0000
0000
0000
0000
0000
0000
0000
0000
1000
0000
0000
0000
0000
0000
0000
0000
0000
0000
,
0001
0000
0000
0000
0000
0000
0000
0000
0000
0000
1000
0000
0000
0000
0000
0000
0000
0000
0000
0001
0000
0000
0000
0000
0000
0000
0000
0000
0000
1000
0000
0000
0000
0000
0000
0000
0000
0000
0001
0000
0000
0000
0000
0000
0000
0000
0000
0000
1000
0000
0000
0000
0000
0000
0000
0000
0000
0000
0000
0000
0010
0000
0000
0000
0000
0000
0000
0000
0000
0000
0000
0000
0100
0000
0000
0000
0000
0000
0000
0000
0000
0000
0000
0000
0000
0000
0000
0000
0000
0000
0000
0000
0000
0000
0000
0000
0001
0000
0000
0000
0000
0000
0000
0000
0000
0000
0000
0000
0000
0000
0000
0000
0000
0000
0000
0000
0000
0000
0000
0000
0010
0000
0000
0000
0000
0000
0000
0000
0000
0000
0000
0000
0000
0000
0000
0000
0000
0000
0000
0000
0000
0000
0000
0000
0100
0000
0000
0000
0000
0000
0000
0000
0000
0000
0000
0000
0010
0000
0000
0000
0000
0000
0000
0000
0000
0000
0000
0000
0001
0000
0000
0000
0000
0000
0000
0000
0000
0000
0000
0000
0000
0000
0000
0000
0000
0000
0000
0000
0000
0000
0000
0000
,
1000
0000
0001
0000
0100
0001
1000
0000
0100
0000
0010
0000
0100
0010
0001
0000
,
0100
0000
0001
0100
2000
0000
0000
0000
3100
0000
1000
0100
0002
0000
0000
0000
,
1003
0000
1000
0100
0002
0000
0000
0000
0103
0000
0100
1000
0010
0000
0100
0000
,
0001
0100
0000
0100
0010
1000
0001
0000
0010
0000
0100
0000
0010
0001
1000
0000
,
0001
0000
1000
0000
0100
1000
0001
0000
0100
0000
0001
0000
0010
0001
1000
0000
,
0100
0010
0001
0000
0001
0100
0010
0000
0100
0000
0001
0000
1000
0100
0010
0000
,
0100
0000
1000
0000
0010
0000
0010
0100
0020
0000
1030
0001
2000
0000
3001
1000
,
0200
0000
0310
0010
0001
0100
0010
0010
,
0100
0001
1000
0100
0000
0100
1000
0010
,
0100
0001
0010
0010
0001
0100
0010
0010
,
0100
0000
1001
0000
0002
0203
2300
3020
,
0032
2003
3001
0001
1000
0100
0010
0010
,
0100
1000
0001
0100
0000
0100
0001
1000
,
0100
0001
0000
0100
0000
1000
0100
0010
,
0001
0000
0000
0000
0000
0000
0000
0000
0000
0000
0000
0000
0000
0000
0000
0000
0000
0000
0000
0000
0000
0000
0000
0000
1000
0000
0000
0000
0000
0000
0000
0000
0000
0000
0000
0000
0000
0000
0000
0000
0000
0000
0000
0000
0000
0000
0000
0000
0001
0000
0000
0000
0000
0000
0000
0000
0000
0000
0000
0000
0100
0000
0000
0000
0000
0000
0000
0000
0000
0000
0000
0000
0010
0000
0000
0000
0000
0000
0000
0000
0000
0000
0000
0000
1000
0000
0000
0000
0000
0000
0000
0000
0000
0000
0000
0000
0001
0000
0000
0000
0000
0000
0000
0000
0000
0000
0000
0000
0100
0000
0000
0000
0000
0000
0000
0000
0000
0000
0000
0000
0010
0000
0000
0000
0000
0000
0000
0000
0000
0000
0000
0000
1000
0000
0000
0000
0000
0000
0000
0000
0000
0000
0000
0000
0001
0000
0000
0000
0000
0000
0000
0000
0000
0000
1000
0000
0000
0000
0000
0000
0000
0000
0000
0001
0000
0000
0000
0000
0000
0000
0000
0000
0000
1000
0000
0000
0000
0000
0000
0000
0000
0000
0001
0000
0000
0000
0000
0000
0000
0000
0000
0000
,
1000
0000
0000
0000
0000
0000
0000
0000
0000
0000
0001
0000
0000
0000
0000
0000
0000
0000
0000
1000
0000
0000
0000
0000
0000
0000
0000
0000
0000
0001
0000
0000
0000
0000
0000
0000
0000
0000
1000
0000
0000
0000
0000
0000
0000
0000
0000
0000
0020
0000
0000
0000
0000
0000
0000
0000
0000
0000
0000
0000
0000
0000
0000
0000
0000
0000
0000
0000
0000
0000
0000
0000
0000
0000
0000
0000
0000
0000
0000
0000
0000
0000
0000
0000
0000
0000
0000
0000
0000
0000
0000
0000
0000
0000
0000
0000
0000
0000
0000
0000
0000
0000
0000
0000
0000
0000
0000
0000
0000
0000
0000
0000
0000
0000
0000
0000
0000
0000
0000
0000
0000
0000
0000
0000
0000
0000
0000
0000
0000
0000
0000
0000
0000
0000
0000
0000
0000
0000
0000
0000
0000
0000
0000
0000
0000
0000
0000
0000
0000
0000
0000
0000
0000
0000
0000
0000
0000
0000
0000
0000
0000
0000
0000
0000
0000
0000
0000
0000
0000
0000
0000
0000
0000
0000
0000
0000
0000
0000
0000
0000
0000
0000
0000
0000
0000
0000
0000
0000
0000
0000
0000
0000
,
0000
0000
0000
0000
,
0030
0000
0000
0000
;

//--------------- dance-double - Pandemonium X ----------------
#NOTES:
     dance-double:
     Pandemonium X:
     Easy:
     10:
     0,0,0,0,0:
00000000
00000000
00000000
00000000
,
00000000
00000000
00000000
00000000
,
00000000
00000000
00000000
00000000
,
00000000
00000000
00000000
00000000
00000000
00000000
00010000
00000100
,
00001000
00000010
00000100
00000001
,
00001000
00000000
00000100
00000000
00000010
00000000
00000001
00000100
,
00000010
00000100
00000010
00001000
,
00000100
00000000
00010000
00000000
00001000
00000000
01000000
00001000
,
00010000
00000000
00100000
00000000
01000000
10000000
20200000
00000000
,
00000000
00000000
00000000
00000000
30300000
00000000
00100000
10000000
,
00010000
00100000
00001000
00011000
,
00010000
00010100
00000100
00001000
,
00000010
00000000
00000100
00000000
00000001
00000010
00000220
00000000
,
00000000
00000000
00000000
00000000
00000330
00000000
00001000
00000001
,
00001000
00000001
00000100
00000010
,
00010000
00001000
01000000
00010000
,
00100000
00000000
01000000
00000000
10000000
00010000
02020000
00000000
,
00000000
00000000
03030000
01000000
,
00010000
00100000
00001000
00010000
,
00000100
00000000
00010000
00000000
00001000
01000000
00001000
00000000
,
00010000
00000100
00001000
00000010
,
00000100
00000001
00000010
00000100
,
00001000
00000100
00010000
00001000
,
01000000
00010000
00100000
01000000
,
00100000
00010000
00001000
00010000
,
00000100
00001000
00000010
00000100
,
00001000
00010000
00100000
00010000
,
00100000
01000000
10000000
10010000
,
00010000
00100000
00001000
00101000
,
00001000
00010000
00000100
00001100
,
00001000
00000010
00000100
00000101
,
00000001
00001000
00000100
00001100
,
00001100
00010100
00010100
00011000
,
00011000
01001000
01001000
01100000
,
01100000
10010000
10010000
10000000
,
01000000
00000000
00100000
00000000
00001000
00010000
00000200
00000000
,
00001300
00000000
00002000
00000000
00003010
00000000
00000100
00000100
,
00000100
00000000
00000001
00000001
00000001
00000000
00002000
00000000
,
00003100
00000000
00000000
00000000
00020000
00000000
00000000
00000000
00031000
00000000
00000000
00000000
00010000
00001000
00010000
00000000
,
00001000
00001000
00001000
00000000
00010000
00000000
00000100
00000000
00000000
00000000
00000000
00000000
00001000
00000000
00000010
00000000
,
00000000
00000000
00000100
00000001
00000000
00000000
00000010
00000100
,
00000000
00000000
00000010
00000001
00000000
00000000
00001000
00000100
,
00000000
00000000
00010000
00001000
00000000
00000000
00100000
00010000
,
00000000
00000000
10000000
01000000
00000000
00000000
10000000
00100000
,
00000000
00000000
01000000
00010000
00000000
00000000
00100000
00001000
,
00000000
00000000
00010000
00000100
00000000
00000000
00001000
00000010
,
00000000
00000000
00000100
00000001
00001000
00000000
00012000
00000000
,
00000000
02003000
00000000
03020000
,
00000000
00230000
00000000
02300000
,
00000000
03100000
00002000
00000000
00000000
00013000
00000020
00000000
,
00000000
00000130
00000002
00000000
00000000
00001003
00000100
00000010
,
00000001
00002001
00000000
00003020
,
00000000
00020030
00000000
00032000
,
02003000
03200000
00000000
20000000
,
00000000
00300000
32000000
03200000
,
00320000
00031000
00010000
00000100
,
00001000
00000010
00000100
00000001
,
00000010
00000100
00001000
00000100
,
00010000
00000000
00011000
00000000
00001000
01000000
00100000
10000000
,
01000000
00100000
00010000
00000000
00100000
00000000
00001000
00000000
,
00010000
00000010
00000100
00000001
,
00000010
00000100
00001000
00000100
,
00010000
00000000
00001000
00010000
00000100
00010000
00001000
01000000
,
00010000
00100000
02000000
00000000
00000000
00000000
00000000
00000000
,
00000000
00000000
00000000
00000000
,
00000000
03000000
00000000
00000000
;

//--------------- dance-double - Pandemonium X ----------------
#NOTES:
     dance-double:
     Pandemonium X:
     Medium:
     14:
     0,0,0,0,0:
00000000
00000000
00000000
00000000
,
00000000
00000000
00000000
00000000
,
00000000
00000000
00000000
00000000
,
00000000
00000000
00000000
00000000
00000000
00000000
00010000
00010000
,
00010100
00000000
00000000
00000000
00000100
00000000
00001000
00000000
00000010
00001000
00000000
00001000
00000100
00000000
00000000
00000000
,
00000010
00000000
00000001
00000000
00000000
00000001
00001000
00000000
00000001
00000000
00000000
00000000
00000100
00000000
00000100
00000000
,
00000110
00000000
00000000
00000000
00000001
00000000
00001000
00000000
00000100
00001000
00000000
00000100
00010000
00000000
00000000
00000000
,
00001000
00000000
01000000
00000000
00000000
00000000
01000000
00000000
00100000
00000000
10000000
00010000
10000000
00000000
10000000
00000000
,
10100000
00000000
00000000
00000000
00100000
00000000
01000000
00000000
00010000
00100000
00000000
00100000
00002000
00000000
00000000
00000000
,
00010000
00000000
00100000
00000000
00010000
00000000
00103000
00100000
,
00110000
00000000
00000000
00000000
00100000
00000000
00001000
00000000
00010000
00000100
00000000
00000100
00001000
00000010
00001000
00000000
,
00000001
00001000
00000000
00001000
00000100
00000000
00000100
00000010
00000000
00000010
00000001
00000000
00001000
00000000
00000001
00000000
,
00000000
00000000
00000100
00000000
00000010
00000000
00010000
00000000
00001000
00000000
00100000
00010000
02000000
00000000
00000000
00000000
,
00100000
00000000
00010000
00000000
00100000
00000000
03010000
10000000
,
00000000
01000000
00100000
00010000
00001000
00000100
00010000
00010000
,
00000000
00001000
01000000
00100000
10000000
00010000
00100000
00100000
,
00000000
00000000
00001000
00000000
00010000
00000000
00000010
00000000
00000100
00000000
00000001
00000010
00000200
00000000
00000000
00000000
,
00001000
00000000
00000010
00000000
00001000
00000000
00000310
00000010
,
00000011
00000000
00000000
00000000
00000001
00000000
00000100
00000000
00000010
00000100
00000000
00000100
00000001
00000000
00001000
00000000
,
00000000
00000100
00000000
00000000
00010000
00000000
00001000
00000000
01000000
00010000
01000000
00010000
00100000
00000000
01000000
00000000
,
10000000
00000000
00010000
00000000
01000000
00000000
00010000
00100000
00000000
00100000
00000000
00000000
01000000
00000000
00100000
00000000
,
00010000
00100000
00001000
00010000
00000010
00000100
00001000
00000100
,
00000001
00000000
00001000
00000000
00000100
00000000
00000010
00000001
00000000
00000001
00000000
00000000
00000010
00000000
00000001
00000000
,
00000100
00000010
00001000
00000100
00010000
00001000
00100000
01000000
,
00100000
01000000
10000000
00010000
01000000
00000000
00100000
01000000
,
00100000
01000000
00100000
01000000
00001000
00010000
00000100
00001000
,
00000100
00001000
00000100
00001000
00000001
00000000
00001000
00000010
,
00001000
00000010
00001000
00000010
00000100
00000001
00001000
00000100
,
00010000
00001000
01000000
00001000
00010000
00000000
00000010
00010000
,
00001000
00100000
00001000
00010000
00000010
00010000
00001000
01000000
,
00100000
01000000
00001000
00010000
00001000
00000000
00010000
00000010
,
00000100
00000010
00010000
00001000
00010000
00001000
00100000
00010000
,
10000000
01000000
00100000
00010000
00001000
00000000
00010000
00001000
,
00000100
00000010
00000001
00000100
00000010
00001000
00010000
00100000
,
10000000
01000000
00010000
01000000
00001000
00000000
00011000
00011000
,
00010000
00000100
00010000
00000000
00000100
00001000
00000100
00000000
00001000
00000010
00001000
00000010
00000100
00000000
00000100
00000000
,
00000100
00000000
00000010
00000010
00000010
00000000
00010000
00001000
,
00010000
00000000
00001000
00010000
00001000
00000000
01000000
01000000
,
01000000
00000000
00000000
00000000
00010000
00000000
00010000
00000000
00010000
00000000
00000000
00000000
00100000
00100000
00100000
00000000
,
00001000
00001000
00001000
00000000
00010000
00001000
00010000
00000000
00000000
00000000
00000000
00000000
00000100
00001000
00000100
00000000
,
00000000
00000000
00000000
00000000
00001000
00000010
00001000
00000000
00000000
00000000
00000000
00000000
00000001
00000100
00000001
00000000
,
00000000
00000000
00000000
00000000
00001000
00000100
00001000
00000000
00000000
00000000
00000000
00000000
00010000
00001000
00010000
00000000
,
00000000
00000000
00000000
00000000
00001000
01000000
00001000
00000000
00000000
00000000
00000000
00000000
01000000
00100000
01000000
00000000
,
00000000
00000000
00000000
00000000
00100000
10000000
01000000
00000000
00000000
00000000
00000000
00000000
00100000
00001000
00010000
00000000
,
00000000
00000000
00000000
00000000
00000100
00001000
00000010
00000000
00000000
00000000
00000000
00000000
00000100
00000001
00001000
00000000
,
00000000
00000000
00000000
00000000
00000001
00000100
00000010
00000000
00001000
00000000
00000100
00000000
00010000
00001000
01000000
00000000
,
00100000
00000000
10000000
00000000
01000000
00000000
00100000
00000000
00010000
00000000
00001000
00000000
00010000
00001000
00010000
00001000
,
00010000
00001000
00010000
00001000
00020000
00000000
00000000
00000000
00030100
00000000
00001000
00000000
00000020
00000000
00000000
00000000
,
00000130
00000001
00002000
00000000
00003001
00000010
00000200
00000000
,
00000310
00000000
00000010
00000001
00000200
00000000
00000000
00000000
00000310
00000000
00000100
00000010
00002000
00000000
00000000
00000000
,
00003100
00000000
00001000
00000100
00020000
00000000
00000000
00000000
00031000
00000000
00010000
00001000
01000000
00000000
00010000
00000000
,
00100000
01000000
00000000
01000000
20000000
00000000
00000000
00000000
31000000
00000000
10000000
00000000
00020000
00000000
00000000
00000000
,
01030000
00001000
00020000
00000000
00031000
00100000
00020000
00000000
,
02030000
03002000
00010000
00203000
,
00010000
00001000
00320000
00032000
,
00003020
00000000
00000031
00001000
00000000
00000010
00000100
00000001
,
00000010
00000100
00000000
00001000
00000000
00000100
00010000
00001000
,
00000000
01000000
00000000
00010000
00100000
00000000
00100000
01000000
,
10000000
00000000
10010000
00000000
00010000
01000000
10000000
01000000
,
00001000
00010000
00001000
00010000
00000100
00000000
00001000
00000010
,
00000100
00000001
00000000
00000010
00000000
00000100
00000010
00000001
,
00000000
00001001
00000000
00001001
00000000
00000001
00000100
00000010
,
00000100
00000010
00001000
00000100
00010000
00001000
01000000
00100000
,
10000000
01000000
00220000
00000000
00000000
00000000
00000000
00000000
,
00000000
00000000
00000000
00000000
,
00330000
00000000
00000000
00000000
;

//--------------- dance-double - Pandemonium X ----------------
#NOTES:
     dance-double:
     Pandemonium X:
     Hard:
     17:
     0,0,0,0,0:
00000000
00000000
00000000
00000000
,
00000000
00000000
00000000
00000000
,
00000000
00000000
00000000
00000000
,
00000000
00000000
00000000
00000000
00000000
00000000
00011000
00001100
,
00011000
00000000
00000000
00000000
00011000
00000000
00001000
00000000
01000000
00100000
00000000
10000000
01000000
00000000
00100000
00000000
,
10010000
00000000
10000000
00100000
00000000
10000000
01000000
00000000
00100000
00010000
00000000
00000000
00011000
00000000
00110000
00000000
,
00011000
00000000
00000000
00000000
00010100
00000000
00000100
00000000
00001000
00000010
00000000
00000100
00000001
00000000
00000010
00000000
,
00000110
00000000
00000010
00000001
00000000
00001000
00000100
00000000
00001000
00000010
00000100
00000001
00001000
00000000
00001100
00000000
,
00011000
00000000
00000000
00000000
01001000
00000000
01010000
00000000
00010000
00100000
00010000
10000000
01000000
00000000
00100000
00000000
,
00101000
00000000
00100000
00001000
00000000
00010000
00000010
00000000
00000100
00000001
00000000
00000000
00001001
00000000
00000011
00000000
,
00001001
00000000
00000000
00000000
00000101
00000000
00000001
00000000
00001000
00000100
00000000
00000000
00010000
00001000
01000000
00000000
,
00010000
00100000
00000000
01000000
10000000
00100000
01000000
00001000
00010000
00000010
00000100
00001000
00000010
00001000
00000100
00000000
,
00000000
00000000
00000100
00000010
00000001
00000000
00000010
00000000
00000001
00001000
00000010
00010000
00001000
01000000
00100000
00000000
,
00000000
00000000
01000000
00100000
01000000
00000000
00010000
00000000
10000000
01000000
00100000
00010000
00100000
00001000
00010000
00000000
,
00000000
00000000
00001000
01000000
00010000
00000000
10000000
00000000
00100000
01000000
00001000
00010000
00000100
00001000
00000010
00000000
,
00000000
00000000
00000100
00000010
00000100
00000000
00000001
00000000
00000010
00001000
00000010
00000001
00001000
00000001
00000100
00000000
,
00000000
00000000
00000001
00001000
00000100
00010000
00001000
00000000
00010000
00001000
01000000
00001000
00010000
00000100
00001000
00000000
,
00000000
00000000
00000100
00010000
00001000
00010000
00001000
00000000
00010000
00001000
01000000
00010000
10000000
01000000
00100000
00000000
,
00000000
00000000
01000000
00100000
00000000
01000000
10000000
00000000
00010000
01000000
10000000
01000000
00010000
00000000
00110000
00000000
,
00000000
00000000
00000000
00101000
00000000
00000000
00000000
00000000
00000000
00000000
00000000
00000000
00011000
00000000
00000000
00000000
00000000
00000000
00010100
00000000
00000000
00000000
00000000
00000000
00000100
00000000
00001000
00000000
00000100
00000000
00001000
00000000
00000100
00000000
00001000
00000000
00000001
00000000
00000000
00000010
00000000
00000000
00000100
00000000
00000000
00000000
00000000
00000000
,
00000010
00000001
00001000
00000010
00001000
00000100
00001000
00000010
00000000
00011000
00000000
00000000
00001000
00000000
01000000
00000000
,
00010000
00100000
01000000
10000000
00010000
01000000
00010000
00100000
00001000
00100000
00001000
00010000
00000010
00000100
00000001
00000000
,
00001000
00000100
00000010
00000001
00001000
00000010
00001000
00000100
00000000
00011000
00000000
00000000
00101000
00000000
00101000
00000000
,
00100000
00010000
01000000
00100000
10000000
00010000
00100000
01000000
10000000
00010000
01000000
00010000
10000000
00000000
01000000
10000000
,
00100000
00000000
01000000
00010000
00100000
00000000
00001000
00000000
00020000
00000000
00000000
00000000
00030100
00000000
00001000
00000010
,
00000100
00000000
00000001
00000010
00000100
00000000
00000010
00000001
00001000
00000000
00001100
00000000
00000100
00000000
00010000
00001000
,
01000000
00000000
00010000
00100000
01000000
00000000
00100000
00001000
02000000
00000000
00000000
00000000
03100000
00000000
01000000
00010000
,
00100000
00000000
01000000
10000000
00010000
00000000
00100000
00001000
00010000
00000000
00000100
00001000
00000010
00000000
00000100
00000001
,
00000010
00000000
00000100
00001000
00000010
00000000
00000100
00000001
00000020
00000000
00000230
00000000
00001300
00000000
00000100
00010000
,
00001000
00000000
00001000
00100000
00010000
00000000
00100000
01000000
10000000
00000000
00010000
00000000
10000000
00000000
00010000
01000000
,
00100000
00000000
01000000
00010000
00100000
00000000
00010000
01000000
00200000
00000000
00000000
00000000
01300000
00000000
00100000
10000000
,
01000000
00000000
00100000
01000000
10000000
00000000
01000000
00100000
00010000
01000000
00010000
10000000
00010000
00000000
01000000
00010000
,
00100000
00000000
00001000
00010000
00000010
00000000
00000100
00000001
00002000
00000000
00000000
00000000
00003100
00000000
00000100
00000010
,
00000100
00000000
00000010
00000001
00001000
00000000
00000100
00010000
00001000
00000000
01000000
00001000
00010000
00000000
00001000
01000000
,
00010000
00000000
00100000
01000000
10000000
00000000
01000000
10000000
00010000
00000000
00000000
00000000
10010000
00000000
00110000
00000000
,
00000000
00000000
00000000
00101000
00000000
00000000
00000000
00000000
00000000
00000000
00000000
00000000
00011000
00000000
00000000
00000000
00000000
00000000
00011000
00000000
00000000
00000000
00000000
00000000
00010000
00000000
00001000
00000000
00010000
00000000
00001000
00000000
00010000
00000000
00001000
00000000
00010000
00000000
00000000
00000100
00000000
00000000
00010000
00000000
00000000
00001000
00000000
00000000
,
00010000
00000000
00000000
00000000
00001000
01000000
00001000
00010000
00001000
00000000
00000000
00000000
00011000
00000000
00011000
00000000
,
00011000
00000000
00000000
00000000
00011000
00000000
00011000
00000000
00011000
00000000
00000000
00000000
00010000
00000010
00000100
00000010
,
00010000
00000000
00000000
00000000
00001000
00100000
00010000
00100000
00001000
00000000
00000000
00000000
00001000
00001000
00001000
00000000
,
00010000
00010000
00010000
00000000
00001000
00010000
00000100
00000000
00010000
00001000
00010000
00001000
00010000
00001000
01000000
00000000
,
00001000
00010000
00001000
00010000
00001000
00010000
00000100
00000000
00010000
00001000
00010000
00001000
00010000
00001000
01000000
00000000
,
00001000
00010000
00001000
00010000
00001000
00010000
00000100
00000000
00010000
00001000
00010000
00001000
00010000
00001000
01000000
00000000
,
00001000
00010000
00001000
00010000
00001000
00010000
00000100
00000000
00010000
00001000
00010000
00001000
00010000
00001000
01000000
00000000
,
00001000
00010000
00001000
00010000
00001000
00010000
00000010
00000000
00010000
00001000
00010000
00001000
00010000
00001000
00100000
00000000
,
00001000
00010000
00001000
00010000
00001000
00010000
00000010
00000000
00010000
00001000
00010000
00001000
00010000
00001000
00100000
00000000
,
00001000
00010000
00001000
00010000
00001000
00000000
00011000
00000000
00110000
00000000
00011000
00000000
00001010
00000000
00011000
00000000
,
00001100
00000000
00000000
00000000
00000000
00000000
00011000
00000000
00000000
00000000
00000000
00000000
00010000
00000000
00000000
00000100
00000000
00000000
00001000
00000000
00000000
00000010
00000000
00000000
00000100
00000000
00000000
00000001
00000000
00000000
00000010
00000000
00000000
00010000
00000000
00000000
00001000
00000000
00010000
00000000
00001000
00000000
00010000
00000000
00001000
00000000
00010000
00000000
,
00001000
00000000
00010000
00000000
00001000
00000000
00010000
00000000
00001000
00000000
00010000
00000000
00001000
00000000
00000000
01000000
00000000
00000000
00100000
00000000
00000000
00000000
00000000
00000000
10000000
00000000
00000000
00000000
00000000
00000000
00010000
00000000
00000000
00000000
00000000
00000000
00100000
00000000
00000000
00001000
00000000
00000000
00010000
00000000
00000000
00000000
00000000
00000000
,
00000010
00000000
00000100
00000000
00001000
00000100
00000010
00000000
00000010
00000000
00000100
00000000
00001000
00000100
00000010
00000000
,
00000001
00000000
00000100
00000010
00010000
00000000
00000000
00000000
00011000
00000000
00001000
01000000
00100000
00000000
00000000
00000000
,
10010000
00000000
10000000
00010000
00100000
00000000
00000000
00000000
00011000
00000000
00010000
00000100
00001000
00000000
00000001
00000000
,
00001000
00000010
00000000
00000010
00000001
00000000
00000101
00000000
00001010
00000000
00000000
00000000
00001100
00000000
00010100
00000000
,
00011000
00000000
00000000
00000000
00011000
00000000
01001000
00000000
01010000
00000000
00000000
00010000
00100000
00000000
00000000
00100000
,
01000000
00000000
00000000
01000000
10000000
00100000
01000000
00000000
00010000
00000000
00100000
00000000
00001000
00010000
00000100
00000000
,
00001000
00000010
00000100
00000001
00001001
00000000
00011000
00000000
,
10010000
00000000
10000000
01000000
00100000
00010000
00001000
00010000
,
00000100
00001000
00000000
00000011
00000001
00000100
00001000
00010000
,
00000000
01100000
00000000
01000000
00010000
00000000
00010000
10000000
,
01000000
00000000
00011000
00000000
00010000
00000100
00001000
00000100
,
00000010
00000001
00000100
00001000
00010000
00100000
01000000
00000000
,
00001000
01001000
00000000
00110000
00000000
10000000
01000000
01100000
,
00000000
00011000
00000000
00000110
00000000
00000001
00000100
00001000
,
00000100
00000000
00000000
00000000
00000000
00000000
00000001
00000000
00000000
00000000
00000000
00000000
00001000
00000000
00000000
00000010
00000000
00000000
00001000
00000000
00000000
00000100
00000000
00000000
00010000
00000000
00000000
00001000
00000000
00000000
01000000
00000000
00000000
00001000
00000000
00000000
00010000
00000000
00001000
00000000
00010000
00000000
00001000
00000000
00010000
00000000
00001000
00000000
,
00010000
00001000
00010000
00001000
00010000
00002000
00020000
00000000
00000000
00000000
00000000
00000000
00000000
00000000
00000000
00000000
00000000
00000000
00000000
00000000
00000000
00000000
00000000
00000000
,
00000000
00000000
00000000
00000000
,
00000000
00033000
00000000
00000000
;
