#TITLE:Freeze;
#SUBTITLE:;
#ARTIST:nc ft. NRG Factory;
#TITLETRANSLIT:;
#SUBTITLETRANSLIT:;
#ARTISTTRANSLIT:;
#GENRE:;
#CREDIT:;
#MUSIC:Freeze (DDR).ogg;
#BANNER:Freeze (DDR).png;
#BACKGROUND:Freeze (DDR)-bg.png;
#CDTITLE:;
#SAMPLESTART:61.730;
#SAMPLELENGTH:15.000;
#SELECTABLE:YES;
#OFFSET:0.000;
#BPMS:0.000=139.600
,4.000=140.000
;
#STOPS:;
#DISPLAYBPM:140.000;
#BGCHANGES:;
#FGCHANGES:;

//--------------- dance-single - Pandemonium X ----------------
#NOTES:
     dance-single:
     Pandemonium X:
     Beginner:
     2:
     0,0,0,0,0:
0000
0000
0000
0000
,
0000
0000
0000
0000
,
0000
0000
0000
0000
,
0000
0000
0000
0000
,
0000
0000
0000
0000
,
0001
0000
0000
0000
,
0000
0000
0000
0000
,
1000
0000
0000
0000
,
0000
0000
0000
0000
,
0110
0000
0000
0000
,
0000
0000
0000
0000
,
0002
0000
0000
0003
0000
0000
0000
0000
,
0000
0000
0000
0000
0000
2000
0000
0000
,
3000
0000
0000
0000
,
0000
0000
0000
0000
,
0020
0000
0000
0030
0000
0000
0000
0000
,
0000
0000
0000
0000
0000
0200
0000
0300
,
0000
0000
0000
0000
,
0000
0000
0000
0000
,
0001
0000
0000
0000
,
1000
0000
0000
0000
,
0100
0000
0000
0000
,
0010
0000
0000
0000
,
0001
0000
0000
0000
,
1000
0000
0000
0000
,
0010
0000
0000
0000
,
0100
0000
0010
0000
,
2000
0000
0000
3000
,
0001
0000
0000
0000
,
0010
0000
0100
0000
,
0010
0000
0000
0000
,
0001
0000
1000
0000
,
0001
0000
0000
0000
,
0100
0000
0010
0000
,
0100
0000
0000
0000
,
0010
0000
1000
0000
,
0010
0000
0000
0000
,
1000
0000
0100
0000
,
1000
0000
0000
0000
,
0001
0000
0010
0000
,
0001
0000
0000
0000
,
0100
0000
0010
0000
,
0100
0000
0000
0000
,
1001
0000
0000
0000
,
0001
0000
0000
0000
,
1000
0000
0000
0100
,
0010
0000
0000
0000
,
0001
0000
0000
0100
,
0010
0000
0000
0000
,
1000
0000
0000
0000
,
0001
0000
1000
0000
,
0110
0000
0000
0000
,
2000
0000
3000
0000
,
0000
0000
0000
0000
,
0002
0000
0003
0000
,
0000
0000
0000
0000
,
0110
0000
0000
0000
;

//--------------- dance-single - Pandemonium X ----------------
#NOTES:
     dance-single:
     Pandemonium X:
     Easy:
     7:
     0,0,0,0,0:
0000
0000
0000
0000
,
0000
0000
0000
0000
,
0000
0000
0000
0000
,
0000
0000
0000
0000
,
0000
0000
0000
0000
,
0001
0101
0000
1100
,
0000
0101
0000
1100
,
0000
1010
0000
0011
,
0000
0000
0000
0000
1010
0000
0000
0000
0001
0000
0000
1000
0000
1000
0000
0000
,
0220
0000
0000
0000
,
0300
0000
0000
0000
,
1030
0100
0010
0001
0000
0000
0000
0000
,
0000
0000
0000
0000
0000
0010
0100
1000
,
0000
0000
0000
0000
,
0000
0000
0000
0000
,
0001
0010
0100
1000
0000
0000
0000
0000
,
0000
0000
0000
0000
0000
0100
0010
0001
,
0000
0000
0000
0000
,
0000
0000
0000
0000
,
2000
0000
3020
0000
,
0230
0000
0302
0000
,
0023
0000
2030
0000
,
3020
0000
0230
0000
,
2300
0000
3020
0000
,
0230
0000
0302
0000
,
0023
0000
2030
0000
,
3020
0000
0230
2300
,
0002
0000
0000
3003
,
1000
0001
1000
0000
0001
0000
0100
0000
,
0010
1000
0100
0020
,
0130
1000
0100
0000
1000
0000
0001
0000
,
0100
0001
0010
0200
,
1300
0001
1000
0000
0100
0000
0010
0000
,
0001
0100
0010
2000
,
3001
0010
0001
1000
,
0010
0100
0001
1001
,
1000
0001
0100
0000
0001
0000
1000
0000
,
0010
0100
0001
0020
,
0130
0010
0001
0000
0010
0000
0001
0000
,
1000
0010
0100
0020
,
1030
0001
0010
0000
0100
0000
0010
0000
,
0001
0100
0001
2000
,
3100
0010
0001
0000
0100
0000
0001
0000
,
2000
3010
0200
0301
,
1000
1000
1000
0000
0001
0000
1000
0000
,
0010
1000
0001
0020
,
0130
0100
0100
0000
0010
0000
0001
0000
,
1000
0100
0010
0200
,
1300
0001
0010
0000
0001
0000
1000
0000
,
0010
0100
0001
0020
,
0031
0100
0010
0000
0100
0010
1000
0000
,
2002
0000
0000
3003
,
0001
1000
0100
0010
,
0100
1000
0010
0100
,
0001
0010
0100
1000
,
0010
0000
0000
0000
1000
0000
0000
0000
0010
0000
0000
0100
0000
0100
0000
0000
,
1001
0000
0000
0000
;

//--------------- dance-single - Pandemonium X ----------------
#NOTES:
     dance-single:
     Pandemonium X:
     Medium:
     12:
     0,0,0,0,0:
0000
0000
0000
0000
,
0000
0000
0000
0000
,
0000
0000
0000
0000
,
0000
0000
0000
0000
,
0000
0000
0000
0000
,
0001
0000
0000
0000
0100
0000
0000
0001
0000
0000
0000
0000
0010
0000
0000
0000
,
0000
0100
0000
1000
,
0100
0000
0000
0000
1000
0000
0000
0010
0000
0000
0000
0000
0100
0000
0000
0000
,
0000
0000
0000
0000
0010
0000
0000
0000
1000
0000
0000
0001
0000
0100
0000
0000
,
2020
0000
0000
0000
,
3030
0000
0000
0000
,
0100
0001
0100
0020
0000
0000
0000
0000
,
0000
0000
0000
0000
0000
0130
0001
2000
,
0000
0000
0000
0000
,
0000
0000
0000
0000
,
3001
0010
0001
0200
0000
0000
0000
0000
,
0000
0000
0000
0000
0000
0310
1000
0002
,
0000
0000
0000
0000
,
0000
0000
0000
0000
,
1003
0001
1000
0000
0001
0000
0100
0000
,
0001
0000
0010
0000
0100
0000
1000
0100
,
0000
0010
0100
0000
1000
0000
0010
0000
,
0100
0000
0001
0000
0010
0000
0100
0010
,
0000
0100
1000
0000
0001
0000
0100
0000
,
0001
0000
0010
0000
0001
0000
1000
0100
,
0010
0100
1000
0010
,
0100
0000
0001
0000
1000
0000
0001
0010
,
0200
0000
0000
0000
,
0310
0000
0001
0000
1000
0000
0000
0010
0000
0010
0000
0000
1000
0000
0000
0001
,
0000
0000
1000
0000
0100
0000
0000
0010
0000
0000
0100
0000
2000
0000
0000
0000
,
3001
0000
0100
0000
0001
0000
0000
0010
0000
0010
0000
0000
0100
0000
0000
0010
,
0000
0000
0001
0000
1000
0000
0000
0010
0000
0000
1000
0000
0200
0000
0000
0000
,
0310
0000
0100
0000
1000
0000
0000
0100
0000
0100
0000
0000
1000
0000
0000
0010
,
0000
0000
0100
0000
0010
0000
0000
1000
0000
0000
0001
0000
0010
0000
0000
0000
,
0001
0000
0100
0000
0001
0000
0000
0010
0000
0010
0000
0000
0001
0000
0000
0100
,
0000
0000
0010
0000
0100
0000
0000
0001
0000
0000
1000
0000
0001
1000
0000
0001
,
0000
0000
1000
0000
0100
0000
0000
0010
0000
0010
0000
0000
0011
0000
0000
1100
,
0000
0000
0001
0000
0001
0000
0000
1000
0000
0000
0010
0000
1001
0000
0000
0000
,
0100
0000
0010
0000
1000
0000
0000
0010
0000
0010
0000
0000
1010
0000
0000
0101
,
0000
0000
0001
0000
1000
0000
0000
0001
0000
0000
0010
0000
1001
0000
0000
0000
,
0100
0000
1000
0000
0010
0000
0000
0100
0000
0100
0000
0000
0110
0000
0000
0101
,
0000
0000
0001
0000
1000
0000
0000
0001
0000
0000
0010
0000
0100
0000
1000
0000
,
0001
0000
0100
0000
0010
0000
0000
1000
0000
1000
0000
0000
0010
0000
0000
0101
,
0000
0000
0001
0000
0010
0000
0000
1100
0000
0000
0100
0000
0010
0000
0001
0000
,
1000
0000
0001
0000
0100
0000
0000
0001
0000
0001
0000
0000
0010
0000
0000
0100
,
0000
0000
0010
0000
0001
0000
0000
0100
0000
0000
0010
0000
1000
0010
1000
0000
,
0001
0000
1000
0000
0100
0000
0000
1000
0000
1000
0000
0000
0010
0000
0000
0100
,
0000
0000
0001
0000
0010
0000
0000
0100
0000
0000
1000
0000
0010
0100
0010
0000
,
0100
0000
0001
0000
0010
0000
0000
0100
0000
0100
0000
0000
0010
0000
0000
0001
,
0000
0000
1000
0000
0100
0000
0000
0010
0000
0000
0100
0000
1000
0001
1000
0000
,
0001
0000
0100
0000
0001
0000
0000
0010
0000
0100
0000
0000
0010
0000
0000
0001
,
0000
0000
0100
0000
0010
0000
0000
1000
0000
0000
0001
0000
1000
0001
1000
0001
,
1000
0000
0000
0000
0001
0000
0000
0010
0000
0000
0000
0000
0100
0000
0000
0000
,
0000
0010
0000
0001
,
1000
0000
0000
0000
0010
0000
0000
0100
0000
0000
0000
0000
0010
0000
0000
0000
,
0000
0000
0000
0000
1000
0000
0000
0000
0001
0000
0000
0100
0000
0100
0000
0000
,
1001
0000
0000
0000
;

//--------------- dance-single - Pandemonium X ----------------
#NOTES:
     dance-single:
     Pandemonium X:
     Hard:
     14:
     0.531382,0.626799,0.334675,0.592853,0.674132,389,354,35,62,0,0,0.531382,0.626799,0.334675,0.592853,0.674132,389,354,35,62,0,0:
0000
0000
0000
0000
,
0000
0000
0000
0000
,
0000
0000
0000
0000
,
0000
0000
0000
0000
,
0000
0000
0000
0000
,
1000
0020
0000
0130
0020
0000
1030
0002
0000
0000
0000
0000
0103
0000
0000
0000
,
0010
1010
0001
1001
,
0001
0200
0000
0310
0200
0000
0301
2000
0000
0000
0000
0000
3001
0000
0000
0000
,
1000
0000
0000
0000
1100
0000
0000
0000
0001
0000
0000
1010
0000
0011
0000
0000
,
2002
0000
0000
0000
,
3003
0000
0000
0000
,
0002
0000
0000
0200
0000
0003
0020
0000
0300
2000
0000
0000
0030
0000
0000
0000
0000
0000
0000
0000
0000
0000
0000
0000
,
0000
0000
0000
0000
0000
0000
0000
0000
0000
0000
3200
0000
0020
0300
0002
0000
,
0000
0000
0000
0000
,
0000
0000
0000
0033
,
0020
0000
2000
0030
0020
3000
0002
0000
0000
0000
0000
0000
0000
0000
0000
0000
,
0000
0000
0000
0000
0000
0000
0000
0000
0033
0000
0002
0000
2000
0003
0020
0000
,
0000
0000
0000
0000
,
0000
0000
0000
3030
,
1001
0000
0001
0000
1000
0000
0000
0010
0000
0010
0000
0000
1000
0000
0000
0001
,
0000
0000
1000
0000
0001
0000
0000
0100
0000
0000
0001
0000
1000
0000
0100
0000
,
0010
0000
0001
0000
0100
0000
0000
0010
0000
0010
0000
0000
0100
0000
0000
0001
,
0000
0000
0010
0000
0100
0000
0000
0010
0000
0000
0001
0000
0010
0000
0100
0000
,
1000
0000
0100
0000
1000
0000
0000
0010
0000
0010
0000
0000
0100
0000
0000
0001
,
0000
0000
1000
0000
0100
0000
0000
1000
0000
0000
0001
0000
0010
0000
0100
0000
,
1000
0000
0100
0000
1000
0000
0000
0010
0000
0010
0000
0000
0100
0000
0000
0001
,
2000
3200
0320
0032
,
0103
0000
0000
0000
0000
0000
0010
0000
0000
0000
0000
0000
1001
0000
0000
0000
0000
0000
1000
0000
0000
0200
0300
0000
0000
0000
0000
0200
0300
0000
0001
0000
0000
0000
0000
0000
1000
0000
0000
0000
0000
0000
0101
0000
0000
0000
0000
0000
,
0001
0010
0001
0000
1000
0000
0000
0010
0000
0010
0000
0000
0100
0000
0000
1001
,
0000
0000
0001
0000
0010
0000
0000
0110
0000
0000
0010
0000
0001
0010
0100
0000
,
0010
0001
0010
0000
0001
0000
0000
1000
0000
1000
0000
0000
0010
0000
0000
0101
,
0000
0000
0001
0000
1000
0000
0000
1010
0000
0000
0010
0000
0100
0001
1000
0100
,
0010
0100
0010
0000
0100
0000
0000
0010
0000
0010
0000
0000
0001
0000
0000
1100
,
0000
0000
1000
0000
0010
0000
0000
0101
0000
0000
0001
0000
1000
0100
0010
0001
,
1000
0001
1000
0000
0001
0000
0000
0010
0000
0010
0000
0000
0100
0000
0000
0011
,
0000
0000
0001
0000
1000
0000
0000
1010
0000
0000
0010
0000
0100
0001
0000
0001
,
1000
0100
0010
0000
0200
0000
0000
1000
0000
1000
0000
0000
0320
0000
0000
0031
,
0000
0000
0010
0000
0200
0000
0000
1000
0000
0000
0310
0000
0100
0010
0001
0000
,
1000
0010
0100
0000
0002
0000
0000
1000
0000
1000
0000
0000
0023
0000
0000
0130
,
0000
0000
0010
0000
0002
0000
0000
1000
0000
0000
0013
0000
0001
0010
0100
1000
,
0001
1000
0100
0000
0020
0000
0000
0001
0000
0001
0000
0000
0230
0000
0000
0310
,
0000
0000
0100
0000
2000
0000
0000
0100
0000
0000
3010
0000
0100
0010
1000
0001
,
0010
0100
1000
0000
0002
0000
0000
0010
0000
0010
0000
0000
2003
0000
0000
3010
,
0000
0000
0100
0000
0002
0000
0000
0010
0000
0000
1003
0000
0001
0010
0001
1000
,
0100
1000
0010
0000
0110
0000
0010
1000
0000
1000
0000
1000
0001
0000
0001
0010
,
0000
0000
0100
0000
0010
0000
0001
0010
0000
0010
0100
0000
0100
0010
0001
1000
,
0010
0100
0001
0000
1001
0000
1000
0001
0000
0001
0000
0001
1000
0000
1000
0100
,
0000
0100
0010
0000
0100
0000
0100
1000
0000
1000
0100
0000
0010
0001
1000
0010
,
0100
0001
0010
0000
1100
0000
0100
1000
0000
1000
0000
1000
0010
0000
0100
0001
,
0000
1000
0001
0000
0010
0000
0100
0010
0000
0001
0100
0000
0100
0010
1000
0001
,
0010
0100
1000
0000
1100
0000
1000
0010
0000
0010
0000
0100
0010
0000
0100
0010
,
1000
0100
0001
0000
0100
0000
1000
0010
0000
0001
0010
0000
0100
0010
1000
0001
,
0010
0100
0000
0100
1000
0000
1000
0001
0100
0000
0000
0000
0010
0000
0000
0000
,
1000
0001
0010
0100
,
1000
0100
0000
0100
0010
0000
0010
0001
1000
0000
0000
0000
0001
0000
0000
0000
,
0100
0000
0000
0000
0001
0000
0000
0000
0010
0000
0000
1100
0000
0101
0000
0000
,
1001
0000
0000
0000
;

//--------------- dance-double - Pandemonium X ----------------
#NOTES:
     dance-double:
     Pandemonium X:
     Easy:
     6:
     0,0,0,0,0:
00000000
00000000
00000000
00000000
,
00000000
00000000
00000000
00000000
,
00000000
00000000
00000000
00000000
,
00000000
00000000
00000000
00000000
,
00000000
00000000
00000000
00000000
,
00010000
00001000
00000000
01000000
,
00000000
00100000
00000000
10000000
,
01000000
00100000
00000000
00001000
,
00000000
00010000
00000000
00000100
,
00022000
00000000
00000000
00000000
,
00033000
00000000
00000000
00000000
,
00000020
00000000
00000000
00000030
00000000
00000000
00000000
00000000
,
00000000
00000000
00000000
00000000
00000000
00000200
00000000
00000300
,
00000000
00000000
00000000
00000000
,
00000000
00000000
00000000
00000000
,
00000002
00000000
00000000
00000003
00000000
00000000
00000000
00000000
,
00000000
00000000
00000000
00000000
00000000
00002000
00000000
00003000
,
00000000
00000000
00000000
00000000
,
00000000
00000000
00000000
00000000
,
00000100
00000000
00010000
00000000
,
00001000
00000000
01000000
00100000
,
10000000
00000000
00010000
00000000
,
00100000
00000000
01000000
00100000
,
00001000
00000000
00010000
00000000
,
00000100
00000000
00001000
00000010
,
00010000
00000000
00001000
00000000
,
01000000
00000000
00100000
01000000
,
20020000
00000000
00000000
30030000
,
10000000
00010000
00100000
00001000
,
00010000
00000010
00000100
00000002
,
00000013
00000001
00001000
00000100
,
00010000
00001000
00100000
00020000
,
01030000
00100000
01000000
00010000
,
00100000
00001000
00010000
00000200
,
00010300
00001000
00010000
00000010
,
00000100
00000001
00000010
00001100
,
00010100
00010000
00001000
01000000
,
00100000
10000000
00010000
00200000
,
01300000
00010000
01000000
10000000
,
00010000
00100000
00001000
00020000
,
00030010
00000001
00000010
00000100
,
00000001
00001000
00000100
00020000
,
00031000
01000000
00001000
00100000
,
00010000
00100000
01000000
11000000
,
10010000
10000000
00010000
00100000
,
00001000
00000000
00010000
00000000
00000100
00000000
00001000
00000010
,
00001000
00000010
00000100
00000001
,
00000010
00000000
00000100
00000000
00001000
00000000
00000100
00010000
,
00000100
00010000
00001000
01000000
,
00100000
00000000
10000000
00000000
00010000
00000000
00100000
01000000
,
00100000
00010000
00100000
00001000
,
00010000
00000000
00000100
00000000
00010000
00000000
00001000
00010000
,
00001000
01000000
00100000
00000000
,
00000000
00000000
00000000
00000000
,
01000000
00010000
00100000
00000000
,
00000000
00000000
00000000
00000000
,
00011000
00000000
00000000
00000000
;

//--------------- dance-double - Pandemonium X ----------------
#NOTES:
     dance-double:
     Pandemonium X:
     Medium:
     11:
     0,0,0,0,0:
00000000
00000000
00000000
00000000
,
00000000
00000000
00000000
00000000
,
00000000
00000000
00000000
00000000
,
00000000
00000000
00000000
00000000
,
00000000
00000000
00000000
00000000
,
00010100
00000000
00000000
00000000
00001000
00000000
00000000
00010000
00000000
00000000
00000000
00000000
00000000
00000000
00000000
00000000
,
00000000
00000000
00000000
00000000
,
00101000
00000000
00000000
00000000
00010000
00000000
00000000
00001000
00000000
00000000
00000000
00000000
00000000
00000000
00000000
00000000
,
00000000
00000000
00000000
00000000
00000000
00000000
00000000
00000000
00000000
00000000
00000000
00000100
00000000
00010000
00000000
00000000
,
00202000
00000000
00000000
00000000
,
00000000
00000000
00000000
00303000
,
00001000
01000000
00100000
10000000
00000000
00000000
00000000
00000000
,
00000000
00000000
00000000
00000000
00000000
01000000
00100000
00010000
,
00000000
00000000
00000000
00000000
,
00000000
00000000
00000000
00000000
,
00100000
00001000
00010000
00000010
00000000
00000000
00000000
00000000
,
00000000
00000000
00000000
00000000
00000000
00000100
00000001
00000010
,
00000000
00000000
00000000
00000000
,
00000000
00000000
00000000
00000000
,
00000100
00001000
00000100
00000000
00010000
00000000
00001000
00000000
,
01000000
00010000
01000000
00000000
00010000
00000000
00100000
01000000
,
10000000
01000000
10000000
00000000
01000000
00000000
00100000
00000000
,
00001000
00010000
00001000
00000000
00010000
00000000
00000100
00001000
,
00000010
00000100
00000010
00000000
00001000
00000000
00000001
00000000
,
00000010
00000100
00000010
00000000
00000100
00000000
00001000
00000100
,
00010000
00001000
00010000
00000000
00001000
00000000
01000000
00000000
,
00200000
00000000
00000000
00000000
10300000
00000000
00000000
00000000
02000000
00000000
00000000
00000000
03100000
00000000
00000000
00010000
,
10000000
01000000
00110000
00000000
00001000
00000000
00010000
00000100
,
00001000
00000000
00000010
00000000
00000100
00000000
00000000
00000010
00000000
00000010
00000000
00000000
00000100
00000000
00000000
00000001
,
00000000
00000000
00001000
00000000
00000100
00000000
00000000
00010000
00000000
00000000
00001000
00000000
00011000
00000000
00000000
00000000
,
00001000
00000000
01000000
00000000
00100000
00000000
00000000
10000000
00000000
10000000
00000000
00000000
00010000
00000000
00000000
00100000
,
00000000
00000000
01000000
00000000
00100000
00000000
00000000
00001000
00000000
00000000
00010000
00000000
00011000
00000000
00000000
00000000
,
00010000
00000000
00000010
00000000
00000100
00000000
00000000
00000010
00000000
00000010
00000000
00000000
00000100
00000000
00000000
00000001
,
00000000
00000000
00001000
00000000
00001000
00000000
00000000
00000100
00000000
00000000
00010000
00000000
00011000
00000000
00000000
00000000
,
00001000
00000000
01000000
00000000
01000000
00000000
00000000
00100000
00000000
00100000
00000000
00000000
10000000
00000000
00000000
00010000
,
00000000
00000000
00100000
00000000
00001000
00000000
00000000
00010000
00000000
00000000
00001000
00000000
00010000
00001000
00000000
01000000
,
00010000
00000000
00100000
00000000
02000000
00000000
00000000
10000000
00000000
13000000
00000000
00000000
00100000
00000000
00000000
00100000
,
00000000
00000000
00010000
00000000
00001000
00000000
00000000
00010000
00000000
00000000
00000100
00000000
00002100
00000000
00000000
00000000
,
00003010
00000000
00000100
00000000
00000002
00000000
00000000
00000010
00000000
00000013
00000000
00000000
00000100
00000000
00000000
00001000
,
00000000
00000000
00001000
00000000
00000010
00000000
00000000
00010000
00000000
00000000
00001000
00000000
00201000
00000000
00000000
00000000
,
00310000
00000000
01000000
00000000
10000000
00000000
00000000
01000000
00000000
01000000
00000000
00000000
00100000
00000000
00000000
10000000
,
00000000
00000000
00010000
00000000
00100000
00000000
00000000
10000000
00000000
00000000
00100000
00000000
00010000
00000000
00001000
00000000
,
00000100
00000000
00010000
00000000
00001000
00000000
00000000
00010000
00000000
00010000
00000000
00000000
00000100
00000000
00000000
00001000
,
00000000
00000000
00000010
00000000
00000100
00000000
00000000
00001000
00000000
00000000
00000100
00000000
00000210
00000000
00000000
00000000
,
00000301
00000000
00001000
00000000
00000100
00000000
00000000
00001100
00000000
00001100
00000000
00000000
00000100
00000000
00000000
00010100
,
00000000
00000000
00010000
00000000
00001000
00000000
00000000
01001000
00000000
00000000
01000000
00000000
10010000
00000000
00000000
00000000
,
10000000
00000000
01000000
00000000
00100000
00000000
00000000
00110000
00000000
00110000
00000000
00000000
00010000
00000000
00000000
00101000
,
00000000
00000000
00001000
00000000
00010000
00000000
00000000
00010100
00000000
00000000
00000100
00000000
00001000
00000000
00000010
00000000
,
00000100
00000000
00000001
00000000
00000010
00000000
00000000
00000110
00000000
00000110
00000000
00000000
00000100
00000000
00000000
00001100
,
00000000
00000000
00000100
00000000
00010000
00000000
00000000
00011000
00000000
00000000
00001000
00000000
01000000
00000000
00100000
00000000
,
10000000
00000000
00010000
00000000
00100000
00000000
00000000
11000000
00000000
11000000
00000000
00000000
01000000
00000000
00000000
10100000
,
00000000
00000000
00100000
00000000
01000000
00000000
00000000
01010000
00000000
00000000
00010000
00000000
00100000
00000000
00001000
00000000
,
00010000
00000000
00000000
00000000
00000100
00000000
00000000
00001000
00000000
00000000
00000000
00000000
00000000
00000000
00000000
00000000
,
00000000
00000000
00000000
00000000
,
00000110
00000000
00000000
00000000
00000010
00000000
00000000
00010000
00000000
00000000
00000000
00000000
00000000
00000000
00000000
00000000
,
00000000
00000000
00000000
00000000
,
00011000
00000000
00000000
00000000
;

//--------------- dance-double - Pandemonium X ----------------
#NOTES:
     dance-double:
     Pandemonium X:
     Hard:
     15:
     0,0,0,0,0:
00000000
00000000
00000000
00000000
,
00000000
00000000
00000000
00000000
,
00000000
00000000
00000000
00000000
,
00000000
00000000
00000000
00000000
,
00000000
00000000
00000000
00000000
,
00100000
00001000
00000000
00001000
00010000
00000000
00010000
00000100
00000000
00000000
00000000
00000000
00001100
00000000
00000000
00000000
,
00000000
00001010
00000000
00000101
,
00000010
00001000
00000000
00001000
00000100
00000000
00000100
00010000
00000000
00000000
00000000
00000000
00011000
00000000
00000000
00000000
,
00000000
00000000
00000000
00000000
01001000
00000000
00000000
00000000
00000000
00000000
00000000
01100000
00000000
00110000
00000000
00000000
,
00202000
00000000
00000000
00000000
,
00300000
00000000
00000000
00000000
,
00013000
00000010
00000100
00001000
00000000
00000000
00000000
00000000
,
00000000
00000000
00000000
00000000
00000000
00000100
00000001
00001000
,
00000000
00000000
00000000
00000000
,
00000000
00000000
00000000
00000000
,
00000100
00010000
00001000
01000000
00000000
00000000
00000000
00000000
,
00000000
00000000
00000000
00000000
00000000
00100000
10000000
00010000
,
00000000
00000000
00000000
00000000
,
00000000
00000000
00000000
00000000
,
11000000
00000000
10000000
00000000
10000000
00000000
00000000
01000000
00000000
01000000
00000000
00000000
00100000
00000000
00000000
00010000
,
00000000
00000000
00001000
00000000
00000100
00000000
00000000
00000010
00000000
00000000
00000001
00000000
00000011
00000000
00000000
00000000
,
00000001
00000000
00000100
00000000
00000001
00000000
00000000
00000100
00000000
00000100
00000000
00000000
00000010
00000000
00000000
00001000
,
00000000
00000000
00000100
00000000
00010000
00000000
00000000
00001000
00000000
00000000
01000000
00000000
00100000
00000000
00010000
00000000
,
00100000
00000000
10000000
00000000
00010000
00000000
00000000
00100000
00000000
00100000
00000000
00000000
00001000
00000000
00000000
00010000
,
00000000
00000000
00000100
00000000
00001000
00000000
00000000
00000010
00000000
00000000
00000100
00000000
00001001
00000000
00000000
00000000
,
00000001
00000000
00001000
00000000
00000100
00000000
00000000
00010000
00000000
00010000
00000000
00000000
00001000
00000000
00000000
01000000
,
00000000
00000000
00100000
00000000
00010000
00000000
00000000
00100000
00000000
00000000
10000000
00000000
01000000
00100000
00000000
00100000
,
00002000
00000000
00000000
00000000
00000000
00000000
00000000
00003000
,
00010000
00000010
00000100
00000000
00000101
00000000
00000000
00000001
00000000
00000001
00000000
00000001
00000010
00000000
00000010
00001000
,
00000000
00000000
00000100
00000000
00010000
00000000
00000000
00011000
00000000
00000000
01001000
00000000
01000000
00010000
10000000
00000000
,
00010000
00100000
01000000
00000000
10010000
00000000
00000000
00010000
00000000
00010000
00000000
00010000
01000000
00000000
01000000
10000000
,
00000000
00010000
00100000
00000000
00101000
00000000
00000000
00011000
00000000
00000000
00010100
00000000
00001000
00000010
00000100
00000001
,
00001000
00000100
00010000
00000000
00011000
00000000
00001000
01000000
00000000
00100000
00000000
00010000
00100000
00000000
01000000
00001000
,
00000000
00010000
00000100
00000000
00001000
00000000
00000010
00000100
00000000
00000010
00001000
00000000
00000001
00000010
00000100
00001000
,
00000100
00010000
00001000
00000000
00010000
00000000
00001000
01000000
00000000
00100000
00000000
00010000
00100000
00000000
10000000
01000000
,
00000000
00010000
01000000
00000000
00100000
00000000
00010000
00001000
00000000
00000100
00000010
00000000
00000001
00001000
00000000
00001001
,
00000000
00000001
00000100
00000000
00001000
00000000
00000000
00010000
00000000
00010000
00000000
00000000
01000000
00000000
00000000
10100000
,
00000000
00000000
10000000
00000000
01000000
00000000
00000000
00100000
00000000
00000000
00001000
00000000
00010000
00001000
00010000
00000000
,
00000100
00001000
00000010
00000000
00000100
00000000
00000000
00001000
00000000
00001000
00000000
00000000
00010000
00000000
00000000
01010000
,
00000000
00000000
10000000
00000000
00010000
00000000
00000000
00100000
00000000
00000000
01000000
00000000
01000000
00100000
00010000
10000000
,
00010000
10000000
01000000
00000000
00100000
00000000
00000000
00010000
00000000
00010000
00000000
00000000
00001000
00000000
00000000
00000110
,
00000000
00000000
00000001
00000000
00000100
00000000
00000000
00000010
00000000
00000000
00000100
00000000
00000010
00010000
00001000
00100000
,
00010000
00100000
01000000
00000000
10000000
00000000
00000000
01000000
00000000
01000000
00000000
00000000
00100000
00000000
00000000
00011000
,
00000000
00010000
00000100
00000000
00001000
00000000
00000000
00000010
00000000
00000000
00010000
00000000
00001000
00010000
00000100
00010000
,
00001000
01000000
00100000
00000000
01010000
00000000
00010000
01000000
00000000
00001000
00000000
00010000
00000100
00000000
00001000
00000010
,
00000000
00000100
00000001
00000000
00000010
00000000
00000100
00000001
00000000
00000100
00001000
00000000
00000100
00010000
00001000
01000000
,
00100000
10000000
00010000
00000000
10010000
00000000
10000000
01000000
00000000
00010000
00000000
01000000
10000000
00000000
00100000
01000000
,
00000000
00001000
00010000
00000000
00000100
00000000
00001000
00000010
00000000
00000001
00000010
00000000
00000100
00000010
00001000
00000001
,
00000010
00000100
00000010
00000000
00000100
00000000
00001000
00000100
00000000
00010000
00000000
00001000
01000000
00000000
00100000
00010000
,
00000000
00100000
10000000
00000000
01000000
00000000
00010000
01000000
00000000
00100000
00001000
00000000
00010000
00000100
00001000
00000010
,
00000100
00000001
00000010
00000000
00001000
00000000
00000010
00000001
00000000
00001000
00000000
00000100
00010000
00000000
00001000
01000000
,
00000000
00100000
00010000
00000000
00100000
00000000
01000000
00010000
00000000
00010000
00100000
00000000
01000000
10000000
01000000
00100000
,
00010000
00100000
00000000
00100000
00001000
00000000
00001000
00010000
00000000
00000000
00000000
00000000
00010100
00000000
00000000
00000000
,
00000000
00001100
00000000
00001010
,
00000010
00010000
00000000
00010000
00001000
00000000
00001000
01000000
00000000
00000000
00000000
00000000
10100000
00000000
00000000
00000000
,
00000000
00000000
00000000
00000000
10010000
00000000
00000000
00000000
00010000
00000000
00000000
00110000
00000000
00110000
00000000
00000000
,
00022000
00000000
00000000
00000000
,
00000000
00000000
00000000
00000000
,
00033000
00000000
00000000
00000000
;
