#TITLE:FREEZE;
#SUBTITLE:;
#ARTIST:lixound feat. 薛南;
#TITLETRANSLIT:;
#SUBTITLETRANSLIT:;
#ARTISTTRANSLIT:;
#GENRE:;
#CREDIT:;
#MUSIC:FREEZE (BMS).ogg;
#BANNER:FREEZE (BMS).png;
#BACKGROUND:FREEZE (BMS)-bg.png;
#CDTITLE:cdtitle.png;
#SAMPLESTART:59.388;
#SAMPLELENGTH:14.895;
#SELECTABLE:YES;
#OFFSET:0.843;
#BPMS:0.000=131.000;
#STOPS:;
#ORIGIN:;
#TAGS:;
#PREVIEWVID:;
#JACKET:FREEZE-jacket.png;
#CDIMAGE:;
#DISCIMAGE:;
#BGCHANGES:0.000=FREEZE-bg.png=1.000=0=0=1,
3.000=FREEZE.mp4=1.000=0=0=1,
99999.000=-nosongbg-=1.000=0=0=0=StretchNoLoop====
;
#FGCHANGES:;

//--------------- dance-single - Pandemonium X ----------------
#NOTES:
     dance-single:
     Pandemonium X:
     Beginner:
     3:
     0.22283,0.288929,0.129311,0.145475,0,193,177,16,18,0,0,0,0,0,0.22283,0.288929,0.129311,0.145475,0,193,177,16,18,0,0,0,0,0:
0000
0000
0000
0000
,
0000
0000
0000
0000
,
0000
0000
0000
0000
,
0000
0000
0000
0000
,
0000
0000
0000
0000
,
1000
0001
1000
0001
,
0100
0010
0100
0010
,
0100
0001
0100
0001
,
0100
0010
1000
0100
,
0010
0001
0100
0000
,
0010
1000
0100
0000
,
0010
0100
1000
0000
,
0100
0010
0001
1001
,
0001
1000
0010
0000
,
1000
0001
0100
0000
,
0001
1000
0100
0000
,
0010
0100
1000
0001
,
1000
0100
0020
0031
,
0010
0100
2000
3010
,
0100
0010
2000
3001
,
0010
0001
0100
1001
,
1000
0001
0020
0130
,
0010
0001
2000
3100
,
1000
0010
0200
1300
,
0100
0001
1000
0110
,
1001
0000
0000
0000
0000
0001
0000
0200
,
0000
0000
0000
0000
0300
0000
0000
0001
,
0000
0000
0000
1000
0000
0000
0000
0200
,
0000
0000
0000
0310
,
1001
0001
0001
1000
,
0010
0010
0010
0100
,
0001
0001
0001
1000
,
0220
0000
0000
0330
,
0001
0000
1000
0000
,
0100
1000
0100
0000
,
0010
0000
0001
0000
,
0100
0001
0100
0000
,
0001
0000
1000
0000
,
0100
0000
0010
0001
,
0100
0000
0010
0010
,
0010
0000
0100
0010
,
1001
0000
0000
0000
,
0110
0000
0000
0000
,
1001
0000
0000
0000
,
0000
0000
0010
0100
,
1001
0110
2002
0000
,
3003
0000
1000
0001
,
0110
1001
0220
0000
,
0330
0000
0000
0000
,
0001
0001
1000
1000
,
0001
0001
1000
0001
,
0100
0100
0010
0010
,
0100
0100
0010
0100
,
0001
0001
1000
1000
,
0001
1000
0100
0010
,
0001
0001
0010
0010
,
0001
0010
0100
1000
,
0020
0030
0000
0000
,
0200
0300
0000
0000
,
0002
0003
0000
0000
,
2000
3000
0000
0000
,
0001
0000
1000
0000
,
0010
0000
0100
0000
,
0001
1000
0001
1000
,
0001
0100
0010
1000
,
1001
0000
0000
0000
;

//--------------- dance-single - Pandemonium X ----------------
#NOTES:
     dance-single:
     Pandemonium X:
     Easy:
     7:
     0.333668,0.472792,0.21013,0.088901,0.032328,289,263,26,11,0,0,0,0,0,0.333668,0.472792,0.21013,0.088901,0.032328,289,263,26,11,0,0,0,0,0:
0000
0000
0000
0000
,
0000
0000
0000
0000
,
0000
0000
0000
0000
,
0000
0000
0000
0000
,
0000
0000
0000
0000
,
0001
1000
0001
0010
,
0001
1000
0001
0100
,
0001
1000
0001
0010
,
0001
0100
0100
0000
0010
1000
0100
0000
,
0010
1100
1000
1010
,
0010
0110
0100
0101
,
0001
0011
0010
0110
,
0100
0000
1100
0000
1000
0001
0110
0000
,
1000
1010
0010
0110
,
0100
0101
0001
0011
,
0010
0110
0100
1100
,
1000
0001
0001
0000
1000
0010
0010
0000
,
0100
1000
0100
0001
1000
0000
1001
0000
,
0001
0010
1000
0010
0100
0000
0011
0000
,
0001
0010
1000
0010
0100
0000
1100
0000
,
1000
0100
0001
0100
0010
0000
0011
0000
,
0001
0100
1000
0100
0001
0000
1010
0000
,
1000
0010
0001
0010
1000
0000
1100
0000
,
1000
0100
0001
0100
1000
0000
1100
0000
,
1000
0010
0001
0010
0100
0001
1000
0100
,
0010
0000
0000
0000
0000
0100
1000
0002
,
0000
0000
0000
0000
0000
0103
0010
0200
,
0000
0310
0100
0020
0000
0130
0001
2000
,
0000
0000
0000
3000
,
1001
0000
0001
0000
0010
0000
0001
0200
,
0000
0000
0301
2000
0000
0000
3100
0020
,
0000
0000
0000
0000
0000
0000
0000
0200
,
0000
0000
0000
0330
,
1001
0001
1000
0010
,
0100
0000
0000
0100
0000
0000
0100
0000
0000
0000
0100
0000
0000
0000
0000
0000
,
0010
1000
0001
1000
,
0010
0000
0000
0010
0000
0000
0010
0000
0000
0000
0100
0000
0001
0000
0010
0000
,
0000
0000
0100
1000
0000
0100
0010
0100
,
0000
0000
0010
0001
0000
0010
0001
0100
,
0010
0000
0000
0000
0000
0000
0000
0000
0100
0000
0000
0100
0000
0000
0100
0000
,
0000
0000
0010
0100
,
0001
0000
0000
0001
0000
0000
0001
0000
0000
0000
0000
0000
0110
0000
0000
0000
,
1000
0000
0000
1000
0000
0000
1000
0000
0000
0000
0000
0000
0110
0000
0000
0000
,
0001
0000
0000
0001
0000
0000
0001
0000
0000
0000
1000
0000
1000
0000
0020
0000
,
0000
0030
0100
0010
,
1000
0000
0000
0100
0000
0000
0020
0000
0000
0000
0000
0000
0000
0000
0000
0000
,
0030
0000
0100
1000
,
0001
0000
0000
0100
0000
0000
0020
0000
0000
0000
0000
0000
0000
0000
0000
0000
,
1030
0000
0000
0000
,
0001
1000
0100
0001
,
0100
0000
1000
0000
0010
0000
0100
0001
,
0010
0100
0010
0001
,
1000
0000
0100
0000
0010
0000
0100
1000
,
0010
0100
0001
1000
,
0100
0000
1000
0000
0010
0000
0100
0010
,
1000
0001
0010
0001
,
0100
0010
0010
0000
1000
0001
0001
0000
,
1000
0000
0000
0100
0000
0000
0010
0001
,
0100
0000
0000
0010
0000
0000
0100
0001
,
1000
0000
0000
0001
0000
0000
0010
0001
,
0100
0000
0000
0010
0000
0000
1000
0010
,
1000
0100
0010
0001
,
0010
0100
1000
0001
,
0100
0010
0100
0010
0100
0010
0100
0010
,
0100
0010
0100
0010
0100
0010
0100
0010
,
1001
0000
0000
0000
;

//--------------- dance-single - Pandemonium X ----------------
#NOTES:
     dance-single:
     Pandemonium X:
     Medium:
     11:
     0.430651,0.525325,0.177802,0.355604,0.355604,373,351,22,44,0,0,0,0,0,0.430651,0.525325,0.177802,0.355604,0.355604,373,351,22,44,0,0,0,0,0:
0000
0000
0000
0000
,
0000
0000
0000
0000
,
0000
0000
0000
0000
,
0000
0000
0000
0000
,
0000
0000
0000
0000
,
0001
0010
0001
0010
,
0100
1000
0100
1000
,
0001
1000
0001
1000
,
0001
0000
0010
0000
0010
0000
0000
0000
0001
0010
0000
0100
1000
0000
0000
0000
,
1001
0000
0000
0001
0000
0000
0010
0000
0000
0000
0001
0000
0000
1000
0000
0001
,
1000
0000
0000
0001
0000
0000
0100
0000
0000
0000
0010
0000
0000
1000
0000
0100
,
0010
0000
0000
0100
0000
0000
1000
0000
0000
0000
0001
0000
0000
0100
0000
0010
,
1000
0000
0000
0010
0000
0000
0100
0000
0000
0000
0001
0000
0000
0010
0000
0100
,
0010
0000
0000
0001
0000
0000
0001
0000
0000
0000
0010
0000
0000
0001
0000
0100
,
0010
0000
0000
1000
0000
0000
1000
0000
0000
0000
0010
0000
0000
1000
0000
0001
,
1000
0000
0000
0100
0000
0000
0100
0000
0000
0000
0010
0000
0000
0100
0000
1000
,
0100
0000
0010
0000
0001
0000
1000
0000
0010
0000
0100
0010
0100
0000
0000
0000
,
0010
0000
1000
0000
0001
0000
0010
0000
0100
0010
0000
0001
0000
0000
0000
0000
,
1000
0000
0001
0000
0100
0000
0010
0000
1000
0010
0000
0100
0000
0000
0000
0000
,
0010
0000
0100
0000
0001
0000
0010
0000
0100
0010
0000
0001
0000
0000
0000
0000
,
0010
0000
0001
0000
0100
0000
0010
0000
0100
0010
0000
1000
0000
0001
1000
0000
,
0001
0000
0010
0000
0001
0000
1000
0000
0100
0010
0000
0100
0000
0000
0000
0000
,
0010
0000
0100
0000
1000
0000
0001
0000
0100
0001
0000
0010
0000
0000
0000
0000
,
0100
0000
0010
0000
0001
0000
0010
0000
0100
1000
0000
0010
0000
0000
0000
0000
,
0100
0000
0010
0000
1000
0000
0000
0000
0001
1000
0000
1000
0001
0000
0100
0000
,
0010
0000
0000
0000
0000
0100
0001
0200
,
0000
0000
0000
0000
0000
0301
0010
0200
,
0000
0310
0001
0200
0000
0310
0100
0002
,
0000
0000
0000
0000
0000
0000
0000
0000
0000
0000
0000
0000
1003
0100
1000
0100
,
0010
0000
0001
0000
0100
0000
0001
0000
1000
0001
0000
0010
0100
0000
2000
0000
,
0000
3100
1000
0020
0000
0130
0001
1000
,
0200
0000
0010
0000
1300
0000
1000
0002
,
0100
0000
0100
0000
0100
0000
0000
0100
0000
0100
0000
0103
0010
0000
1000
0000
,
0001
0000
0010
0001
0000
0100
0000
0010
0000
0000
0100
0000
0010
0000
1000
0000
,
0001
0000
0000
0001
0000
0000
1000
0000
0000
0000
1100
0000
0000
0000
0100
0000
,
1000
0000
0001
0100
0000
0001
0000
0100
0000
0000
0001
0000
0010
0000
0100
0000
,
0010
0000
0000
0001
0000
0000
1000
0000
0000
0000
0001
0000
0100
0000
0110
0000
,
0000
0000
0100
0001
0000
1000
0100
0110
,
0000
0000
0100
1000
0000
0100
1000
0010
,
0110
0000
0000
0000
0000
0000
0100
0001
0010
0000
0000
0010
0000
0000
0110
0000
,
0000
0000
0000
0100
0010
0001
0010
0100
,
1100
0000
0000
1100
0000
0000
1100
0000
0000
0000
0100
0000
1000
0000
0001
0000
,
0101
0000
0000
0101
0000
0000
0101
0000
0000
0000
0001
0000
1000
0000
0001
0000
,
0011
0000
0000
0011
0000
0000
0011
0000
0000
0000
0010
0000
0010
0000
0200
0000
,
0000
0000
0300
1000
0100
0001
0100
1000
,
1100
0000
0000
0011
0000
0000
2002
0000
0000
0000
0000
0000
0000
0000
0000
0000
,
3003
0000
0000
0001
0100
1000
0100
0001
,
1001
0000
0000
1010
0000
0000
0202
0000
0000
0000
0000
0000
0000
0000
0000
0000
,
0303
0000
0001
1000
0000
0001
1000
0000
0001
0010
0000
0100
1000
0000
0001
0000
,
0100
0000
0000
0001
0000
0000
0010
0000
0000
0001
0000
0000
1000
0000
0100
0000
,
0010
0000
0000
0100
0000
0000
1000
0000
0000
0001
0000
0000
0100
0000
0001
0000
,
0010
0000
0000
0001
0000
0000
1000
0000
0000
0100
0000
0000
0010
0000
0100
0000
,
1000
0000
0000
0100
0000
0000
1000
0000
0000
0010
0000
0000
0100
0000
0010
0000
,
1000
0000
0000
0001
0000
0000
0010
0000
0000
0001
0000
0000
0100
0000
0010
0000
,
1000
0000
0000
0100
0000
0000
0010
0000
0000
0100
0000
0000
0010
0000
0001
0000
,
0100
0000
0000
0010
0000
0000
1000
0000
0000
0001
0000
0000
0010
0000
0001
0000
,
0100
0000
0000
0010
0000
0000
1000
0000
0000
0001
0000
0000
1000
0000
0100
0000
,
0020
0032
0203
0320
,
2030
0000
3002
0000
0023
0000
0031
0100
,
0020
2030
3002
2003
,
3200
0000
0320
0000
0230
0000
0310
0001
,
0200
0320
2030
3002
,
0023
0000
0032
0000
2003
0000
3100
1000
,
0020
0000
0000
2030
0000
0000
3002
0000
0000
0023
0000
0000
0230
0000
0000
0320
,
0000
0000
0032
0000
0000
2003
0000
0000
3020
0000
0000
0230
0000
0000
0310
0000
,
1001
0000
0000
0000
;

//--------------- dance-single - Pandemonium X ----------------
#NOTES:
     dance-single:
     Pandemonium X:
     Hard:
     14:
     0.604989,0.77344,0.387932,0.42026,0.678881,524,476,48,52,0,0,0,0,0,0.604989,0.77344,0.387932,0.42026,0.678881,524,476,48,52,0,0,0,0,0:
0000
0000
0000
0000
,
0000
0000
0000
0000
,
0000
0000
0000
0000
,
0000
0000
0000
0000
,
0000
0000
0000
0000
,
0001
0100
0001
0000
1000
0000
0001
0000
1000
0100
1000
0000
0001
0000
0001
0000
,
1000
0010
1000
0000
0001
0000
1000
0000
0001
0100
0001
0000
1000
0000
1000
0000
,
0100
0010
0001
0000
1000
0000
0001
0000
1000
0010
0100
0000
0010
0000
1000
0000
,
0001
0000
0110
0000
1100
0000
0000
0000
1000
0100
0000
0010
0001
0000
1000
0001
,
2000
0000
0000
0010
0000
0000
0001
0000
0000
0000
3100
0000
0000
0110
0000
0010
,
0002
0000
0000
0010
0000
0000
1000
0000
0000
0000
0103
0000
0000
0110
0000
1000
,
0200
0000
0000
0010
0000
0000
1000
0000
0000
0000
0310
0000
0000
1001
0000
0001
,
0020
0000
0000
0100
0000
0000
0001
0000
0000
0000
0130
0000
0000
1001
0000
1000
,
0002
0000
0000
0100
0000
0000
1000
0000
0000
0000
0013
0000
0000
1100
0000
0100
,
2000
0000
0000
0100
0000
0000
0010
0000
0000
0000
3001
0000
0000
0101
0000
0001
,
0200
0000
0000
0010
0000
0000
0001
0000
0000
0000
0310
0000
0000
1001
0000
1000
,
0002
0000
0000
0010
0000
0000
0013
0000
0000
0000
0010
0100
0000
0100
1000
0100
,
0020
0000
0031
0000
0020
0000
1030
0000
0010
0001
0000
0100
0000
0010
0100
0001
,
0200
0000
1300
0000
0200
0000
0301
0000
1000
0010
0000
1000
0000
0001
1000
0100
,
0020
0000
0031
0000
0200
0000
0301
0000
1000
0001
0000
0100
0000
0010
1000
0001
,
2000
0000
3100
0000
2000
0000
3010
0000
0100
0001
0000
0000
1001
0000
0000
0000
,
2000
0000
3010
0000
0002
0000
0013
0000
0001
0010
0000
0100
0000
0010
0001
1000
,
0020
0000
1030
0000
0020
0000
0031
0000
0010
0100
0000
0001
0000
0001
1000
0100
,
0020
0000
0031
0000
0200
0000
0310
0000
0100
0010
0000
1000
0000
0100
0010
0001
,
1000
0000
1010
0000
1100
0000
0100
0000
0010
0100
0000
1000
0000
0100
0010
0001
,
2001
0000
3000
0000
0000
0200
0320
0032
,
0000
0000
0000
0000
0000
0023
2030
3020
,
0000
0032
0203
2300
0000
3200
0302
2000
,
0000
0000
0000
0000
0000
0000
0000
0000
0000
0000
0003
0000
3001
0010
0001
0010
,
0200
0000
1300
0000
0200
0000
0310
0000
0100
0010
0000
0011
0000
0010
0001
0100
,
0020
0000
1030
0000
0020
0000
0130
0000
0010
0100
0000
0101
0000
1000
0100
0010
,
0200
0000
1300
0000
0200
0000
0310
0000
0100
0010
0000
0011
0000
0010
0001
0100
,
0001
0000
0011
0000
1100
0000
1000
0001
0000
0001
1000
0000
0001
0100
0001
0100
,
0010
0000
0100
0010
0000
1000
0000
0002
0000
0000
0013
0000
0001
0000
0100
0000
,
0101
0000
0000
1010
0000
0000
1100
0000
0000
0000
1001
0000
0000
0000
1000
0000
,
0100
0000
1000
0100
0000
0100
0000
0100
0000
0000
0010
0000
0001
0000
0100
0000
,
0101
0000
0000
0011
0000
0000
0101
0000
0000
0000
0001
0000
1000
0000
1001
0000
,
0000
0000
0100
0201
0000
0310
1000
1200
,
0000
0000
1300
1100
0000
0100
0010
0001
,
1001
0000
0000
0000
0000
0000
1000
0010
1000
0000
0000
0101
0000
0000
0022
0000
,
0000
0000
0033
0001
0010
0100
1000
0001
,
1001
0000
0000
0101
0000
0000
1001
0000
0000
0000
0001
0000
1000
0000
0010
0000
,
1010
0000
0000
1001
0000
0000
1010
0000
0000
0000
1000
0000
0010
0000
0100
0000
,
0110
0000
0000
1010
0000
0000
0110
0000
0000
0000
0001
0000
0001
0000
2000
0000
,
0000
0000
0000
0000
3000
0000
0100
0000
1000
0000
0010
0000
0100
0010
0100
0010
,
1000
0000
0000
0101
0000
0000
0022
0000
0000
0000
0000
0000
0000
0000
0000
0000
,
0033
0000
0000
0010
0100
0100
1000
0100
,
1100
0000
0000
0011
0000
0000
2002
0000
0000
0000
0000
0000
0000
0000
0003
0000
,
3001
0000
1000
0010
0000
0010
0001
0000
0001
0010
0000
0010
1000
0000
1001
0000
,
1010
0000
1000
0010
0000
0000
0100
0000
0001
0010
0000
0000
0100
0000
0010
0000
,
0001
0000
0100
0010
0000
0000
1000
0000
0001
0010
0000
0010
0100
0000
1000
0000
,
0001
0000
1000
0010
0000
0000
0100
0000
0010
1000
0000
0000
0100
0000
0010
0100
,
0010
0000
0010
0001
0000
0010
0100
0000
0100
1000
0000
1000
0010
0000
0100
0001
,
1000
0000
0001
1000
0000
0000
0100
0000
1000
0001
0000
0000
0100
0010
0100
0000
,
0001
0000
1000
0010
0000
0000
1000
0000
0001
1000
0000
0000
0001
0000
0010
0100
,
1000
0000
0100
0010
0000
0000
0100
0000
0010
0100
0000
0000
0100
0000
0010
0100
,
1000
0000
0001
1000
0001
0000
1000
0100
0000
0100
0000
0010
0000
0001
0010
0100
,
1000
0100
0010
0001
0000
0000
0010
0000
0000
0001
0000
0000
0100
0000
0010
0000
,
1000
0001
0010
0001
0000
0000
1000
0000
0000
0010
0000
0000
0100
0000
0010
1000
,
0100
0010
0100
1000
0000
0000
0100
0000
0000
1000
0000
0000
0010
0000
0100
0000
,
0001
0010
0100
0010
0000
0000
0100
0000
0000
0010
0000
0000
0001
0000
1000
0000
,
0010
1000
0001
0100
0000
0000
0001
0010
0100
1000
0000
0000
0100
1000
0010
0100
,
0000
0100
0010
0100
0000
0000
0001
0000
0000
0001
0000
0000
0010
0100
1000
0001
,
0100
1000
0100
0001
0000
0000
1000
0100
0001
0100
0000
0000
0010
0001
0100
0010
,
1000
0010
1000
0010
0100
0001
0100
0001
1000
0001
1000
0001
0010
0100
1000
0001
,
0200
0000
0000
0000
,
0300
0000
0000
0000
;

//--------------- dance-double - Pandemonium X ----------------
#NOTES:
     dance-double:
     Pandemonium X:
     Easy:
     6:
     0.259776,0.367727,0.145475,0.242458,0,225,207,18,30,0,0,0,0,0,0.259776,0.367727,0.145475,0.242458,0,225,207,18,30,0,0,0,0,0:
00000000
00000000
00000000
00000000
,
00000000
00000000
00000000
00000000
,
00000000
00000000
00000000
00000000
,
00000000
00000000
00000000
00000000
,
00000000
00000000
00000000
00000000
,
10000000
10000000
00010000
00010000
,
00100000
00100000
00001000
00001000
,
00010000
00010000
00000100
00000100
,
00001000
00000010
00000001
00000010
,
00001000
00000100
00010000
00011000
,
00001000
01000000
00100000
10100000
,
10000000
00010000
00100000
11000000
,
10000000
00010000
00100000
00101000
,
00001000
00010000
00000100
00001100
,
00001000
00000010
00000100
00001010
,
00000010
00000100
00000001
00000011
,
00000001
00000010
00010000
00001000
,
00010000
00001000
02000000
03100000
,
10000000
00010000
00200000
00301000
,
00010000
00000010
00000200
00000301
,
00000010
00000001
00001000
00011000
,
00001000
01000000
00200000
10300000
,
01000000
00001000
00020000
00030010
,
00000100
00000001
00000020
00000130
,
00000010
00000001
00000100
00000010
,
00001010
00000000
00000000
00000000
00000000
00000010
00010000
00000020
,
00000000
00000000
00000000
00000000
00000030
00010000
00001000
00020000
,
00000000
00031000
01000000
00002000
00000000
01003000
00100000
02000000
,
00000000
00000000
00000000
03000000
,
10010000
10000000
00010000
00100000
,
00001000
00010000
00000100
00001000
,
00000010
00000000
00000100
00000000
00000001
00000000
00000010
00000200
,
00000000
00000000
00000000
00000000
00000000
00000000
00000000
00000300
,
00000010
00000001
00000100
00000010
,
00001000
00001000
00001000
00001000
,
00000100
00010000
00001000
00100000
,
01000000
01000000
01000000
10000000
,
00000000
00000000
00000000
00010000
00000000
00000000
00000000
00100000
,
00000000
00000000
00000000
00001000
00000000
00000000
00010000
00000000
,
00010100
00000000
00000100
00000100
,
00000100
00000000
00001000
00000010
,
00000202
00000000
00000000
00000303
00000000
00000000
00000000
00000000
,
00002020
00000000
00000000
00003030
00000000
00000000
00000000
00000000
,
00020200
00000000
00030300
00000000
,
00011000
00000000
01001000
00000000
,
01100000
00100000
00200000
00000000
,
00300000
00000000
01000000
00001000
,
00010000
00010000
00020000
00000000
,
00001000
00030000
00000000
00000000
00000000
00000000
00000000
00000000
,
00000100
00010000
00001000
01000000
,
00100000
10000000
01000000
00010000
,
01000000
10000000
00100000
01000000
,
00010000
00100000
00001000
00010000
,
00000100
00001000
00000010
00000100
,
00000001
00000010
00001000
00000010
,
00000001
00000010
00000100
00001000
,
00000100
00010000
00001000
01000000
,
00200000
00300000
20000000
30000000
,
00020000
00030000
00200000
00300000
,
00002000
00003000
00020000
00030000
,
00000200
00000300
00002000
00003000
,
00000020
00000130
00000010
00000100
,
00000020
00001030
00000010
00001000
,
00000200
00010300
00000100
00010000
,
00001000
00010000
00001000
00010000
00001000
00010000
00001000
00010000
,
00011000
00000000
00000000
00000000
;

//--------------- dance-double - Pandemonium X ----------------
#NOTES:
     dance-double:
     Pandemonium X:
     Medium:
     9:
     0.347522,0.499058,0.218212,0.347522,0.109106,301,274,27,43,0,0,0,0,0,0.347522,0.499058,0.218212,0.347522,0.109106,301,274,27,43,0,0,0,0,0:
00000000
00000000
00000000
00000000
,
00000000
00000000
00000000
00000000
,
00000000
00000000
00000000
00000000
,
00000000
00000000
00000000
00000000
,
00000000
00000000
00000000
00000000
,
10000000
11000000
00010000
01010000
,
00100000
00101000
00010000
00011000
,
00000100
00001100
00001000
00001010
,
00000001
00000000
00000100
00000000
00000100
00000000
00000000
00000000
00000001
00001000
00000000
00000000
00000110
00000000
00000000
00000000
,
00000010
00000000
00000000
00000100
00000000
00000000
00000010
00000000
00000000
00000000
00001000
00000000
00000000
00000100
00000000
00000000
,
00010000
00000000
00000000
00001000
00000000
00000000
00010000
00000000
00000000
00000000
00001000
00000000
00000000
01000000
00000000
00000000
,
00100000
00000000
00000000
10000000
00000000
00000000
00100000
00000000
00000000
00000000
01000000
00000000
00000000
00010000
00000000
00000000
,
00100000
00000000
00000000
00001000
00000000
00000000
00100000
00000000
00000000
00000000
00001000
00000000
00000000
00010000
00000000
00000000
,
00000100
00000000
00000000
00001000
00000000
00000000
00000010
00000000
00000000
00000000
00000001
00000000
00000000
00000010
00000000
00000000
,
00001000
00000000
00000000
00000100
00000000
00000000
00010000
00000000
00000000
00000000
00001000
00000000
00000000
01000000
00000000
00000000
,
00100000
00000000
00000000
10000000
00000000
00000000
01000000
00000000
00000000
00000000
00100000
00000000
00000000
01000000
00000000
00000000
,
10000000
00000000
00000000
01000000
00000000
00000000
00100000
00000000
00000000
00000000
01000000
10000000
00000000
10000000
00010000
00000000
,
01000000
00100000
10000000
00010000
00100000
00000000
00110000
00000000
,
00100000
00001000
00010000
00000100
00001000
00000000
00001010
00000000
,
00000010
00000100
00000001
00001000
00000100
00000000
00000011
00000000
,
00000001
00001000
00000100
00010000
00001000
00000000
10010000
00000000
,
01000000
10000000
00100000
01000000
00010000
00000000
10100000
00000000
,
10000000
00010000
00100000
00001000
00010000
00000000
00001100
00000000
,
00001000
00000010
00000100
00000001
00000010
00000000
00001100
00000000
,
00000100
00000000
00010000
00000000
00010000
00000000
00000000
00000000
00001000
00010000
00000000
00000000
00011000
00000000
00000000
00000000
,
00101000
00000000
00000000
00000000
00000000
00002000
02003000
03200000
,
00000000
00000000
00000000
00000000
00000000
02300000
03200000
20300000
,
00000000
32000000
03200000
00320000
00000000
00230000
00302000
00020000
,
00000000
00000000
00000000
00003000
,
00030100
00000000
00001000
00000000
00000010
00000100
00000002
00000023
,
00000000
00000130
00002000
00003020
00000000
00000130
00000002
00002003
,
00000100
00000000
00000100
00000000
00000100
00000000
00003100
00020000
,
00002000
00000000
00000000
00030000
,
00103000
01000000
10000000
00100000
,
01000000
00000000
00000000
00010000
00000000
00000000
00100000
00000000
00000000
00000000
00101000
00000000
00000000
00000000
00000000
00000000
,
00010000
00000100
00001000
00000010
,
00000100
00000000
00000000
00000100
00000000
00000000
00000010
00000000
00000000
00000000
00000100
00000000
00000010
00000000
00001000
00000000
,
00000000
00000000
00000100
00010000
00000000
00000100
00010000
00001000
,
00000000
00000000
00001000
01000000
00000000
00001000
01000000
00100000
,
10000000
00000000
00000000
00000000
00000000
00000000
01000000
00000000
00100000
00000000
00000000
00100000
00000000
00000000
00100000
00000000
,
00000000
00000000
00000000
01000000
10000000
00010000
01000000
00001000
,
00011000
00000000
00000000
00011000
00000000
00000000
00011000
00000000
00000000
00000000
00010000
00000000
00000100
00000000
00000000
00000000
,
00001010
00000000
00000000
00001010
00000000
00000000
00001010
00000000
00000000
00000000
00000010
00000000
00000100
00000000
00000000
00000000
,
00001001
00000000
00000000
00001100
00000000
00000000
00001001
00000000
00000000
00000000
00000100
00000000
00010000
00000000
00002000
00000000
,
00000000
00000000
00003000
00000000
00010000
00010000
00000100
00001000
,
00000010
00000000
00000000
00000010
00000000
00000000
00000020
00000000
00000000
00000000
00000000
00000000
00000000
00000000
00000000
00000000
,
00000030
00000000
00000000
00000100
00000010
00010000
00001000
00100000
,
01000000
00000000
00000000
01000000
00000000
00000000
02000000
00000000
00000000
00000000
00000000
00000000
00000000
00000000
00000000
00000000
,
13000000
00000000
00000000
00000000
,
01000000
10000000
00100000
01000000
,
00001000
00000000
00010000
00000000
00000100
00000000
00001000
00000010
,
00000100
00000001
00000010
00000100
,
00001000
00000000
00000100
00000000
00010000
00000000
00001000
01000000
,
00100000
10000000
00100000
00010000
,
00100000
00000000
01000000
00000000
00010000
00000000
00100000
00001000
,
00010000
00000010
00000001
00000010
,
00001000
00000000
00000100
00000000
00010000
00000000
00001000
00100000
,
02000000
03000000
20000000
30000000
,
00200000
00300000
02000000
03000000
,
00002000
00003000
00020000
00030000
,
00000020
00000030
00000200
00000300
,
00000002
00000203
00000320
00002030
,
00003200
00020300
00032000
02003000
,
03200000
20300000
32000000
03200000
,
00301000
00010000
00001000
00010000
00001000
00010000
00001000
00010000
,
00011000
00000000
00000000
00000000
;

//--------------- dance-double - Pandemonium X ----------------
#NOTES:
     dance-double:
     Pandemonium X:
     Hard:
     13:
     0.520706,0.666758,0.177802,0.396014,0.50512,451,429,22,49,0,0,0,0,0,0.520706,0.666758,0.177802,0.396014,0.50512,451,429,22,49,0,0,0,0,0:
00000000
00000000
00000000
00000000
,
00000000
00000000
00000000
00000000
,
00000000
00000000
00000000
00000000
,
00000000
00000000
00000000
00000000
,
00000000
00000000
00000000
00000000
,
10000000
00010000
00100000
00000000
00001000
00010000
00000100
00000000
,
00001000
00000010
00000100
00000000
00000010
00000001
00000010
00001000
,
00000100
00010000
00001000
00000000
01000000
00100000
10000000
00000000
,
00010000
00000000
00100000
00000000
00100000
00000000
00000000
00000000
01000000
10000000
00000000
00010000
00100000
00000000
00010000
00100000
,
00001000
00000000
00000000
00010000
00000000
00000000
00001000
00000000
00000000
00000000
00010000
00000000
00000000
00000100
00000000
00001000
,
00000010
00000000
00000000
00000100
00000000
00000000
00000001
00000000
00000000
00000000
00000010
00000000
00000000
00000001
00000000
00000001
,
00000010
00000000
00000000
00000100
00000000
00000000
00000010
00000000
00000000
00000000
00000001
00000000
00000000
00001000
00000000
00000010
,
00010000
00000000
00000000
00001000
00000000
00000000
00100000
00000000
00000000
00000000
01000000
00000000
00000000
10000000
00000000
10000000
,
01000000
00000000
00000000
00100000
00000000
00000000
00001000
00000000
00000000
00000000
00010000
00000000
00000000
00000100
00000000
00001000
,
00000010
00000000
00000000
00000100
00000000
00000000
00000001
00000000
00000000
00000000
00000001
00000000
00000000
00001000
00000000
00001000
,
00000100
00000000
00000000
00000100
00000000
00000000
00010000
00000000
00000000
00000000
00001000
00000000
00000000
01000000
00000000
00100000
,
10000000
00000000
01000000
00000000
00010000
00000000
01000000
00000000
10000000
00000000
01000000
10000000
00000000
10000000
01000000
00100000
,
02000000
00000000
13000000
00000000
00200000
00000000
01300000
00000000
00010000
00100000
00000000
00101000
00000000
00001000
00010000
00000100
,
00002000
00000000
00003010
00000000
00000200
00000000
00000301
00000000
00000010
00000100
00000000
00001100
00000000
00000100
00010000
00001000
,
00200000
00000000
00310000
00000000
20000000
00000000
31000000
00000000
00100000
00010000
00000000
00110000
00000000
00100000
00001000
00010000
,
00000020
00000000
00001030
00000000
00000200
00000000
00000310
00000000
00000001
00000010
00000000
00000000
00001001
00000000
00000000
00000000
,
00000200
00000000
00001300
00000000
00000020
00000000
00000130
00000000
00000010
00010000
00000000
00011000
00000000
00010000
00001000
01000000
,
00200000
00000000
10300000
00000000
02000000
00000000
03100000
00000000
00010000
00100000
00000000
01100000
00000000
00100000
00001000
00010000
,
00000020
00000000
00001030
00000000
00002000
00000000
00003100
00000000
00000010
00000001
00000000
00001100
00000000
00001000
00000100
00010000
,
00002000
00000000
01003000
00000000
00200000
00000000
10300000
00000000
01000000
00100000
00000000
00110000
00000000
00100000
00001000
00010000
,
00001000
00000000
00000000
00000000
00000000
00200000
02300000
23000000
,
00000000
00000000
00000000
00000000
00000000
32000000
03200000
00320000
,
00000000
00230000
00302000
00023000
00000000
00030020
00000230
00000302
,
00000000
00000000
00000000
00000000
00000000
00000000
00000000
00000000
00000000
00000000
00000000
00000000
00001003
00000010
00001000
00000010
,
00000200
00000000
00000301
00000000
00000020
00000000
00000130
00000000
00001000
00000100
00000000
00010000
00001000
00000000
02000000
00000000
,
00000000
03100000
10000000
02000000
00000000
03010000
01000000
20000000
,
01000000
00000000
00100000
00000000
30010000
00000000
00100000
00001000
,
00022000
00000000
00000000
00000000
00000000
00000000
00033000
00010000
,
00000100
00000000
00001000
00000010
00000000
00000001
00000000
00000010
00000000
00000000
00000100
00000000
00000001
00000000
00001000
00000000
,
00001200
00000000
00000000
00010000
00000000
00000000
00001000
00000000
00000000
00000000
00010300
00000000
00000000
00000000
00001000
00000000
,
00010000
00000000
00001000
01000000
00000000
00100000
00000000
10000000
00000000
00000000
01000000
00000000
00010000
00000000
01000000
00000000
,
21000000
00000000
00000000
00100000
00000000
00000000
30010000
00000000
00000000
00000000
01000000
00000000
00100000
00000000
10010000
00000000
,
00000000
00000000
00100000
00002000
00000000
00013000
00000100
00000020
,
00000000
00000030
00000100
00010000
00000000
00001000
01000000
00100000
,
20000000
00000000
30000000
00000000
00000000
00000000
00010000
00100000
00001000
00000000
00000000
00010000
00000000
00000000
00020100
00000000
,
00000000
00000000
00030000
00000100
00001000
00000010
00000100
00000001
,
00001001
00000000
00000000
00001100
00000000
00000000
00011000
00000000
00000000
00000000
00001000
00000000
01000000
00000000
00100000
00000000
,
10100000
00000000
00000000
00110000
00000000
00000000
00011000
00000000
00000000
00000000
00100000
00000000
00001000
00000000
00010000
00000000
,
00010100
00000000
00000000
00101000
00000000
00000000
00011000
00000000
00000000
00000000
00010000
00000000
00000010
00000000
00000200
00000000
,
00000000
00000000
00000000
00000000
00000300
00000000
00000010
00000000
00000100
00000000
00000001
00000000
00001000
00000100
00001000
00000100
,
00002000
00000000
00000000
00003020
00000000
00000000
00020000
00000000
00000000
00000000
00000000
00000000
00000000
00000000
00000000
00000000
,
00030030
00000000
00000000
00010000
00001000
01000000
00100000
10000000
,
00200000
00000000
00000000
02300000
00000000
00000000
00002000
00000000
00000000
00000000
00000000
00000000
00000000
00000000
00000000
00000000
,
03003000
00000000
00001000
00010000
00000000
00010000
00001000
00000000
00010000
00000100
00001000
00000010
00000100
00000001
00000010
00000100
,
00001000
00000000
00000010
00000100
00000000
00000000
00000001
00000000
00000010
00000100
00000000
00000000
00001000
00000000
00000100
00000000
,
00010000
00000000
00001000
00100000
00000000
00000000
00001000
00000000
00000000
01000000
00000000
00000000
00100000
10000000
00010000
00100000
,
00010000
00000000
00100000
00001000
00000000
00000000
00010000
00000000
00000100
00001000
00000000
00000000
00000010
00000000
00000100
00000000
,
00000001
00000000
00000010
00000100
00000000
00000000
00000010
00000000
00000000
00000001
00000000
00000000
00000100
00000000
00000010
00000000
,
00001000
00000000
00000100
00010000
00000000
00000000
00001000
00000000
00100000
01000000
00000000
00000000
00100000
00000000
00001000
00000000
,
00010000
00000000
00000010
00000100
00000000
00000000
00000010
00000000
00000000
00001000
00000000
00000000
00001000
00000010
00000100
00000001
,
00001000
00000000
00000100
00010000
00000000
00000000
00001000
00000000
01000000
00100000
00000000
00000000
01000000
00000000
00100000
00000000
,
10000000
00000000
00010000
00100000
00000000
00000000
00001000
00000000
00010000
00000100
00000000
00001000
00000000
00000010
00000100
00000001
,
00001000
00000100
00010000
00001000
00000000
00000000
00010000
00000000
00000000
00001000
00000000
00000000
01000000
00000000
00100000
00000000
,
10000000
00000000
00000000
01000000
00000000
00000000
00010000
00000000
00000000
01000000
00000000
00000000
00100000
00000000
00001000
00010000
,
00001000
00100000
01000000
10000000
00000000
00000000
01000000
00000000
00000000
10000000
00000000
00000000
00010000
00000000
00100000
00000000
,
00001000
00000000
00000000
00010000
00000000
00000000
00000100
00000000
00000000
00001000
00000000
00000000
00000010
00000000
00000100
00000000
,
00000001
00000100
00000010
00001000
00000100
00010000
00001000
01000000
,
00100000
10000000
01000000
00100000
00010000
01000000
00001000
00010000
,
00000010
00000001
00000010
00001000
00000100
00010000
00000010
00010000
,
00001000
00010000
00001000
00010000
00001000
00010000
00001000
00010000
00001000
00010000
00001000
00010000
00001000
00010000
00001000
00010000
,
00002000
00000000
00000000
00000000
,
00003000
00000000
00000000
00000000
;
