#TITLE:Drink Beer;
#SUBTITLE:;
#ARTIST:Bassbrain;
#TITLETRANSLIT:;
#SUBTITLETRANSLIT:;
#ARTISTTRANSLIT:;
#GENRE:;
#CREDIT:;
#MUSIC:Drink Beer.ogg;
#BANNER:Drink Beer.png;
#BACKGROUND:Drink Beer-bg.png;
#CDTITLE:cdtitle.png;
#SAMPLESTART:99.846;
#SAMPLELENGTH:12.411;
#SELECTABLE:YES;
#OFFSET:0.811;
#BPMS:0.000=155.000
,128.000=153.660
,131.000=155.000
,193.000=77.500
,201.000=155.000
,217.000=310.000
,249.000=620.000
,296.000=155.000
;
#STOPS:64.000=1.161
,296.000=1.259
;
#ORIGIN:;
#TAGS:;
#PREVIEWVID:;
#JACKET:Drink Beer-jacket.png;
#CDIMAGE:;
#DISCIMAGE:;
#BGCHANGES:2.000=Drink Beer.mp4=1.000=0=0=1,
99999.000=-nosongbg-=1.000=0=0=0=StretchNoLoop====
;
#FGCHANGES:;

//--------------- dance-single - Pandemonium X ----------------
#NOTES:
     dance-single:
     Pandemonium X:
     Beginner:
     4:
     0.154061,0.342705,0.098729,0.022784,0,142,129,13,3,0,0,0,0,0,0.154061,0.342705,0.098729,0.022784,0,142,129,13,3,0,0,0,0,0:
0000
0000
0000
0000
,
0000
0000
0000
0000
,
0000
0000
0000
0000
,
0000
0000
0000
0000
,
0000
0000
0000
0000
,
0000
0000
0000
0000
,
0000
0000
0000
0000
,
0000
0000
0000
0000
,
0000
0000
0000
0000
,
0001
0000
0000
0000
,
1000
0000
0000
0000
,
0010
0000
0000
0000
,
0100
0000
0000
0000
,
0001
0000
0000
0000
,
1000
0000
0000
0000
,
0010
0010
0010
0010
,
0000
0100
0000
0010
,
0000
1000
0000
0001
,
0000
1000
0000
0100
,
0000
0010
0010
0001
,
0001
1000
0000
0001
,
0000
0100
0000
0010
,
0000
1000
0000
0100
,
0000
0010
0010
0010
,
0000
0200
0000
0000
,
0000
0000
0000
0000
,
0300
0010
0000
0001
,
0000
1000
0000
0010
,
1000
0100
0000
0010
,
0000
0100
0000
0010
,
0001
0100
0000
0010
,
0000
2000
0000
0000
,
3000
0001
0000
1000
,
0000
0010
0000
1000
,
0000
0100
0000
1000
,
0000
0001
0000
0100
,
0000
0010
0000
1000
,
0000
0010
0000
0100
,
0000
0001
0000
0010
,
0000
0100
0000
1000
,
0000
0001
0001
0001
,
0000
0000
0000
0000
,
0000
1000
1000
1000
,
0000
0000
0000
0000
,
0000
0010
0010
0010
,
0000
0000
0000
0000
,
0000
0100
0100
0100
,
0000
0000
0000
0000
,
0000
1001
0000
1001
,
0000
1001
0000
1001
,
0000
1001
0000
1001
,
0000
1001
0000
1001
,
0000
1001
0000
1001
,
0000
1001
0000
1001
,
0000
0020
0000
0000
,
0000
0000
0000
0000
,
0000
0000
0000
0000
,
0000
0000
0000
0000
,
0000
0000
0000
0000
,
0000
0000
0000
0000
,
0000
0000
0000
0000
,
0000
0000
0000
0000
,
0000
0000
0000
0000
,
0000
0000
0000
0000
,
0000
0000
0000
0000
,
0000
0000
0000
0000
,
0000
0000
0000
0000
,
0000
0000
0000
0000
,
0000
0000
0000
0000
,
0000
0000
0000
0000
,
0000
0000
0000
0000
,
0000
0000
0000
0000
,
0000
0000
0000
0000
,
0000
0000
0000
0000
,
0030
1000
1000
1000
,
0000
0001
0000
1000
,
0000
0010
0010
0010
,
0000
0100
0000
0001
,
0000
0010
0010
0010
,
0000
0100
0000
1000
,
0000
0001
0001
0001
,
0000
1000
0000
0000
0000
0000
0000
0000
,
0010
0100
0100
0100
,
0000
0010
0010
0010
,
0000
1000
1000
1000
,
0000
0001
0001
0001
,
0000
0010
0001
0010
,
0000
0100
1000
0100
,
0000
1000
0010
1000
,
0000
0001
0100
0001
,
0000
0110
0000
0000
;

//--------------- dance-single - Pandemonium X ----------------
#NOTES:
     dance-single:
     Pandemonium X:
     Easy:
     7:
     0.280999,0.482445,0.151891,0.045567,0,259,239,20,6,0,0,0,0,0,0.280999,0.482445,0.151891,0.045567,0,259,239,20,6,0,0,0,0,0:
0000
0000
0000
0000
,
0000
0000
0000
0000
,
0000
0000
0000
0000
,
0000
0000
0000
0000
,
0000
0000
0000
0000
,
0000
0000
0000
0000
,
0000
0000
0000
0000
,
0000
0000
0000
0000
,
0000
0000
0000
0000
,
0001
0100
0001
0100
,
0010
0000
1000
0000
0010
0000
1000
0001
,
1000
0001
0010
0001
,
1000
0000
0100
0000
1000
0000
0100
1000
,
0010
0100
0001
0100
,
0010
1000
0010
1000
,
0100
0100
0100
0100
,
0000
0010
0001
0100
,
0001
1000
0100
1000
,
0110
0010
0100
0001
,
1000
0001
0010
0100
,
0010
0001
0100
0000
0010
0000
0100
0000
,
0001
1000
0010
0100
,
1001
1000
0001
0010
,
0100
0010
0010
0010
,
0010
0200
0000
0000
,
0000
0000
0000
0000
,
1300
0011
0001
0100
,
0010
1000
0001
0010
,
0100
1000
0010
0000
0100
0000
0001
0000
,
0010
0001
1000
0001
,
0100
0001
0010
0000
0100
0000
0010
0000
,
0001
1000
0001
0100
,
0010
1001
0001
0001
,
0000
1000
0000
1000
0000
1000
0000
0000
,
0000
0010
0000
0100
,
0000
0001
0000
0001
0000
0001
0000
0000
,
0000
0100
0000
0010
,
0000
1000
0000
1000
0000
1000
0000
0000
,
0000
0100
0100
0100
,
0000
0010
0000
0100
0000
1000
0000
0000
,
0000
0001
1000
0010
,
1000
0001
0100
0001
,
1000
0100
0010
0100
,
1000
0001
0010
0100
,
0010
0001
0100
0001
,
1000
0100
1000
0010
,
0100
0001
0010
0001
,
1000
0100
0010
0001
,
1000
1001
0000
1001
,
0000
1001
0000
1001
,
0000
1001
0000
1001
,
0000
1001
0000
1001
,
0000
1001
0000
1001
,
0000
1001
0000
1001
,
0000
0001
0000
0000
,
0000
1000
0000
0000
,
0000
0001
0000
0000
,
0000
1000
0000
0000
,
0000
0001
0000
0000
,
0000
1000
0000
0000
,
0000
0001
0000
0000
,
0000
1000
0000
0000
,
0000
0220
0000
0000
,
0000
0000
0000
0000
,
0000
0000
0000
0000
,
0000
0000
0000
0000
,
0000
0000
0000
0000
,
0000
0000
0000
0000
,
0000
0000
0000
0000
,
0000
0000
0000
0000
,
0000
0000
0000
0000
,
0000
0000
0000
0000
,
0000
0000
0000
0000
,
0000
0000
0000
0000
,
0330
1000
0001
0010
,
0000
0001
0000
0100
0000
0010
0000
0100
,
0010
1000
0001
0010
,
0000
0100
0000
0010
0000
0100
0000
0010
,
0001
0100
0010
0000
0100
0000
0001
0000
,
0000
1000
0000
0100
0000
0010
0000
0000
,
0100
1000
0010
0100
,
0001
0100
0000
0010
0000
1000
0000
0001
,
2000
3100
0010
0100
,
1000
0010
0001
0010
,
0100
0001
0010
0000
1000
0000
0010
0000
,
0100
0010
0000
0001
0000
0100
0000
0010
,
0100
0001
1000
0000
0100
0000
0010
0000
,
0001
0010
0100
0000
1000
0000
0010
0000
,
0100
0010
0001
0000
0100
0000
1000
0000
,
0100
0010
0000
1010
0000
0101
0000
0010
,
0100
1000
2002
0000
0000
0000
3003
0000
;

//--------------- dance-single - Pandemonium X ----------------
#NOTES:
     dance-single:
     Pandemonium X:
     Medium:
     9:
     0.35152,0.585826,0.364539,0.060757,0,324,276,48,8,0,0,0,0,0,0.35152,0.585826,0.364539,0.060757,0,324,276,48,8,0,0,0,0,0:
0000
0000
0000
0000
,
0000
0000
0000
0000
,
0000
0000
0000
0000
,
0000
0000
0000
0000
,
0000
0000
0000
0000
,
0000
0000
0000
0000
,
0000
0000
0000
0000
,
0000
0000
0000
0000
,
0000
0010
0100
0010
0000
0000
1001
0000
,
0001
0001
1000
1000
,
0010
0000
0010
0000
0100
0000
0100
0010
,
1000
1000
0001
0001
,
0010
0000
0010
0000
0100
0000
0010
0001
,
0100
0100
0010
0010
,
1000
1000
0001
0001
,
1001
0110
1001
0110
,
0000
0001
0100
0001
,
1000
0000
0100
0010
0001
0200
0000
0000
,
0310
0100
0001
1000
,
0100
0000
1000
0001
0100
0001
1000
0001
,
0200
0302
0013
0000
1000
0000
0010
0000
,
0100
0000
0010
0001
0100
0020
0000
0000
,
0130
0010
1000
0001
,
0010
0000
0100
1000
0100
0001
0100
1000
,
0010
0100
0100
0100
,
0100
0100
0100
0100
,
1001
0000
0001
0100
0001
0000
0100
0000
,
0110
0000
0010
1000
0010
0000
1000
0000
,
1100
0000
1000
0100
0010
0000
0001
0000
,
0011
0000
0001
0010
0100
0000
1000
0000
,
1001
0000
0001
0100
1000
0000
0100
0000
,
0101
0000
0001
0010
1000
0000
0010
0000
,
0011
1001
1000
0001
,
0000
0100
0000
0100
0000
0100
0000
0000
,
0010
1000
0001
0010
,
0000
0100
0000
0010
0000
0100
0000
0010
,
0001
0100
0010
1000
,
0000
0001
0000
1000
0000
0001
0000
0000
,
1000
0100
1000
0010
,
0100
0001
0000
0010
0000
0001
0000
0100
,
0010
1000
0001
0000
1000
0000
0100
0000
,
0000
1000
0000
0010
0000
0001
0000
0000
,
0010
0100
0001
0100
,
1000
0100
0000
0010
0000
1000
0000
0000
,
0001
1000
0100
0001
,
0000
0100
0000
0010
0000
0001
0000
0000
,
0010
0001
0100
1000
,
0000
0100
0000
0010
0000
1000
0000
0001
,
0000
1000
1001
0000
0000
0000
1001
0000
,
0000
1001
0000
1001
,
0000
1001
0000
1001
,
0000
1001
0000
1001
,
0000
1001
0000
1001
,
0000
1001
0000
1001
,
0000
1001
0000
0000
,
0000
1001
0000
0000
,
0000
1001
0000
0000
,
0000
1001
0000
0000
,
0000
1001
0000
0000
,
0000
1001
0000
0000
,
0000
1001
0000
0000
,
0000
1001
0000
0000
,
0000
2002
0000
0000
,
0000
0000
0000
0000
,
0000
0000
0000
0000
,
0000
0000
0000
0000
,
0000
0000
0000
0000
,
0000
0000
0000
0000
,
0000
0000
0000
0000
,
0000
0000
0000
0000
,
0000
0000
0000
0000
,
0000
0000
0000
0000
,
0000
0000
0000
0000
,
0000
0000
0000
0000
,
3003
0001
0100
1000
,
0100
0001
0000
0010
0000
1000
0000
0010
,
0100
1000
0001
0000
0100
0000
0001
0000
,
0010
0001
0000
1000
0000
0100
0000
0010
,
0100
1000
0001
0000
0100
0000
1000
0000
,
0100
0010
0000
1000
0000
0100
0000
0001
,
0100
1000
0010
0000
0100
0000
0001
0000
,
0100
0010
0000
1000
0000
0001
0000
0010
,
0200
0310
0001
0101
,
0001
0100
0000
1000
0000
1100
0000
1000
,
0100
0010
1000
0000
0001
0000
0010
0000
,
0001
0101
0000
1010
0000
0101
0000
0001
,
1000
0100
0010
0000
0110
0000
1100
0000
,
0100
1000
0000
1010
0000
0101
0000
0001
,
0100
0010
1000
0000
1010
0000
0101
0000
,
0001
1001
0000
0110
0000
1001
0000
1000
,
0001
0010
0200
0000
0000
0000
0300
0000
;

//--------------- dance-single - Pandemonium X ----------------
#NOTES:
     dance-single:
     Pandemonium X:
     Hard:
     12:
     0.451335,0.723668,0.546809,0.243026,0.034176,416,344,72,32,0,0,0,0,0,0.451335,0.723668,0.546809,0.243026,0.034176,416,344,72,32,0,0,0,0,0:
0000
0000
0000
0000
,
0000
0000
0000
0000
,
0000
0000
0000
0000
,
0000
0000
0000
0000
,
0000
0000
0000
0000
,
0000
0000
0000
0000
,
0000
0000
0000
0000
,
0000
0000
0000
0000
,
0000
1000
0100
0020
0000
0000
0130
0000
,
0011
0001
0100
0010
,
1010
0000
0010
0000
0100
0000
0001
1000
,
1001
1000
0010
0100
,
0101
0000
0000
0000
0001
0000
0000
0000
0100
0000
0000
0000
0001
0010
0001
0000
,
1001
0010
0001
0100
,
1010
0010
0100
0001
,
1001
0101
1001
1100
,
0000
0000
1000
0100
1000
0010
1000
0100
,
1000
1000
0001
0100
0001
0010
0001
0100
,
0001
0001
1000
0001
0010
0001
1000
0010
,
0100
0100
0010
1000
0001
0010
0001
1000
,
0100
1000
0100
0000
0010
0000
0001
0000
0100
0000
0001
0000
0010
0000
0001
0000
,
0100
0100
0001
1000
0010
0100
0010
1000
,
0010
0010
0100
0010
1000
0001
0010
0100
,
1000
0000
1000
0000
0001
0000
0100
0000
0001
0000
1000
0010
1000
0000
0010
0100
,
0000
0020
0230
0302
,
2003
3200
0320
0031
,
1100
0000
0001
0010
0011
0001
1000
1000
,
1000
0001
1000
0010
0110
0100
0010
0010
,
0020
2030
3100
0010
0011
0010
0100
0100
,
0100
0010
0001
1000
1010
0010
1000
1000
,
1000
0001
1000
0000
0001
0000
0100
0000
0110
0000
0010
0000
0100
0000
0100
0000
,
0100
0010
1000
0100
0010
0010
0100
1000
,
0002
2003
3010
0000
0100
0000
0100
0000
,
0010
0100
0000
0001
0000
0001
0000
1000
,
0100
0010
0100
0000
0100
0000
0100
0000
,
0100
0010
0000
0100
0000
0010
0000
0010
,
0100
1000
0001
0000
0100
0000
0100
0000
,
0001
0100
0000
0100
0000
0100
0000
0100
,
0010
1000
0001
0000
0001
0000
0001
0000
,
0001
1000
0000
0100
0000
1000
0000
0001
,
0100
0010
1010
0000
0101
0000
1010
0000
,
1000
1001
0000
0011
0000
1001
0000
0001
,
1000
0100
0110
0000
0110
0000
0110
0000
,
0100
1100
0000
0011
0000
1100
0000
0001
,
0100
0010
1010
0000
0101
0000
1010
0000
,
1000
1001
0000
0110
0000
1001
0000
0001
,
0010
0100
1100
0000
1100
0000
1100
0000
,
0100
0110
0000
0011
0000
0110
0000
0100
,
1000
0010
1001
0000
0000
0000
0110
0000
,
0000
1001
0000
0110
,
0000
1001
0000
0110
,
0000
1001
0000
0110
,
0000
1001
0000
0110
,
0000
1001
0000
0110
,
0000
1001
0000
0000
,
0000
0001
0000
0000
,
0000
1000
0000
0000
,
0000
0001
0000
0000
,
0000
1000
0000
0000
,
0000
0001
0000
0000
,
0000
1000
0000
0000
,
0000
0001
0000
0000
,
0000
0220
0000
0000
,
0000
0000
0000
0000
,
0000
0000
0000
0000
,
0000
0000
0000
0000
,
0000
0000
0000
0000
,
0000
0000
0000
0000
,
0000
0000
0000
0000
,
0000
0000
0000
0000
,
0000
0000
0000
0000
,
0000
0000
0000
0000
,
0000
0000
0000
0000
,
0000
0000
0000
0000
,
0330
0102
0010
0103
,
0010
1020
0000
0100
0000
1030
0000
0010
,
0100
0001
2001
0000
0010
0000
3001
0000
,
1000
1002
0000
0010
0000
0100
0000
0013
,
0100
1000
1020
0000
0100
0000
1030
0000
,
1000
1200
0000
0001
0000
1300
0000
1000
,
0100
0000
0010
0000
0021
0000
0000
0000
0100
0000
0000
0000
0031
0000
0001
1000
,
0001
2000
0000
3020
0000
0230
0000
0302
,
0003
0201
1000
0301
,
0001
0021
0000
1000
0000
0031
0000
0001
,
0010
0100
1000
0000
1020
0000
0000
0000
0100
0000
0000
0000
1000
0000
0000
0000
,
0130
0002
0000
0010
0000
0100
0000
1003
,
0100
0010
0001
0000
0021
0000
0000
0000
1000
0000
0000
0000
0031
0000
0000
0000
,
0001
0201
0000
1000
0000
0301
0000
0100
,
0010
0000
1000
0000
1001
0000
0001
0000
1000
0000
0000
0000
0101
0000
0100
0010
,
1000
0110
0000
1001
0000
0011
0000
0010
,
0100
1000
2002
0000
0000
0000
3003
0000
;

//--------------- dance-single - Pandemonium X ----------------
#NOTES:
     dance-single:
     Pandemonium X:
     Challenge:
     15:
     0.565253,1.033811,0.44808,0.068351,0.341756,521,462,59,9,71,0,4,0,0,0.565253,1.033811,0.44808,0.068351,0.341756,521,462,59,9,71,0,4,0,0:
0000
0000
0000
0000
,
0000
0000
0000
0000
,
0000
0000
0000
0000
,
0000
0000
0000
0000
,
0000
0000
0000
0000
,
0000
0000
0000
0000
,
0000
0000
0000
0000
,
0000
0000
0000
0000
,
0000
0001
1000
0002
0000
0000
1003
0000
,
0001
0100
0010
1000
,
0001
0000
0010
0000
0100
0000
1000
0001
,
0100
0001
1000
0010
,
0100
0000
0000
0000
0001
0000
0000
0000
0100
0000
0000
0000
0010
1000
0010
0000
,
0100
0001
0010
0100
0010
0100
1000
0001
,
1000
0010
0100
0010
0100
0001
0010
0100
,
1000
0100
1000
0000
0001
0100
0001
0000
1000
0100
1000
0000
0001
0100
0001
0000
,
0000
0000
0000
0000
1001
0000
0001
0100
0001
0000
0001
1000
0001
0000
0001
0010
,
0001
0000
0001
0000
1001
0000
1000
0010
1000
0000
1000
0001
1000
0000
1000
0100
,
1000
0000
1000
0000
1010
0000
0010
1000
0010
0000
0010
0100
0010
0000
0010
0001
,
0010
0000
0100
0000
0001
0000
1000
0100
0000
0010
0100
1000
0000
0100
0010
0001
,
1000
0001
1000
0000
0101
0000
0100
0010
0100
0000
0100
0001
0100
0000
0100
1000
,
0100
0000
0010
0000
1000
0000
0100
1000
0100
0000
0100
0010
0100
0000
0100
0001
,
0100
0000
1001
0000
1001
0000
0001
0100
0001
0000
1000
0010
1000
0000
0001
1000
,
0001
0000
1000
0000
0001
0000
1000
0000
0001
0000
0010
0001
0010
0000
0010
0100
,
0000
2000
0100
0010
,
3001
0002
0100
0013
,
MMMM
0000
0000
0000
0001
0100
0001
0100
0001
0000
0100
0001
0100
0001
0100
0001
,
0100
0010
1000
0001
0100
0010
0100
0010
0100
0000
0010
0100
0010
0100
0010
0100
,
0002
0000
2003
0000
3100
0010
0100
0010
0100
0000
0010
0100
0010
0100
0010
0100
,
0010
0001
1000
0001
0100
0010
0100
0010
0100
0000
0010
0100
0010
0100
0010
0100
,
0001
1000
0001
0000
1000
0100
1000
0100
1000
0000
0001
0100
0001
0100
0001
0100
,
0001
0100
0010
1000
0001
0010
0001
0010
0001
0000
1000
0100
1000
0100
1000
0100
,
2000
3020
0130
0000
0100
0000
0100
0000
,
0010
1000
0000
0001
0000
0001
0000
1000
,
0100
0010
0100
0000
0100
0000
0100
0000
,
0100
0010
0000
0001
0000
0001
0000
0001
,
0010
0100
0010
0000
0100
0000
0100
0000
,
0010
0100
0000
1000
0000
1000
0000
0001
,
0010
0100
1000
0000
1000
0000
1000
0000
,
1000
0100
0000
1000
0000
0010
0000
0100
,
0001
0010
0110
0000
1100
0000
0110
0000
,
0010
0011
0000
1100
0000
1100
0000
0001
,
0100
0001
0101
0000
0101
0000
0101
0000
,
1000
1001
0000
0110
0000
1001
0000
0100
,
0001
1000
1100
0000
1001
0000
1001
0000
,
1000
1010
0000
1010
0000
0110
0000
0100
,
0010
1000
1100
0000
1100
0000
1100
0000
,
1001
0101
0000
0110
0000
1010
0000
1000
,
0100
0010
1001
0000
MMMM
0000
1001
0000
,
MMMM
1001
MMMM
1001
,
MMMM
1001
MMMM
1001
,
MMMM
1001
MMMM
1001
,
MMMM
1001
MMMM
1001
,
MMMM
1001
MMMM
1001
,
MMMM
0000
0004
4000
0000
0000
0000
0000
,
0000
0000
0000
0000
,
0000
0000
0000
0000
,
0000
0000
0000
0000
,
0000
0000
0000
0000
,
0000
0000
0000
0000
,
0000
0000
0000
0000
,
0000
0000
0000
0000
,
3003
0040
0400
0000
,
0000
0000
0000
0000
,
0000
0000
0000
0000
,
0000
0000
0000
0000
,
0000
0000
0000
0000
,
0000
0000
0000
0000
,
0000
0000
0000
0000
,
0000
0000
0000
0000
,
0000
M000
000M
M000
,
000M
M000
000M
M000
,
000M
M000
000M
M000
,
000M
M000
000M
M000
,
0330
0000
1001
0001
1000
0010
0100
1000
,
0100
0010
1000
0100
0001
0100
0000
1000
,
0100
0010
0100
1000
0010
0100
0001
0100
,
0001
0010
1000
0010
0001
0100
0000
0010
,
0100
0001
1000
0000
0001
0000
0010
0000
0001
0000
0100
0000
0010
0000
0000
0000
,
0100
1000
0100
0010
1000
0001
0000
0010
,
1000
0000
0010
0000
0001
0000
0100
0000
1000
0000
0100
0000
0010
0000
1000
0001
,
1001
0101
0000
0010
0000
1000
0000
0001
,
MMMM
0000
0000
0000
1001
0000
0001
0100
0010
0000
0100
0001
1000
0000
0100
0000
,
1000
0000
0001
0100
0010
0000
0100
0010
1000
0000
1000
0100
0010
0000
0100
1000
,
0001
0100
0001
0000
0010
0100
1000
0000
0100
1000
0100
0000
0010
0000
0001
0000
,
1000
0000
0010
1000
0010
0000
0100
0001
0100
0000
0001
1000
0001
0000
1000
0000
,
0001
0100
0010
0000
0100
0001
1000
0000
0100
0010
0001
0000
1001
0000
0000
0000
,
1001
0000
1000
0010
0100
0000
0001
1000
0100
0000
0010
0100
1000
0000
0100
0000
,
1010
0000
0001
0100
0101
0000
1001
0000
1100
0000
0000
0000
1001
0000
1000
0001
,
1001
0101
0000
0011
0000
1100
0000
1000
,
0100
0010
2002
0000
0000
0000
3003
0000
;

//--------------- dance-double - Pandemonium X ----------------
#NOTES:
     dance-double:
     Pandemonium X:
     Easy:
     7:
     0.25713,0.447985,0.151891,0.060757,0,237,217,20,8,0,0,0,0,0,0.25713,0.447985,0.151891,0.060757,0,237,217,20,8,0,0,0,0,0:
00000000
00000000
00000000
00000000
,
00000000
00000000
00000000
00000000
,
00000000
00000000
00000000
00000000
,
00000000
00000000
00000000
00000000
,
00000000
00000000
00000000
00000000
,
00000000
00000000
00000000
00000000
,
00000000
00000000
00000000
00000000
,
00000000
00000000
00000000
00000000
,
00000000
00000000
00000000
00000000
,
00001000
00010000
00001000
00010000
,
00001000
00000000
00010000
00000000
00001000
00000000
00010000
00001000
,
00010000
00001000
00010000
00001000
,
00010000
00000000
00001000
00000000
00010000
00000000
00001000
00001000
,
00010000
00001000
00010000
00001000
,
00010000
00001000
00010000
00001000
,
00011000
00011000
00011000
00011000
,
00000000
00000100
00001000
00000100
,
00001000
00000010
00001000
00000010
,
00001000
00000010
00000100
00000010
,
00000100
00000001
00000100
00000001
,
00000100
00000010
00001000
00000000
00000100
00000000
00001000
00000000
,
00000100
00010000
00001000
00010000
,
00001000
01000000
00001000
01000000
,
00001000
01000000
01000000
01000000
,
01000000
00200000
00000000
00000000
,
00000000
00000000
00000000
00000000
,
01300000
10010000
10000000
00010000
,
00100000
00001000
00010000
00000100
,
00001000
00000010
00001000
00000000
00000010
00000000
00000100
00000000
,
00000001
00000010
00000100
00001000
,
00000100
00010000
00000100
00000000
00010000
00000000
00001000
00000000
,
01000000
00100000
10000000
01000000
,
00100000
00001000
00001000
00001000
,
00000000
00010000
00000000
00010000
00000000
00010000
00000000
00000000
,
00000000
00000100
00000100
00000100
,
00000000
00001000
00000000
00000001
00000000
00001000
00000000
00000000
,
00000000
00000010
00000100
00000100
,
00000000
00000001
00000000
00001000
00000000
00001000
00000000
00000000
,
00000000
00000100
00010000
00000100
,
00000000
00010000
00000000
00001000
00000000
00010000
00000000
00000000
,
00000000
00001000
01000000
01000000
,
00000000
00100000
00000000
10000000
00000000
10000000
00000000
00000000
,
00000000
00010000
00100000
00010000
,
00000000
00100000
00000000
01000000
00000000
10000000
00000000
00000000
,
00000000
01000000
10000000
00010000
,
00000000
00100000
00000000
00001000
00000000
00001000
00000000
00000000
,
00000000
00010000
00010000
00000010
,
00000000
00000100
00000000
00000010
00000000
00010000
00000000
00001000
,
00010000
00000100
00010100
00000000
00000000
00000000
00011000
00000000
,
00000000
01001000
00000000
00011000
,
00000000
00010100
00000000
00011000
,
00000000
01001000
00000000
00011000
,
00000000
00010100
00000000
00011000
,
00000000
01001000
00000000
00011000
,
00000000
00022000
00000000
00000000
,
00000000
00000000
00000000
00000000
,
00000000
00000000
00000000
00000000
,
00000000
00000000
00000000
00000000
,
00000000
00000000
00000000
00000000
,
00000000
00000000
00000000
00000000
,
00000000
00000000
00000000
00000000
,
00000000
00000000
00000000
00000000
,
00033000
00022000
00000000
00000000
,
00000000
00000000
00000000
00000000
,
00000000
00000000
00000000
00000000
,
00000000
00000000
00000000
00000000
,
00000000
00000000
00000000
00000000
,
00000000
00000000
00000000
00000000
,
00000000
00000000
00000000
00000000
,
00000000
00000000
00000000
00000000
,
00000000
00000000
00000000
00000000
,
00000000
00000000
00000000
00000000
,
00000000
00000000
00000000
00000000
,
00000000
00000000
00000000
00000000
,
00033000
00010000
00000100
00001000
,
00000000
00000010
00000000
00000100
00000000
00000001
00000000
00000000
,
00000010
00000100
00001000
00000100
,
00000000
00010000
00000000
00001000
00000000
01000000
00000000
00000000
,
00100000
10000000
00010000
00100000
,
00000000
00100000
00000000
00010000
00000000
01000000
00000000
00000000
,
00100000
10000000
00010000
00100000
,
00001000
00010000
00000000
00000100
00000000
00001000
00000000
00000010
,
00000200
00000301
00000010
00000100
,
00000000
00000100
00000000
00010000
00000000
00001000
00000000
00000000
,
00010000
00000100
00001000
00000010
,
00000000
00010000
00000000
00001000
00000000
01000000
00000000
00000000
,
00100000
10000000
00010000
00100000
,
00000000
00001000
00000000
00010000
00000000
00000010
00000000
00000000
,
00000100
00000010
00010000
00001000
,
00000000
01000000
00000000
00100000
00000000
10000000
00000000
00010000
,
00100000
00001000
00022000
00000000
00000000
00000000
00033000
00000000
;

//--------------- dance-double - Pandemonium X ----------------
#NOTES:
     dance-double:
     Pandemonium X:
     Medium:
     9:
     0.346095,0.482445,0.18227,0.060757,0,319,295,24,8,0,0,0,0,0,0.346095,0.482445,0.18227,0.060757,0,319,295,24,8,0,0,0,0,0:
00000000
00000000
00000000
00000000
,
00000000
00000000
00000000
00000000
,
00000000
00000000
00000000
00000000
,
00000000
00000000
00000000
00000000
,
00000000
00000000
00000000
00000000
,
00000000
00000000
00000000
00000000
,
00000000
00000000
00000000
00000000
,
00000000
00000000
00000000
00000000
,
00000000
00010000
00001000
00020000
00000000
00000000
00031000
00000000
,
00010000
00000100
00001000
00000010
,
00000100
00000000
00000001
00000000
00000010
00000000
00000100
00001000
,
00000100
00010000
00001000
01000000
,
00100000
00000000
10000000
00000000
00010000
00000000
00100000
01000000
,
11000000
01000000
10000000
00010000
,
00100000
00001000
00010000
00000100
,
00011000
00011000
00011000
00011000
,
00000000
00001000
00010000
00000010
,
00000100
00000000
00000001
00000010
00000100
00000020
00000000
00000000
,
00000031
00000010
00000100
00001000
,
00000100
00000000
00010000
00001000
01000000
00100000
10000000
00010000
,
00100000
01000000
10000000
00000000
01000000
00000000
10000000
00000000
,
00010000
00000000
00100000
00001000
00010000
00000020
00000000
00000000
,
00000130
00000010
00000100
00000001
,
00001000
00000000
00000100
00010000
00001000
00010000
00000100
00010000
,
00001000
01000000
01000000
01000000
,
01000000
01000000
01000000
01000000
,
10010000
00000000
10000000
01000000
10000000
00000000
00010000
00000000
,
00110000
00000000
00100000
00001000
00100000
00000000
00001000
00000000
,
00010000
00010000
00000100
00001000
00000010
00000000
00000100
00000000
,
00000101
00000000
00000001
00000100
00001000
00000000
00000100
00000000
,
00000010
00001000
00000100
00010000
00001000
00000000
00010000
00000000
,
00011000
00001000
00001000
00001000
,
00001000
01000000
00100000
00000000
10000000
00000000
01000000
00000000
,
00100000
01000000
00000000
01000000
00000000
01000000
00000000
00100000
,
01000000
10000000
10000000
10000000
,
10000000
00010000
00000000
00100000
00000000
00001000
00000000
00010000
,
00000100
00001000
00000010
00000000
00000100
00000000
00000100
00000000
,
00000010
00001000
00000000
00000001
00000000
00000001
00000000
00000001
,
00000010
00000100
00001000
00000000
00001000
00000000
00001000
00000000
,
00001000
00000100
00000000
00010000
00000000
00001000
00000000
01000000
,
00100000
10000000
00010000
00000000
00100000
00000000
01000000
00000000
,
10000000
01000000
00000000
00100000
00000000
00010000
00000000
00100000
,
01000000
10000000
00010000
00000000
00010000
00000000
00010000
00000000
,
00010000
01000000
00000000
00001000
00000000
00010000
00000000
00000100
,
00001000
00000010
00000100
00000000
00000001
00000000
00000001
00000000
,
00000010
00000100
00000000
00000010
00000000
00000010
00000000
00000010
,
00000001
00000010
00000100
00000000
00000100
00000000
00000100
00000000
,
00000100
00010000
00000000
00001000
00000000
01000000
00000000
00100000
,
10000000
00010000
00110000
00000000
00000000
00000000
11000000
00000000
,
00000000
10010000
00000000
00110000
,
00000000
00011000
00000000
00011000
,
00000000
00011000
00000000
00011000
,
00000000
00011000
00000000
00011000
,
00000000
00011000
00000000
00011000
,
00000000
00011000
00000000
00000000
,
00000000
00010000
00000000
00000000
,
00000000
00001000
00000000
00000000
,
00000000
00010000
00000000
00000000
,
00000000
00001000
00000000
00000000
,
00000000
00010000
00000000
00000000
,
00000000
00001000
00000000
00000000
,
00000000
00010000
00000000
00000000
,
00000000
00022000
00000000
00000000
,
00000000
00000000
00000000
00000000
,
00000000
00000000
00000000
00000000
,
00000000
00000000
00000000
00000000
,
00000000
00000000
00000000
00000000
,
00000000
00000000
00000000
00000000
,
00000000
00000000
00000000
00000000
,
00000000
00000000
00000000
00000000
,
00000000
00000000
00000000
00000000
,
00000000
00000000
00000000
00000000
,
00000000
00000000
00000000
00000000
,
00000000
00000000
00000000
00000000
,
00033000
00010000
00000100
00001000
,
00000010
00000100
00000000
00000010
00000000
00000010
00000000
00000100
,
00000001
00000010
00000100
00000000
00000100
00000000
00000100
00000000
,
00000100
00010000
00000000
00000100
00000000
00010000
00000000
00001000
,
01000000
00100000
10000000
00000000
00010000
00000000
00010000
00000000
,
10000000
01000000
00000000
00100000
00000000
00100000
00000000
00100000
,
01000000
10000000
00010000
00000000
00010000
00000000
00010000
00000000
,
00010000
00100000
00000000
00001000
00000000
00010000
00000000
00000100
,
00002000
00003010
00000100
00000100
,
00000100
00000010
00000000
00001000
00000000
00001000
00000000
00001000
,
00000100
00010000
00001000
00000000
00001000
00000000
00001000
00000000
,
00001000
01000000
00000000
00100000
00000000
01000000
00000000
00100000
,
10000000
00010000
00100000
00000000
00100000
00000000
00100000
00000000
,
01000000
10000000
00000000
00010000
00000000
00010000
00000000
00100000
,
00001000
00010000
00000100
00000000
00000100
00000000
00000100
00000000
,
00000100
00001000
00000000
00000010
00000000
00000100
00000000
00000001
,
00000100
00000010
00002020
00000000
00000000
00000000
00003030
00000000
;

//--------------- dance-double - Pandemonium X ----------------
#NOTES:
     dance-double:
     Pandemonium X:
     Hard:
     12:
     0.438315,0.723668,0.379729,0.106324,0.026581,404,354,50,14,0,0,0,0,0,0.438315,0.723668,0.379729,0.106324,0.026581,404,354,50,14,0,0,0,0,0:
00000000
00000000
00000000
00000000
,
00000000
00000000
00000000
00000000
,
00000000
00000000
00000000
00000000
,
00000000
00000000
00000000
00000000
,
00000000
00000000
00000000
00000000
,
00000000
00000000
00000000
00000000
,
00000000
00000000
00000000
00000000
,
00000000
00000000
00000000
00000000
,
00000000
00010000
00000100
00020000
00000000
00000000
00031000
00000000
,
00010000
00000100
00001000
00000010
,
00000100
00000000
00000001
00000000
00000010
00000000
00000100
00000100
,
00001000
00000100
00010000
00001000
,
01000000
00000000
00000000
00000000
00100000
00000000
00000000
00000000
10000000
00000000
00000000
00000000
00010000
00100000
00010000
00000000
,
10000000
01000000
00100000
00010000
,
00001000
00000100
00000010
00000001
,
00001000
00000010
00010000
00001000
00100000
00010000
10000000
00010000
,
01000000
00000000
10000000
00010000
10000000
00010000
10000000
00010000
,
00100000
00100000
00001000
00100000
00001000
00100000
00001000
00100000
,
00001000
00001000
00010000
00000100
00010000
00000100
00010000
00000100
,
00010000
00010000
00000100
00001000
00000010
00000100
00000001
00000010
,
00000100
00001000
00000100
00000000
00001000
00000000
00000010
00000000
00001000
00000000
00000010
00000000
00001000
00000000
00000010
00000000
,
00000100
00000100
00000001
00001000
00000001
00001000
00000001
00001000
,
00000100
00000100
00010000
00001000
00010000
00001000
00010000
00001000
,
00010000
00000000
00010000
00000000
00001000
00000000
01000000
00000000
00100000
00000000
10000000
00010000
00100000
00000000
01000000
10000000
,
00000000
01000000
00100000
00010000
,
00001000
00000100
00000010
00000001
,
00001010
00000000
00000001
00000100
00000110
00000010
00010000
00001000
,
01000000
00100000
10000000
01000000
01100000
01000000
10000000
00010000
,
00200000
00000000
00301000
00010000
00010100
00000100
00001000
00000010
,
00000100
00000001
00000010
00000100
00001100
00001000
00000100
00010000
,
00001000
01000000
00001000
00000000
01000000
00000000
00100000
00000000
10010000
00000000
00010000
00000000
00100000
00000000
00001000
00000000
,
00010000
00000100
00002000
00000000
00003020
00000000
00000230
00000000
,
00000301
00000010
00001100
00000000
00000100
00000000
00010000
00000000
,
00001000
01000000
00000000
00100000
00000000
00100000
00000000
00100000
,
01000000
00010000
00100000
00000000
10000000
00000000
00100000
00000000
,
00010000
00100000
00000000
00001000
00000000
00010000
00000000
00000100
,
00001000
00000100
00000010
00000000
00000001
00000000
00000010
00000000
,
00001000
00000010
00000000
00000001
00000000
00000100
00000000
00001000
,
00000100
00000001
00000100
00000000
00000100
00000000
00000100
00000000
,
00000100
00000010
00000000
00010000
00000000
00001000
00000000
01000000
,
00100000
10000000
11000000
00000000
01000000
00000000
00010000
00000000
,
00001000
00000010
00000000
00000001
00000000
00001001
00000000
00000001
,
00001000
00000001
00001001
00000000
00000001
00000000
00000100
00000000
,
00001000
00010000
00000000
00100000
00000000
10000000
00000000
10000000
,
01000000
00100000
00010000
00000000
00001000
00000000
00000100
00000000
,
00000010
00000001
00000000
00000100
00000000
00001000
00000000
00001000
,
00010000
00100000
01000000
00000000
01000000
00000000
01000000
00000000
,
01000000
00100000
00000000
10000000
00000000
01000000
00000000
00100000
,
00001000
00010000
00011000
00000000
00010000
00000000
00011000
00000000
,
00001000
00011000
00010000
00011000
,
00001000
00011000
00010000
00011000
,
00001000
00011000
00010000
00011000
,
00001000
00011000
00010000
00011000
,
00001000
00011000
00010000
00011000
,
00000000
00001000
00000000
00000000
,
00000000
00010000
00000000
00000000
,
00000000
00001000
00000000
00000000
,
00000000
00010000
00000000
00000000
,
00000000
00001000
00000000
00000000
,
00000000
00010000
00000000
00000000
,
00000000
00001000
00000000
00000000
,
00000000
00010000
00000000
00000000
,
00000000
00022000
00000000
00000000
,
00000000
00000000
00000000
00000000
,
00000000
00000000
00000000
00000000
,
00000000
00000000
00000000
00000000
,
00000000
00000000
00000000
00000000
,
00000000
00000000
00000000
00000000
,
00000000
00000000
00000000
00000000
,
00000000
00000000
00000000
00000000
,
00000000
00000000
00000000
00000000
,
00000000
00000000
00000000
00000000
,
00000000
00000000
00000000
00000000
,
00000000
00000000
00000000
00000000
,
00033000
00010000
00000100
00001000
,
00000010
00000001
00000000
00000010
00000000
00001000
00000000
00000100
,
00010000
00001000
01000000
00000000
10000000
00000000
01000000
00000000
,
00100000
10000000
00000000
00010000
00000000
00100000
00000000
00100000
,
00010000
00001000
00000100
00000000
00001000
00000000
00000010
00000000
,
00000001
00000010
00000000
00000100
00000000
00001001
00000000
00000001
,
00000100
00000000
00001000
00000000
00010000
00000000
00000000
00000000
00001000
00000000
00000000
00000000
00100000
00000000
00001000
00010000
,
00000100
00020000
00000000
00032000
00000000
02003000
00000000
03100000
,
20020000
30030000
11000000
00000000
01100000
00000000
00110000
00000000
,
00100000
00110000
00000000
00011000
00000000
00001100
00000000
00001000
,
00000100
00000010
00000011
00000000
00001100
00000000
00000011
00000000
,
00000001
00000101
00000000
00001010
00000000
00010010
00000000
00010000
,
00001000
01000000
01001000
00000000
01100000
00000000
10100000
00000000
,
10000000
11000000
00000000
00110000
00000000
10010000
00000000
10000000
,
00010000
00000000
00100000
00000000
00101000
00000000
00000000
00000000
00011000
00000000
00000000
00000000
00001100
00000000
00001000
00000010
,
00000100
00000110
00000000
00001010
00000000
00011000
00000000
00001000
,
01000000
00100000
20020000
00000000
00000000
00000000
30030000
00000000
;

//--------------- dance-double - Pandemonium X ----------------
#NOTES:
     dance-double:
     Pandemonium X:
     Challenge:
     15:
     0.561998,1.034404,0.789835,0.318972,0.243026,518,414,104,42,179,0,2,0,0,0.561998,1.034404,0.789835,0.318972,0.243026,518,414,104,42,179,0,2,0,0:
00000000
00000000
00000000
00000000
,
00000000
00000000
00000000
00000000
,
00000000
00000000
00000000
00000000
,
00000000
00000000
00000000
00000000
,
00000000
00000000
00000000
00000000
,
00000000
00000000
00000000
00000000
,
00000000
00000000
00000000
00000000
,
00000000
00000000
00000000
00000000
,
00000000
00100000
00001000
00020000
00000000
00000000
00030010
00000000
,
00000100
00000010
00001000
00000100
,
00001000
00000000
00000001
00000000
00001000
00000000
00000100
00010000
,
00001000
01000000
00100000
10000000
,
00010000
00000000
00000000
00000000
00100000
00000000
00000000
00000000
00010000
00000000
00000000
00000000
00100000
00001000
00010000
00000000
,
00000010
00000100
00000010
00001000
,
00000100
00010000
00001000
00100000
,
00001000
00010000
00001000
00000000
00010000
00001000
00010000
00000000
00001000
00010000
00001000
00000000
00010000
00001000
00010000
00000000
,
00000000
00000000
00000000
00000000
00010100
00000000
00000100
00001000
00000010
00000000
00000100
00000001
00000010
00000000
00000100
00001000
,
00000010
00000000
00000100
00000000
00000001
00000000
00001000
00000100
00010000
00000000
00001000
01000000
00010000
00000000
01000000
00010000
,
00100000
00000000
00010000
00000000
10010000
00000000
10000000
00100000
10000000
00000000
00010000
01000000
00100000
00000000
01000000
00100000
,
10000000
00000000
00010000
00000000
00100000
00000000
00010000
10000000
00000000
00000000
00010000
10000000
00010000
10000000
00010000
10000000
,
00010000
00100000
00001000
00000000
00010100
00000000
00000100
00001000
00000010
00000000
00000100
00000001
00000010
00000000
00000100
00001000
,
00000010
00000000
00000100
00000000
00000001
00000000
00000010
00000100
00001000
00000000
00000100
00000010
00000001
00000000
00000010
00000100
,
00001000
00000000
00000100
00000000
00010000
00000000
00001000
01000000
00100000
00000000
01000000
00010000
00100000
00000000
01000000
10000000
,
00100000
01000000
00020000
00000000
00230000
00000000
00001000
00000000
,
00310000
00100000
00001000
00010000
,
00000010
00000100
00000001
00001000
,
00011000
00000000
00000000
00000000
00010000
01000000
00010000
01000000
00010000
00000000
10000000
00100000
10000000
00010000
10000000
00010000
,
10000000
00010000
10000000
00010000
00100000
00001000
00100000
00001000
00100000
00000000
00001000
00010000
00000010
00000100
00000010
00000100
,
00000001
00001000
00000200
00000000
00010300
00000010
00010000
00000010
00010000
00000000
00000010
00000100
00000001
00000010
00000001
00000010
,
00000001
00000010
00000001
00000010
00000100
00001000
00000100
00001000
00000100
00000000
00001000
00000100
00010000
00001000
00010000
00001000
,
00010000
00001000
01000000
00000000
00100000
10000000
00100000
10000000
00100000
00000000
01000000
00010000
01000000
00100000
01000000
00100000
,
01000000
00100000
01000000
00100000
10000000
00000000
00000000
00000000
01000000
00000000
00000000
00000000
00100000
00000000
00000000
00000000
,
00010000
00001000
00000200
00000000
00010000
00000000
00001300
00000000
,
00001000
00000020
00000000
00010000
00000000
00010030
00000000
00001000
,
01000000
00100000
02000000
00000000
00001000
00000000
03010000
00000000
,
00201000
00001000
00000000
00000100
00000000
00001000
00000000
00301000
,
00010000
00001000
00200000
00000000
00010000
00000000
00310000
00000000
,
00001000
00020000
00000000
00001000
00000000
00031000
00000000
00010000
,
00000010
00000100
00000002
00000000
00000010
00000000
00000103
00000000
,
00000001
00002000
00000000
00003200
00000000
00020300
00000000
00031000
,
00010000
00000100
00001100
00000000
01010000
00000000
00001100
00000000
,
00001000
00011000
00000000
00110000
00000000
00001010
00000000
00010000
,
00000100
00001000
00001100
00000000
00011000
00000000
01010000
00000000
,
01000000
01010000
00000000
00011000
00000000
00001100
00000000
00000100
,
00010000
00001000
00101000
00000000
00110000
00000000
00001010
00000000
,
00001000
00001100
00000000
01010000
00000000
00011000
00000000
00010000
,
00001000
01000000
01010000
00000000
00110000
00000000
01010000
00000000
,
00100000
00110000
00000000
00001010
00000000
00011000
00000000
00010000
,
00001000
00010000
00022000
00033000
00100010
00000000
00022000
00033000
,
00100010
00000000
00022000
00033000
00100010
00000000
00022000
00033000
,
00100010
00000000
00022000
00033000
00100010
00000000
00022000
00033000
,
00100010
00000000
00022000
00033000
00100010
00000000
00022000
00033000
,
00100010
00000000
00022000
00033000
00100010
00000000
00022000
00033000
,
00100010
00000000
00022000
00033000
00100010
00000000
00022000
00000000
,
00033000
MMMM1000
00000000
0001MMMM
,
00000000
MMMM1000
00000000
0001MMMM
,
00000000
MMMM1000
00000000
0001MMMM
,
00000000
MMMM1000
00000000
0001MMMM
,
00000000
MMMM1000
00000000
0001MMMM
,
00000000
MMMM1000
00000000
0001MMMM
,
00000000
MMMM1000
00000000
0001MMMM
,
00000000
MMMM1000
00000000
0001MMMM
,
00000000
00004000
00040000
00000000
,
00000000
00000000
00000000
00000000
,
00000000
00000000
00000000
00000000
,
00000000
00000000
00000000
00000000
,
00000000
00000000
00000000
00000000
,
00000000
00000000
00000000
00000000
,
00000000
00000000
00000000
00000000
,
00000000
00000000
00000000
00000000
,
00000000
M0000000
0M000000
00M00000
,
00000000
00000M00
000000M0
0000000M
,
000000M0
00000M00
00M00000
0M000000
,
M0000000
0M000000
00M00000
00000M00
,
000330M0
MMMMMMMM
00000000
00000000
00000000
00000000
00000000
00000000
00000000
00000000
00000000
00000000
00000000
00000000
00000000
00000000
00000000
00000000
00000000
00000000
00000000
00000000
00000000
00000000
0011MMMM
00000000
00000000
00000000
00000000
00000000
00000000
00000000
00000000
00000000
00000000
00000000
00000000
00000000
00000000
00000000
00000000
00000000
00000000
00000000
00000000
00000000
00000000
00000000
MMMM1010
00000000
00000000
00000000
00000000
00000000
00000000
00000000
00000000
00000000
00000000
00000000
00000000
00000000
00000000
00000000
00000000
00000000
00000000
00000000
00000000
00000000
00000000
00000000
0011MMMM
00000000
00000000
00000000
00000000
00000000
00000000
00000000
00000000
00000000
00000000
00000000
00000000
00000000
00000000
00000000
00000000
00000000
00000000
00000000
00000000
00000000
00000000
00000000
,
00010000
0101MMMM
00000000
MMMM1100
00000000
0101MMMM
00000000
00100000
,
00001000
00010000
MMMM1100
00000000
0101MMMM
00000000
MMMM1100
00000000
,
00000100
MMMM1100
00000000
0101MMMM
00000000
MMMM1100
00000000
00000100
,
00010000
00001000
0011MMMM
00000000
MMMM1010
00000000
0011MMMM
00000000
,
00100000
0011MMMM
00000000
MMMM1010
00000000
0011MMMM
00000000
01000000
,
00010000
00000000
01000000
00000000
0101MMMM
00000000
00000000
00000000
MMMM1100
00000000
00000000
00000000
0101MMMM
00000000
01000000
00010000
,
00100000
00210000
00000000
00302000
00000000
00023000
00000000
00031000
,
MMMMMMMM
00011000
10010000
00011000
,
00010000
00011000
00000000
00001001
00000000
00011000
00000000
00001000
,
00100000
00001000
00011000
00000000
10010000
00000000
00011000
00000000
,
00011000
00011000
00000000
00001001
00000000
00011000
00000000
00001000
,
01000000
00100000
10010000
00000000
00011000
00000000
00001001
00000000
,
00000001
00001001
00000000
00011000
00000000
10010000
00000000
10010000
,
00010000
00100000
00011000
00000000
00001001
00000000
00011000
00000000
,
00001000
00011000
00000000
10010000
00000000
00011000
00000000
00010010
,
00001010
00000000
00000000
00000000
00000000
00000000
00000000
00000000
00000000
00000000
00000000
00000000
00011000
00000000
00000000
00000000
00000000
00000000
00000000
00000000
00000000
00000000
00000000
00000000
01002000
00000000
00000000
00000000
00000000
00000000
00000000
00000000
00000000
00000000
00000000
00000000
00000000
00000000
00000000
00000000
00000000
00000000
00000000
00000000
00000000
00000000
00000000
00000000
00000000
00000000
00000000
00000000
00000000
00000000
00000000
00000000
00000000
00000000
00000000
00000000
00000000
00000000
00000000
00000000
00000000
00000000
00000000
00000000
00000000
00000000
00000000
00000000
00000000
00000000
00000000
00000000
00000000
00013000
00000000
00000000
00000000
00000000
00000000
00000000
00000000
00000000
00000000
00000000
00000000
00000000
00000000
00000000
00000000
00000000
00000000
00000000
;
