#TITLE:Dr. Chemical & Killing Machine;
#SUBTITLE:;
#ARTIST:Hommarju;
#TITLETRANSLIT:;
#SUBTITLETRANSLIT:;
#ARTISTTRANSLIT:;
#GENRE:;
#CREDIT:;
#MUSIC:Dr. Chemical & Killing Machine.ogg;
#BANNER:Dr. Chemical & Killing Machine.png;
#BACKGROUND:Dr. Chemical & Killing Machine-bg.png;
#CDTITLE:;
#SAMPLESTART:26.820;
#SAMPLELENGTH:14.553;
#SELECTABLE:YES;
#OFFSET:0.816;
#BPMS:0.000=165.000;
#STOPS:;
#ORIGIN:;
#TAGS:;
#PREVIEWVID:;
#JACKET:Dr. Chemical & Killing Machine-jacket.png;
#CDIMAGE:;
#DISCIMAGE:;
#BGCHANGES:;
#FGCHANGES:;

//--------------- dance-single - Pandemonium X ----------------
#NOTES:
     dance-single:
     Pandemonium X:
     Beginner:
     4:
     0.189603,0.307351,0.077565,0,0,154,145,9,0,0,0,0,0,0,0.189603,0.307351,0.077565,0,0,154,145,9,0,0,0,0,0,0:
0000
0000
0000
0000
,
0000
0000
0000
0000
,
0000
0000
0000
0000
,
0000
0000
0000
0000
,
0000
0000
0000
0000
,
1001
0000
0000
0000
,
0000
0000
0000
0000
,
0110
0000
0000
0000
,
0001
0000
1000
0000
,
0010
0000
0010
0000
,
0010
0000
0010
0000
,
0100
0000
0100
0000
,
0100
0000
0100
0000
,
0000
0000
0001
0000
,
0001
0000
0001
0000
,
1000
0000
1000
0000
,
1000
1000
1000
0000
,
0110
0000
0000
0000
,
1000
0000
0001
0000
,
0100
0000
0010
0000
,
0100
0000
0110
0000
,
1000
0000
0001
0000
,
1000
0000
1001
0000
,
0001
0000
0100
0000
,
0001
0000
0101
0000
,
1000
0000
0010
0000
,
1000
0000
1010
0000
,
1000
1000
1000
0000
,
0001
0001
0001
0000
,
0100
0100
0100
0000
,
0010
0010
0010
0000
,
1000
1000
1000
0000
,
0001
0001
0001
0000
,
0010
0010
0010
0000
,
0100
0100
0100
0000
,
0000
0000
0000
0000
,
0000
0000
0000
0000
,
0001
0001
0001
0000
,
0000
0001
0000
0001
,
1000
1000
1000
0000
,
0000
1000
0000
0000
,
1000
1000
0010
0010
,
0000
0100
0000
0100
,
0010
0010
1000
0000
,
0000
0000
0000
0000
,
0001
0000
0000
0000
,
0010
0000
0000
0000
,
0001
0000
0000
0000
,
1000
0000
0000
0000
,
0010
0000
0000
0000
,
0100
0000
0000
0000
,
0010
0000
0000
0000
,
1000
0000
0000
0000
,
0001
0000
0000
0000
,
1000
0000
0000
0000
,
0010
0000
0000
0000
,
0100
0000
0000
0000
,
0010
0000
0000
0000
,
1000
0000
0000
0000
,
0100
0000
0000
0000
,
0010
0000
0000
0000
,
0001
0001
0000
1000
,
1000
1000
0000
0000
,
0001
0000
0100
0000
,
0010
0000
1000
0000
,
0001
0000
0010
0000
,
0100
0000
1000
1000
,
0100
0000
0010
0000
,
0001
0000
1000
0000
,
0010
0000
0100
0000
,
0001
0000
1000
0000
,
0001
1000
0010
0000
,
0100
0001
0010
0000
,
0100
1000
0010
0000
,
0100
0001
1000
0000
,
0001
1000
0100
0000
,
0010
0100
1000
0000
,
0100
0010
0001
0000
,
0010
0001
0100
0000
,
1001
1001
0000
0000
;

//--------------- dance-single - Pandemonium X ----------------
#NOTES:
     dance-single:
     Pandemonium X:
     Easy:
     9:
     0.382899,0.549848,0.491244,0.387824,0.107729,311,254,57,45,0,0,0,0,0,0.382899,0.549848,0.491244,0.387824,0.107729,311,254,57,45,0,0,0,0,0:
0000
0000
0000
0000
,
0000
0000
0000
0000
,
0000
0000
0000
0000
,
0000
0000
0000
0000
,
0000
0000
0000
0000
,
0010
2002
0000
0000
,
0000
0000
0000
0000
,
0000
0000
0000
3003
,
2000
3100
0020
0031
,
0010
0011
0001
0101
,
0001
0011
1001
0000
,
1100
0100
1000
1010
,
1000
1100
1001
0000
,
0001
0110
0001
1001
,
0001
0110
1100
0000
,
1000
0110
1000
1001
,
1000
0110
0011
0000
,
0001
0000
0001
0000
0000
0001
0001
0000
,
2000
3100
0020
0031
,
1000
1010
0010
0110
,
0100
0101
1001
0000
,
0011
0010
0110
0100
,
1100
0000
1000
0000
1010
0010
0100
0001
,
1000
1001
0001
0011
,
0001
0101
1010
0000
,
1000
0101
0010
1001
,
1000
0000
1100
0000
0011
0010
0100
1000
,
0001
0000
0000
1000
0000
0000
0010
0000
0000
0000
0000
0000
0000
0000
0000
0000
,
0100
0000
0000
0001
0000
0000
0010
0000
0000
0000
0000
0000
0000
0000
0100
0000
,
0010
0000
0000
0001
0000
0000
0010
0000
0000
0000
0000
0000
0100
0000
1000
0000
,
0010
0000
0000
0100
0000
0000
0001
0000
0000
0000
0000
0000
0000
0000
0000
0000
,
1000
0000
0000
0001
0000
0000
0100
0000
0000
0000
0000
0000
0000
0000
0000
0000
,
0010
0000
0000
1000
0000
0000
0100
0000
0000
0000
0000
0000
0000
0000
0010
0000
,
0100
0000
0000
0010
0000
0000
0001
0000
0000
0000
0000
0000
0010
0000
0100
0000
,
1000
0000
0000
0100
0000
0000
0010
0000
0000
0000
0000
0000
0000
0000
0000
0000
,
0001
0000
0001
0000
0000
0001
0001
0000
,
2000
3200
0320
0032
,
1003
0000
0001
0000
0100
0000
0010
1000
,
0000
1001
0000
0000
0000
0000
0000
0000
,
0011
0000
1100
0000
0022
0000
0000
0033
,
0000
0000
0000
0000
,
0001
1001
1000
1010
,
0000
0000
0000
0000
,
1010
0000
0101
0000
2020
0000
0000
3030
,
0001
0000
0000
0001
0000
0000
0001
0000
2000
0000
0000
0000
3200
0000
0000
0000
,
0310
0000
0000
0001
0000
0000
0010
0000
0000
0000
0000
0000
0000
0000
0000
0000
,
0100
0000
0000
1000
0000
0000
0100
0000
0000
0000
0000
0000
0000
0000
0000
0000
,
1000
0000
0000
0001
0000
0000
1000
0000
0000
0000
0000
0000
0000
0000
0001
0000
,
0100
0000
0000
0010
0000
0000
0100
0000
0000
0000
0000
0000
0000
0000
0000
0000
,
0010
0000
0000
1000
0000
0000
0100
0000
0000
0000
0000
0000
0000
0000
0000
0000
,
0010
0000
0000
0001
0000
0000
0100
0000
0000
0000
0000
0000
0000
0000
0000
0000
,
0010
0000
0000
1000
0000
0000
0100
0000
0000
0000
0000
0000
0000
0000
0010
0000
,
0100
0000
0000
1000
0000
0000
0001
0000
0000
0000
0000
0000
0000
0000
0000
0000
,
1000
0100
0000
0000
,
0010
0001
0000
0000
,
1000
0001
0000
0100
,
0010
1000
0000
0000
,
1001
0101
0000
0000
,
1100
1001
0000
0000
,
0011
1001
0000
1010
,
0101
1001
0000
0000
,
0101
1010
0000
1001
,
0110
1001
0000
0000
,
0002
0203
0320
2030
,
3200
0302
0203
2300
,
3020
0032
0023
0230
,
0302
0000
2003
0000
3001
0010
0100
1000
,
0200
0302
0203
2300
,
3020
0032
0023
0230
,
0302
0023
2030
3020
,
0230
0000
0320
0000
0031
0010
0100
1000
,
0001
0000
0000
1000
0000
0000
0010
0000
0000
0000
0000
0000
0000
0000
0000
0000
,
0100
0000
0000
0010
0000
0000
1000
0000
0000
0000
0000
0000
0000
0000
0100
0000
,
0100
0000
0000
0010
0000
0000
0001
0000
0000
0000
0000
0000
0010
0000
0100
0000
,
1000
0000
0000
0100
0000
0000
0010
0000
0000
0000
0000
0000
0010
0000
0001
0000
,
0100
0000
0000
0010
0000
0000
1000
0000
0000
0000
0000
0000
0000
0000
0000
0000
,
0001
0000
0000
1000
0000
0000
0100
0000
0000
0000
0000
0000
0000
0000
0010
0000
,
0100
0000
0000
0010
0000
0000
0001
0000
0000
0000
0000
0000
1000
0000
0001
0000
,
0100
0000
0000
0001
0000
0000
0010
0000
0000
0000
0000
0000
0000
0000
0000
0000
,
2100
0001
0000
3000
;

//--------------- dance-single - Pandemonium X ----------------
#NOTES:
     dance-single:
     Pandemonium X:
     Medium:
     13:
     0.554034,0.792885,0.180985,0.10342,0.361969,450,429,21,12,0,0,0,0,0,0.554034,0.792885,0.180985,0.10342,0.361969,450,429,21,12,0,0,0,0,0:
0000
0000
0000
0000
,
0000
0000
0000
0000
,
0000
0000
0000
0000
,
0000
0000
0000
0000
,
0000
0000
0000
0000
,
1010
0000
0102
0000
0000
1000
1000
0000
,
0000
0010
0010
0010
0000
1000
1000
0000
,
0100
0000
0100
0000
0000
0010
0013
0000
,
0001
0100
0010
1000
0001
0100
0010
1000
,
0001
0000
1000
0000
0001
0000
1000
0001
1000
0000
0001
0000
1000
0000
0001
1000
,
0001
0000
1000
0000
0001
0000
1000
0001
0100
0000
0000
0000
0000
0000
0000
0000
,
0010
0000
1000
0000
0010
0000
1000
0010
1000
0000
0010
0000
1000
0000
0010
1000
,
0010
0000
1000
0000
0010
0000
1000
0001
0010
0000
0000
0000
0000
0000
0000
0000
,
0100
0000
0010
0000
0001
0000
0100
0001
0100
0000
0001
0000
0100
0000
0001
0100
,
0001
0000
0100
0000
0001
0000
0100
0001
1000
0000
0000
0000
0000
0000
0000
0000
,
0001
0000
0010
0000
0001
0000
0010
0001
0010
0000
0001
0000
0010
0000
0001
0010
,
0001
0000
0001
0010
0000
0010
0100
0000
2000
0000
0000
0000
0000
0000
0000
0000
,
3010
0000
0010
0000
0000
0010
0010
0000
,
0100
0010
1000
0001
0100
0010
1000
0001
,
1000
0000
0100
0000
0010
0000
0001
0010
0100
0000
1000
0000
0100
0000
0010
0001
,
0100
0000
0010
0000
1000
0000
0100
0010
0100
0000
0000
0000
0000
0000
0000
0000
,
0010
0000
0001
0000
0100
0000
0010
1000
0001
0000
0100
0000
0001
0000
0010
0100
,
1000
0000
0100
0000
1000
0000
0001
1000
0001
0000
0100
0010
1000
0001
0100
0010
,
1000
0000
0100
0000
0010
0000
0100
1000
0010
0000
0100
0000
0001
0000
0010
0001
,
0100
0000
0010
0000
1000
0000
0001
0010
0001
0000
0000
0000
0000
0000
0000
0000
,
0010
0000
0001
0000
0100
0000
0010
1000
0001
0000
0010
0000
0001
0000
1000
0100
,
0010
0000
0100
0000
1000
0000
0001
0100
0002
0000
0000
0000
2003
0000
0000
0000
,
3010
0000
0000
0100
0000
0000
0101
0000
0000
0000
0000
0000
0000
0000
0000
0000
,
0010
0000
0000
0001
0000
0000
1001
0000
0000
0000
0000
0000
0000
0001
0010
0100
,
1000
0000
0000
0100
0000
0000
0110
0000
0000
0000
0000
0000
0100
1000
0010
0000
,
0100
0000
0000
0001
0000
0000
1100
0000
0000
0000
1000
0100
0010
0001
0100
0010
,
1000
0000
0000
0001
0000
0000
0011
0000
0000
0000
0000
0000
0000
0000
0000
0000
,
0010
0000
0000
0001
0000
0000
0101
0000
0000
0000
0000
0000
0000
0010
0100
0001
,
1000
0000
0000
0010
0000
0000
1010
0000
0000
0000
0000
0000
0100
0001
0010
0000
,
0100
0000
1000
0100
0000
0010
0001
0000
1000
0000
0000
0000
0000
0000
0000
0000
,
0001
0000
0001
0000
0000
0001
0001
0000
,
1000
0100
0010
0001
1000
0100
0010
0001
,
1000
0000
0010
0000
0100
0001
0010
0000
,
0000
0100
1000
0001
0000
0100
0010
0000
,
1000
0000
0001
0000
0010
0001
1000
0000
,
0000
0001
1000
0010
2000
0000
0000
0000
,
3100
0010
0001
0100
,
0000
0001
0010
0100
0000
0010
0001
0000
,
1000
0000
0001
0000
0100
0010
1000
0000
,
0100
0000
0000
0100
0000
0000
0100
0000
0120
0000
0000
0000
0000
0000
0000
0000
,
0031
0000
0000
0001
0000
0000
0001
0000
0000
0000
0000
0000
0000
0000
0000
0000
,
1000
0000
0000
1000
0000
0000
1000
0000
0000
0000
0000
0000
0000
0000
0000
0000
,
0001
0000
0000
0100
0000
0000
0010
0000
0000
0000
0000
0000
0000
0000
1000
0000
,
0010
0000
0000
0100
0000
0000
0001
0000
0000
0000
0000
0000
0000
0000
0000
0000
,
1000
0000
0000
1000
0000
0000
1000
0000
0000
0000
0000
0000
0000
0000
0000
0000
,
0001
0000
0000
0001
0000
0000
0001
0000
0000
0000
0000
0000
0000
0000
0000
0000
,
0010
0000
0000
0100
0000
0000
1000
0000
0000
0000
0000
0000
0000
0000
0100
0000
,
1000
0000
0000
0001
0000
0000
0010
0000
0000
0000
0000
0000
0000
0000
0000
0000
,
0001
0100
0000
0000
,
1000
0100
0000
0000
,
0001
1000
0000
0001
,
0010
1000
0000
0000
,
1010
1001
0000
0000
,
0101
1001
0000
0000
,
1100
1001
0000
0101
,
1010
1001
0000
0000
,
0002
0203
0300
0020
,
2030
0002
0000
3003
,
1000
0000
0000
0100
1000
0000
0010
0000
0100
0000
0000
0010
1000
0000
0001
0000
,
0010
0000
0000
0100
0010
0000
0001
0000
1000
0000
0000
0001
0100
0000
0010
0000
,
1000
0000
0000
0100
0010
0000
0001
0000
1000
0000
0000
0100
1000
0000
0010
0000
,
0100
0000
0000
0001
0010
0000
0001
0000
1000
0000
0001
0100
0000
0100
0010
0000
,
1000
0000
0000
0100
1000
0000
0001
0000
0100
0000
0000
0010
1000
0000
0001
0000
,
0010
0000
0000
0100
0010
0000
0001
0000
1000
0000
0000
0100
1000
0000
0010
0000
,
0100
0000
0000
0010
1000
0000
0001
0000
0010
0000
0000
0001
0010
0000
0001
0000
,
1000
0000
0000
0100
0010
0000
0001
0000
0100
0000
0010
0000
1000
0000
0001
0000
,
1000
0000
0000
0001
0000
0000
0100
0000
0001
0000
0000
0000
0010
0000
0000
0000
,
0100
0000
0000
1000
0000
0000
0010
0000
0100
0000
0000
0000
0001
0000
1000
0001
,
1000
0000
0000
0001
0000
0000
0010
0000
0100
0000
0000
0000
1000
0100
0010
0000
,
0001
0000
0000
0100
0000
0000
0110
0000
0000
0000
0000
0000
0100
0010
1000
0000
,
0001
0000
0000
0010
0000
0000
0100
0000
0010
0000
0000
0000
0001
0000
0000
0000
,
0100
0000
0000
0010
0000
0000
1000
0000
0100
0000
0000
0000
0010
0000
0100
0001
,
1000
0000
0000
0010
0000
0000
0100
0000
0001
0000
0000
0000
1000
0100
0010
0000
,
0100
0000
0000
1000
0000
0000
0001
0000
0100
0000
0010
0000
1000
0000
0001
0000
,
0021
0100
0000
0000
,
0030
0000
0000
0000
;

//--------------- dance-single - Pandemonium X ----------------
#NOTES:
     dance-single:
     Pandemonium X:
     Hard:
     16:
     0.83967,1.136729,0.620519,0.405061,0.896304,682,610,72,47,0,0,0,0,0,0.83967,1.136729,0.620519,0.405061,0.896304,682,610,72,47,0,0,0,0,0:
0000
0000
0000
0000
,
0000
0000
0000
0000
,
0000
0000
0000
0000
,
0000
0000
0000
0000
,
0000
0000
0000
0000
,
1001
0000
0102
0000
0000
0010
0010
0000
,
0000
1000
1000
1000
0000
0100
0100
0000
,
0010
0000
0010
0000
0000
1000
1003
0000
,
0001
0010
0001
0010
0100
1000
0100
1000
0001
0010
0001
0010
0100
1000
0100
1000
,
0001
0000
0001
0000
0001
1000
0001
1000
0010
0000
0010
0000
0010
0000
0010
1000
,
0001
0000
0001
0000
0001
0000
0001
1000
0010
0000
0000
0000
0000
0000
0000
0000
,
1000
0000
1000
0000
1000
0100
1000
0100
0010
0000
0010
0000
0010
0000
0010
0100
,
1000
0000
1000
0000
1000
0000
1000
0100
0010
0000
0000
0000
0000
0000
0000
0000
,
0001
0000
0100
0000
0010
0100
0010
1000
0001
0000
0001
0000
0001
0000
0001
1000
,
0010
0000
0010
0000
0010
0000
0010
1000
0001
0000
0000
0000
0000
0000
0000
0000
,
0100
0000
0100
0000
0100
0001
0100
0001
0010
0000
0010
0000
0010
0000
0010
0001
,
1000
0000
0000
0000
0000
0000
0000
0000
1000
0000
0000
0000
0020
0030
0000
0000
0000
0000
0000
0000
0020
0030
0000
0000
0001
0000
0000
0000
0000
0000
0000
0000
0001
0000
0000
0000
0100
0000
0000
0000
0001
0000
0000
0000
1000
0000
0000
0000
0100
0000
0000
0000
0010
0000
0000
0000
0001
0000
0000
0000
1000
0000
0000
0000
,
0001
0000
0011
0000
0000
1100
1010
0000
,
1000
0100
0010
0001
1000
0010
0100
0001
1000
0100
0010
0001
1000
0010
0100
0001
,
1000
0000
1000
0000
1100
0000
1000
0100
0010
0000
0010
0000
0110
0000
0010
0001
,
1000
0000
1000
0000
1001
0000
0001
0100
0010
0000
0000
0000
0000
0000
0000
0000
,
0100
0000
0100
0000
0110
0000
0010
1000
0001
0000
0001
0000
1001
0000
0001
1000
,
0100
0000
0100
0000
0110
0000
0100
1000
0010
0000
0200
0302
0203
0302
2003
0000
,
3100
0000
0100
0000
0110
0000
0010
0001
0100
0000
0100
0000
0110
0000
0010
1000
,
0100
0000
0100
0000
0110
0000
0010
0001
1000
0000
0000
0000
0000
0000
0000
0000
,
0001
0000
0001
0000
0101
0000
0100
0010
1000
0000
1000
0000
1010
0000
0010
0100
,
0001
0000
0001
0000
0101
0000
0001
1000
0010
0100
0001
1000
0010
0100
0001
1000
,
0100
0000
0010
0001
0000
1000
0100
0000
1000
0000
0001
0000
1001
0000
0000
0000
,
0001
0000
0100
0010
0000
1000
0001
0000
0010
0000
0001
0000
0100
0001
1000
0010
,
0100
0000
0001
0100
0000
0010
1000
0000
0100
0000
0010
0000
0001
0010
0100
0000
,
0010
0000
0001
0010
0000
0100
1000
0000
0010
0000
0100
0010
1000
0001
1000
0100
,
0010
0000
0001
0010
0000
0010
0100
0000
1000
0000
0010
0000
0100
0000
0001
0000
,
1000
0000
0001
1000
0000
1000
0100
0000
0010
0000
0100
0000
1000
0100
0010
0001
,
1000
0000
0001
0100
0000
0100
0001
0000
0010
0000
0100
0000
1000
0001
0010
0000
,
0100
0000
0100
0010
0000
0001
1000
0000
0000
0000
0000
0000
0000
0000
0000
0000
,
0101
0000
0110
0000
0010
0110
1001
0000
,
0001
0100
0010
1000
0001
0100
0010
1000
0001
0100
0010
1000
0001
0100
0010
1000
,
0001
0000
1010
0000
1000
1010
0101
0000
,
0001
0011
1100
0011
0000
1001
1001
0000
,
1100
0000
1100
0000
1000
1001
0101
0000
,
0000
0000
0011
0000
1100
0000
0011
0000
0001
0100
0001
1000
0001
0010
0100
1000
,
0001
1001
1001
0000
1000
1100
0011
0000
,
0000
1100
0110
0011
0000
0101
1001
0000
,
0011
0000
0000
0000
0101
0000
0000
0000
0001
0000
0101
0000
1010
0000
1000
0010
,
1000
0000
0000
0000
0001
0000
0020
0030
0000
0000
0020
0030
1000
0000
0000
0000
0001
0000
0100
0000
0010
0000
1000
0000
0001
0000
0100
0000
0010
0000
1000
0000
,
0001
0000
0000
1000
0000
0000
1100
0000
0000
0000
0000
0000
0000
0000
0000
0000
,
1000
0000
0000
0001
0000
0000
0101
0000
0000
0000
0000
0000
0000
0000
0000
0000
,
0001
0000
0000
1000
0000
0000
1010
0000
0000
0000
0000
0000
0000
0000
1000
0000
,
0001
0000
0000
0010
0000
0000
0110
0000
0000
0000
0000
0000
0000
0000
0000
0000
,
2100
0000
0000
0001
0000
0000
3010
0000
0000
0000
0000
0000
0000
0000
0000
0000
,
0021
0000
0000
0100
0000
0000
0031
0000
0000
0000
0000
0000
0000
0000
0000
0000
,
1002
0000
0000
0100
0000
0000
1003
0000
0000
0000
0000
0000
0000
0000
0001
0000
,
0021
0000
0000
0100
0000
0000
0031
0000
0000
0000
0000
0000
0000
0000
0000
0000
,
2000
3002
0003
0000
,
2000
3200
0300
0000
,
2000
3020
0030
0200
,
0302
2000
3003
0000
,
2001
3000
0012
0000
0003
0000
0000
0000
,
1002
0003
2010
0000
3000
0000
0000
0000
,
2001
3000
0120
0000
0030
0000
0120
0030
,
1002
0003
0210
0000
0000
0000
0300
0000
,
1001
1000
0100
0010
0001
1000
0100
0010
,
0002
2000
0000
3003
,
0001
0100
0010
0100
0001
0010
0100
1000
0001
0100
0010
0100
0001
0010
0100
1000
,
0100
1000
0010
1000
0001
0010
0100
1000
0100
1000
0010
1000
0001
0010
0100
1000
,
0001
1000
0100
1000
0001
0010
0100
1000
0001
1000
0100
1000
0001
0010
0100
1000
,
0001
1000
0010
1000
0001
0010
0100
1000
0000
0000
0100
0010
0000
0100
1000
0001
,
1000
0010
0100
0010
1000
0100
0010
0001
1000
0010
0100
0010
1000
0100
0010
0001
,
0100
0001
0010
0001
1000
0100
0010
0001
0100
0001
0010
0001
1000
0100
0010
0001
,
1000
0001
0100
0001
1000
0100
0010
0001
1000
0001
0100
0001
1000
0100
0010
0001
,
1000
0001
0010
0001
1000
0100
0010
0001
1000
0001
1000
0001
1000
0001
1000
0001
,
1000
0000
0000
0000
1000
0000
0020
0030
0000
0000
0020
0030
0001
0000
0000
0000
1000
0000
0000
0000
0001
0000
0000
0000
0101
0000
0000
0000
0000
0000
0000
0000
,
0001
0000
0000
0000
0001
0000
0020
0030
0000
0000
0020
0030
1000
0000
0000
0000
0001
0000
0000
0000
1000
0000
0000
0000
1010
0000
0000
0000
0000
0000
0000
0000
,
1000
0000
0000
0000
1000
0000
0200
0300
0000
0000
0200
0300
0001
0000
0000
0000
0100
0000
0000
0000
0001
0000
0000
0000
0010
0000
0001
0000
0010
0000
0000
0000
,
0100
0000
0010
0001
0000
1000
0100
0000
0010
0000
0001
0000
1001
0000
0000
0000
,
1001
0000
0000
0000
0001
0000
0200
0300
0000
0000
0200
0300
1000
0000
0000
0000
0100
0000
0000
0000
0010
0000
0000
0000
0001
0000
0000
0000
1000
0000
0000
0000
,
0001
0000
0000
0000
1000
0000
0020
0030
0000
0000
0020
0030
0001
0000
0000
0000
1000
0000
0000
0000
0001
0000
0000
0000
0100
0000
0000
0000
0010
0000
0000
0000
,
1000
0000
0000
0000
1000
0000
0200
0300
0000
0000
0200
0300
0001
0000
0000
0000
0100
0000
0000
0000
0001
0000
0000
0000
0010
0000
0000
0000
0100
0000
0000
0000
,
1000
0000
0001
0100
0000
0010
1000
0000
0001
0100
0010
1000
0001
0100
0010
1000
,
0002
0000
0000
0000
0010
0000
0000
0000
0000
0000
0000
0000
0000
0000
0000
0003
;

//--------------- dance-double - Pandemonium X ----------------
#NOTES:
     dance-double:
     Pandemonium X:
     Easy:
     6:
     0.262243,0.375651,0.10342,0.258549,0,213,201,12,30,0,0,0,0,0,0.262243,0.375651,0.10342,0.258549,0,213,201,12,30,0,0,0,0,0:
00000000
00000000
00000000
00000000
,
00000000
00000000
00000000
00000000
,
00000000
00000000
00000000
00000000
,
00000000
00000000
00000000
00000000
,
00000000
00000000
00000000
00000000
,
10000000
00000000
00100000
00000000
00000000
01000000
00010000
00000000
,
00000000
00010000
00100000
00001000
00000000
00001000
00010000
00000000
,
00000100
00000000
00000100
00000000
00000000
00000100
00001000
00000000
,
00000020
00000130
00000020
00000130
,
00001001
00001000
00000100
00010000
,
00001000
00100000
11000000
00000000
,
10000000
00010000
00100000
00001000
,
00010000
00000100
00000011
00000000
,
00000001
00000100
00000001
00000000
00000100
00000000
00000010
00000000
,
00001000
00000100
00010100
00000000
,
00010000
00001000
01000000
00100000
,
10100000
00000000
01010000
00000000
,
10000000
00000000
10000000
00000000
00000000
10000000
10000000
00000000
,
01000000
00100000
00010000
00001000
,
00001001
00001000
00000010
00001000
,
00000001
00000010
00000100
00000000
,
00001000
00000100
00010000
00001000
,
00100000
00000000
00010000
00000000
01000000
00200000
00000000
00300000
,
10000000
01000000
10000000
00100000
,
01000000
00010000
00100000
00000000
,
00001000
00010000
00000100
00001000
,
00000010
00000100
00000002
00000000
,
00000023
00000000
00000000
00000030
00000000
00000000
00000000
00000000
,
00000200
00000000
00000000
00000300
00000000
00000000
00000000
00010000
,
00002000
00000000
00000000
00003000
00000000
00000000
00010000
00000000
,
00000020
00000000
00000000
00000030
00000000
00000000
00001000
00000000
,
00000200
00000000
00000000
00000300
00000000
00000000
00000000
00000000
,
00020000
00000000
00000000
00030000
00000000
00000000
00000000
00001000
,
02000000
00000000
00000000
03000000
00000000
00000000
00100000
10000000
,
00020000
00000000
00000000
00030000
00000000
00000000
00000000
00000000
,
10000000
00000000
10000000
00000000
00000000
10000000
10000000
00000000
,
00010000
00100000
00001000
00010000
,
00000100
00000000
00001000
00000000
00000010
00000000
00000100
00000001
,
00000000
00000010
00000000
00000000
00000000
00000000
00000000
00000000
,
00001100
00001100
00001100
00000000
,
00000000
00000000
00020000
00000000
,
00031000
01000000
00001000
00010000
,
00000000
00000000
00000000
00000000
,
00001000
00010000
00001000
00000000
,
00200000
00000000
00300000
00000000
,
02000000
00000000
00000000
03000000
00000000
00000000
00000000
00000000
,
20000000
00000000
00000000
30000000
00000000
00000000
00000000
00000000
,
00200000
00000000
00000000
00300000
00000000
00000000
00000000
00000000
,
02000000
00000000
00000000
03000000
00000000
00000000
00000000
00000000
,
00002000
00000000
00000000
00003000
00000000
00000000
00000000
00000000
,
00020000
00000000
00000000
00030000
00000000
00000000
00000000
00000000
,
00000200
00000000
00000000
00000300
00000000
00000000
00000000
00000000
,
00002000
00000000
00000000
00003000
00000000
00000000
00000000
00000000
,
00000010
00000100
00000000
00000000
,
00000010
00001000
00000000
00000000
,
00000010
00000100
00000000
00000001
,
00001000
00000100
00000000
00000000
,
00010000
00001000
00000000
00000000
,
00010000
00000010
00000000
00000000
,
00010000
00000010
00000000
00010000
,
00001000
00010000
00000000
00000000
,
00001000
01000000
00000000
00100000
,
10000000
00010000
00000000
00000000
,
10000000
00010000
00100000
00001000
,
00010000
00000100
00001000
00000010
,
00000100
00000001
00000010
00000100
,
00001000
00000000
00000100
00000000
00010000
00001000
00010000
00000000
,
00001000
01000000
00100000
10000000
,
00010000
00100000
00001000
00010000
,
00000100
00001000
00000010
00000100
,
00000001
00000000
00000010
00000000
00000100
00001000
00000100
00001000
,
00000200
00000000
00000000
00000300
00000000
00000000
00000000
00000000
,
00020000
00000000
00000000
00030000
00000000
00000000
00000000
00000000
,
00002000
00000000
00000000
00003000
00000000
00000000
00000000
00000000
,
02000000
00000000
00000000
03000000
00000000
00000000
00100000
00000000
,
20000000
00000000
00000000
30000000
00000000
00000000
00000000
00000000
,
02000000
00000000
00000000
03000000
00000000
00000000
00000000
00100000
,
00020000
00000000
00000000
00030000
00000000
00000000
00100000
00000000
,
00002000
00000000
00000000
00003000
00000000
00000000
00000000
00000000
,
00011000
00011000
00000000
00000000
;

//--------------- dance-double - Pandemonium X ----------------
#NOTES:
     dance-double:
     Pandemonium X:
     Medium:
     13:
     0.544185,0.68731,0.327496,0.189603,0.249931,442,404,38,22,0,0,0,0,0,0.544185,0.68731,0.327496,0.189603,0.249931,442,404,38,22,0,0,0,0,0:
00000000
00000000
00000000
00000000
,
00000000
00000000
00000000
00000000
,
00000000
00000000
00000000
00000000
,
00000000
00000000
00000000
00000000
,
00000000
00000000
00000000
00000000
,
00100000
00000000
00001000
00000000
00000000
00100000
00010000
00000000
,
00000000
00100000
00001000
00010000
00000000
00010000
00000010
00000000
,
00010000
00000000
00000010
00000000
00000000
00000100
00000001
00000000
,
00000100
00000010
00010000
00001000
00100000
00010000
00100000
01000000
,
10000000
00000000
01000000
00000000
10000000
00000000
00100000
01000000
00100000
00000000
01000000
00000000
00010000
00000000
00100000
00001000
,
00100000
00000000
00001000
00000000
00010000
00000000
00000100
00001000
00000100
00000000
00000000
00000000
00000000
00000000
00000000
00000000
,
00001000
00000000
00000010
00000000
00000100
00000000
00000001
00000010
00000001
00000000
00000010
00000000
00000100
00000000
00001000
00000100
,
00001000
00000000
00000100
00000000
00010000
00000000
00001000
01000000
00001000
00000000
00000000
00000000
00000000
00000000
00000000
00000000
,
01000000
00000000
00010000
00000000
00100000
00000000
01000000
10000000
01000000
00000000
10000000
00000000
00100000
00000000
01000000
00010000
,
01000000
00000000
00100000
00000000
00010000
00000000
00100000
00001000
00100000
00000000
00000000
00000000
00000000
00000000
00000000
00000000
,
00010000
00000000
00000100
00000000
00001000
00000000
00000010
00000100
00000010
00000000
00000100
00000000
00000001
00000000
00000010
00000100
,
00000010
00000000
00000001
00000010
00000000
00000001
00000010
00000000
00000100
00000000
00001000
00000000
00000100
00000000
00010000
00000000
,
00001000
00000000
00011000
00000000
00000000
00001000
00011000
00000000
,
00000100
00010000
00001000
01000000
00001000
00010000
00000100
00001000
,
00000010
00000000
00000100
00000000
00000001
00000000
00000010
00000100
00001000
00000000
00000100
00000000
00010000
00000000
00001000
01000000
,
00100000
00000000
10000000
00000000
00010000
00000000
00100000
01000000
10000000
00000000
00000000
00000000
00000000
00000000
00000000
00000000
,
01000000
00000000
10000000
00000000
00100000
00000000
01000000
00010000
00100000
00000000
00001000
00000000
00010000
00000000
00000100
00001000
,
00000010
00000000
00000100
00000000
00000001
00000000
00000010
00000100
00001000
00000000
00000200
00000000
00020300
00000000
00032000
00000000
,
01003000
00000000
00010000
00000000
01000000
00000000
00100000
10000000
01000000
00000000
00100000
00000000
00001000
00000000
00010000
00000100
,
00001000
00000000
00000010
00000000
00000100
00000000
00000001
00000010
00000100
00000000
00000000
00000000
00000000
00000000
00000000
00000000
,
00000010
00000000
00000001
00000000
00001000
00000000
00000100
00001000
00000100
00000000
00010000
00000000
00001000
00000000
01000000
00010000
,
01000000
00000000
00100000
00000000
10000000
00000000
00010000
00100000
01000000
00000000
00000000
00000000
00000000
00000000
00000000
00000000
,
10000000
00000000
00000000
01000000
00000000
00000000
00010000
00000000
00000000
00000000
00000000
00000000
00000000
00000000
00000000
00000000
,
00001000
00000000
00000000
00000010
00000000
00000000
00000001
00000000
00000000
00000000
00000000
00000000
00000000
00000000
00000001
00001000
,
00000001
00000000
00000000
00000100
00000000
00000000
00001000
00000000
00000000
00000000
00000000
00000000
00000000
00000000
00000000
00000000
,
00010000
00000000
00000000
00100000
00000000
00000000
10000000
00000000
00000000
00000000
10000000
00000000
00010000
00000000
00100000
00000000
,
00001000
00000000
00000000
00010000
00000000
00000000
00010100
00000000
00000000
00000000
00000000
00000000
00000000
00000000
00000000
00000000
,
00000100
00000000
00000000
00001000
00000000
00000000
00000101
00000000
00000000
00000000
00000000
00000000
00000000
00000000
00001000
00000001
,
00001000
00000000
00000000
00000001
00000000
00000000
00000011
00000000
00000000
00000000
00000000
00000000
00000010
00000100
00001000
00000000
,
00001100
00000000
00000000
00011000
00000000
00000000
01001000
00000000
00000000
00000000
00000000
00000000
00000000
00000000
00000000
00000000
,
00001000
00000000
00001000
00000000
00000000
00001000
00011000
00000000
,
00010000
00000100
00001000
00000010
00000001
00000010
00001000
00000100
,
00010000
00000000
00001000
00000000
01000000
00100000
10000000
00000000
,
01000000
10000000
00100000
00100000
00000000
01000000
00010000
00000000
,
00100000
00000000
00001000
00000000
00020000
00000100
00000100
00000000
,
00030000
00001000
00001000
00001000
00010000
00001000
00100000
00010000
,
01000000
01010000
00110000
00101000
,
00000000
00010000
00010000
00010000
00000000
00000100
00000100
00000000
,
00001100
00000000
00000011
00000000
00001200
00001000
00001300
00000000
,
00000100
00000000
00000000
00010000
00000000
00000000
00001000
00000000
01000000
00000000
00100000
00000000
10000000
00000000
00010000
00000000
,
00100000
00000000
00000000
01000000
00000000
00000000
10000000
00000000
00000000
00000000
00000000
00000000
00000000
00000000
00000000
00000000
,
01000000
00000000
00000000
00100000
00000000
00000000
00010000
00000000
00000000
00000000
00000000
00000000
00000000
00000000
00000000
00000000
,
00100000
00000000
00000000
00001000
00000000
00000000
00010000
00000000
00000000
00000000
00000000
00000000
00000000
00000000
00000100
00000000
,
00001000
00000000
00000000
00000010
00000000
00000000
00000100
00000000
00000000
00000000
00000000
00000000
00000000
00000000
00000000
00000000
,
00000010
00000000
00000000
00000100
00000000
00000000
00000001
00000000
00000000
00000000
00000000
00000000
00000000
00000000
00000000
00000000
,
00001000
00000000
00000000
00000100
00000000
00000000
00010000
00000000
00000000
00000000
00000000
00000000
00000000
00000000
00000000
00000000
,
00001000
00000000
00000000
01000000
00000000
00000000
00100000
00000000
00000000
00000000
00000000
00000000
00000000
00000000
10000000
00000000
,
01000000
00000000
00000000
10000000
00000000
00000000
00010000
00000000
00000000
00000000
00000000
00000000
00000000
00000000
00000000
00000000
,
00200000
00002000
00303000
00000000
,
00020000
00000020
00030030
00000000
,
00000200
00000020
00000330
00000200
,
00000302
00002000
00003003
00000000
,
00001100
00010100
00000000
00000000
,
00011000
01001000
00000000
00000000
,
01100000
10100000
00000000
10100000
,
01010000
00110000
00000000
00000000
,
10010000
00110000
00000000
00011000
,
00001001
00000220
00000000
00000330
,
00000001
00000100
00000010
00001000
00000100
00010000
00001000
01000000
,
00100000
10000000
00010000
00100000
01000000
10000000
01000000
00100000
,
00001000
00010000
00000100
00001000
00000010
00000100
00000001
00000010
,
00000100
00000000
00001000
00000000
00000100
00000000
00010000
00000000
00000000
00000000
00001000
00010000
00000000
00010000
00001000
01000000
,
00100000
00010000
00100000
10000000
00010000
00100000
00001000
00010000
,
00000100
00000010
00000001
00000010
00000100
00001000
00000010
00000100
,
00000010
00010000
00001000
01000000
10000000
00010000
00100000
10000000
,
00100000
00001000
00010000
00000100
00002000
00003200
00000320
00000032
,
00001003
00000000
00000000
00000100
00000000
00000000
00011000
00000000
00000000
00000000
00000000
00000000
00000000
00000000
00000000
00000000
,
00001000
00000000
00000000
01000000
00000000
00000000
10100000
00000000
00000000
00000000
00000000
00000000
00000000
00000000
10000000
00000000
,
01000000
00000000
00000000
00100000
00000000
00000000
00110000
00000000
00000000
00000000
00000000
00000000
00001000
00010000
00001000
00000000
,
00010000
00000000
00000000
00000010
00000000
00000000
00000101
00000000
00000000
00000000
00000000
00000000
00000000
00000000
00000000
00000000
,
00000010
00000000
00000000
00001000
00000000
00000000
00011000
00000000
00000000
00000000
00000000
00000000
00000000
00000000
00000000
00000000
,
00001000
00000000
00000000
01000000
00000000
00000000
10100000
00000000
00000000
00000000
00000000
00000000
00000000
00000000
00000000
00000000
,
01000000
00000000
00000000
00010000
00000000
00000000
00101000
00000000
00000000
00000000
00000000
00000000
00001000
00010000
00001000
00000000
,
00010000
00000000
00000000
00000100
00000000
00000000
00000011
00000000
00000000
00000000
00000000
00000000
00000000
00000000
00000000
00000000
,
00001200
00020000
00000000
00030300
;

//--------------- dance-double - Pandemonium X ----------------
#NOTES:
     dance-double:
     Pandemonium X:
     Hard:
     15:
     0.754718,0.997381,0.973869,0.20684,0.620519,613,500,113,24,0,0,0,0,0,0.754718,0.997381,0.973869,0.20684,0.620519,613,500,113,24,0,0,0,0,0:
00000000
00000000
00000000
00000000
,
00000000
00000000
00000000
00000000
,
00000000
00000000
00000000
00000000
,
00000000
00000000
00000000
00000000
,
00000000
00000000
00000000
00000000
,
10100000
00000000
01010000
00000000
00000000
00110000
00011000
00000000
,
00000000
00011000
00001100
00000110
00000000
00000011
00000110
00000000
,
00001100
00000000
00001100
00000000
00000000
00010100
00011000
00000000
,
00001000
00000000
00010000
00000000
00001000
01000000
00100000
10000000
01000000
00100000
00010000
00001000
00010000
00000010
00001000
00000010
,
00000100
00000000
00000100
00000000
00000100
00000010
00000100
00000010
00001000
00000000
00001000
00000000
00001000
00000000
00001000
00000100
,
00010000
00000000
00010000
00000000
00010000
00000000
00010000
00001000
01000000
00000000
00000000
00000000
00000000
00000000
00000000
00000000
,
00100000
00000000
00100000
00000000
00100000
01000000
00100000
10000000
00010000
00000000
00010000
00000000
00010000
00000000
00010000
00100000
,
00001000
00000000
00001000
00000000
00001000
00000000
00001000
00010000
00000010
00000000
00000000
00000000
00000000
00000000
00000000
00000000
,
00000200
00000000
00000301
00000000
00000010
00000100
00001000
00000001
00001000
00000000
00001000
00000000
00001000
00000000
00001000
00000100
,
00010000
00000000
00010000
00000000
00010000
00000000
00010000
00001000
00100000
00000000
00000000
00000000
00000000
00000000
00000000
00000000
,
00010000
00000000
00010000
00000000
00010000
00000000
00010000
00000010
00000100
00000000
00000100
00000000
00000100
00000000
00000100
00000010
,
00001000
00000000
00000100
00001000
00000000
00010000
00001000
00000000
00011000
00000000
00000000
00000000
00000000
00000000
00000000
00000000
,
00110000
00000000
11000000
00000000
00000000
10100000
10100000
00000000
,
10000000
01000000
00100000
00010000
00100000
00001000
00010000
00000100
00001000
00000100
00000010
00000001
00000100
00000010
00001000
00000100
,
00010000
00000000
00000100
00000000
00001100
00000000
00001000
00000010
00000100
00000000
00000001
00000000
00000011
00000000
00000010
00000100
,
00001000
00000000
00000100
00000000
00010100
00000000
00010000
00001000
01000000
00000000
00000000
00000000
00000000
00000000
00000000
00000000
,
00100000
00000000
10000000
00000000
11000000
00000000
01000000
10000000
00010000
00000000
01000000
00000000
01010000
00000000
00010000
00100000
,
00001000
00000000
00010000
00000000
00001100
00000000
00000100
00010000
00001000
00000000
02000000
03200000
20300000
32000000
03200000
00302000
,
00013000
00000000
00000100
00000000
00001100
00000000
00001000
00000010
00000100
00000000
00000001
00000000
00000101
00000000
00000001
00000010
,
00000100
00000000
00001000
00000000
00001100
00000000
00000100
00010000
00001000
00000000
00000000
00000000
00000000
00000000
00000000
00000000
,
00010000
00000000
00000100
00000000
00010100
00000000
00000100
00001000
00000010
00000000
00000100
00000000
00000101
00000000
00000001
00000010
,
00000100
00000000
00001000
00000000
00001100
00000000
00000100
00010000
00001000
00100000
00001000
00100000
00010000
00100000
00010000
00100000
,
01000000
00000000
00000000
10000000
00000000
00000000
00110000
00000000
00000000
00000000
00000000
00000000
00000000
00000000
00000000
00000000
,
00100000
00000000
00000000
00001000
00000000
00000000
00001010
00000000
00000000
00000000
00000000
00000000
00001000
00000010
00000100
00000010
,
00001000
00000000
00000000
00000100
00000000
00000000
00011000
00000000
00000000
00000000
00000000
00000000
00001000
01000000
00001000
00000000
,
01100000
00000000
00000000
10100000
00000000
00000000
01010000
00000000
00000000
00000000
10000000
01000000
00100000
00010000
00100000
00001000
,
00010000
00000000
00000000
00000100
00000000
00000000
00000011
00000000
00000000
00000000
00000000
00000000
00000000
00000000
00000000
00000000
,
00000001
00000000
00000000
00000100
00000000
00000000
00001010
00000000
00000000
00000000
00000000
00000000
00000000
00010000
00001000
01000000
,
00100000
00000000
00000000
01000000
00000000
00000000
10100000
00000000
00000000
00000000
00000000
00000000
10000000
00010000
00100000
00000000
,
00101000
00000000
00000000
00011000
00000000
00000000
00010010
00000000
00000000
00000000
00000000
00000000
00000000
00000000
00000000
00000000
,
00000010
00000000
00000010
00000000
00000000
00000100
00000100
00000000
,
00000010
00001000
00000100
00001000
00000010
00001000
00000100
00010000
00001000
01000000
00001000
00010000
00001000
01000000
00001000
00010000
,
00001000
00000000
00110000
00000000
11000000
00000000
10000000
10100000
,
00000000
01020000
01000000
01030000
00000000
01000000
01000000
00001000
,
01001000
00000000
00011000
00000000
00020100
00000100
00030100
00000000
,
00000000
00000000
00010000
00000000
00010000
00000000
00010000
00000000
00000100
00001000
00000100
00001000
00000001
00000010
00000001
00000010
,
00000100
00001100
00001100
00000000
00010100
00000000
00022000
00000000
,
00033000
00001000
00001000
00001000
00000000
01000000
01000000
00000000
,
01100000
00000000
10100000
00000000
01020000
01000000
01030000
00000000
,
00100000
00000000
01000000
00010000
00000000
00100000
00001000
00000000
00010000
00001000
00010000
00001000
01000000
00001000
01000000
00001000
,
00020000
00000000
00000000
00030200
00000000
00000000
00000310
00000000
00000000
00000000
00000000
00000000
00000000
00000000
00000000
00000000
,
00000002
00000000
00000000
00000203
00000000
00000000
00001300
00000000
00000000
00000000
00000000
00000000
00000000
00000000
00000000
00000000
,
00000020
00000000
00000000
00020030
00000000
00000000
00031000
00000000
00000000
00000000
00000000
00000000
00000000
00000000
00010000
00000000
,
00002000
00000000
00000000
02003000
00000000
00000000
03100000
00000000
00000000
00000000
00000000
00000000
00000000
00000000
00000000
00000000
,
11000000
00000000
00000000
01100000
00000000
00000000
00110000
00000000
00000000
00000000
00000000
00000000
00000000
00000000
00000000
00000000
,
00110000
00000000
00000000
00011000
00000000
00000000
00010100
00000000
00000000
00000000
00000000
00000000
00000000
00000000
00000000
00000000
,
00010100
00000000
00000000
00000110
00000000
00000000
00000011
00000000
00000000
00000000
00000000
00000000
00000000
00000000
00000100
00000000
,
00001100
00000000
00000000
00001010
00000000
00000000
00001001
00000000
00000000
00000000
00000000
00000000
00000000
00000000
00000000
00000000
,
00001010
00001100
00000000
00000000
,
00010100
00011000
00000000
00000000
,
00101000
00110000
00000000
01010000
,
10100000
01010000
00000000
00000000
,
10010000
00011000
00000000
00000000
,
00001001
00011000
00000000
00000000
,
10010000
00011000
00000000
00001001
,
00000110
00001001
00000000
00000000
,
00011000
10010000
00000000
00011000
,
01100000
00000000
20020000
00000000
00000000
00000000
00000000
30030000
,
10000000
00000000
01000000
00000000
00100000
00001000
00010000
00000100
00001000
00000000
00000010
00000000
00000100
00000010
00010000
00001000
,
00100000
00000000
01000000
00000000
10000000
00010000
01000000
00001000
00010000
00000000
00000100
00000000
00001000
00000010
00000100
00000001
,
00000010
00000000
00000100
00000000
00001000
00000100
00010000
00001000
01000000
00000000
00100000
00000000
10000000
01000000
00100000
01000000
,
10000000
00000000
00010000
00000000
00100000
00001000
00010000
00000100
00001000
00000010
00000001
00000010
00001000
00000100
00000001
00000100
,
00001000
00000000
00000100
00000000
00010000
00000100
00010000
00001000
01000000
00000000
00100000
00000000
10000000
01000000
00100000
01000000
,
10000000
00000000
00010000
00000000
00100000
00001000
00010000
00000010
00000100
00000000
00000001
00000000
00000010
00000100
00001000
00000100
,
00000010
00000000
00000100
00000000
00001000
00000100
00010000
00001000
01000000
00000000
00100000
00000000
10000000
01000000
00100000
00010000
,
00100000
00000000
01000000
00000000
10000000
00010000
00100000
00001000
00010000
00000010
00000100
00000001
00000100
00001000
00000100
00000010
,
00001000
00000000
00000000
00001100
00000000
00000000
00011000
00000000
00000000
00000000
00000000
00000000
00000000
00000000
00000000
00000000
,
01001000
00000000
00000000
01100000
00000000
00000000
10100000
00000000
00000000
00000000
00000000
00000000
00000000
00000000
10000000
01000000
,
00100000
00000000
00000000
00101000
00000000
00000000
00011000
00000000
00000000
00000000
00000000
00000000
00010000
00000100
00001000
00000000
,
00001100
00000000
00000000
00000011
00000000
00000000
00001001
00000000
00000000
00000000
00000001
00000100
00000010
00010000
00001000
01000000
,
00100000
00000000
00000000
10100000
00000000
00000000
01001000
00000000
00000000
00000000
00000000
00000000
00000000
00000000
00000000
00000000
,
00011000
00000000
00000000
00010100
00000000
00000000
00000110
00000000
00000000
00000000
00000000
00000000
00000000
00000000
00000010
00000001
,
00000100
00000000
00000000
00000110
00000000
00000000
00010010
00000000
00000000
00000000
00000000
00000000
00000010
00010000
00001000
00000000
,
00011000
00000000
00000000
00101000
00000000
00000000
01100000
00000000
00000000
00000000
00000000
00000000
00000000
00000000
00000000
00000000
,
10010000
00000000
00000000
00000000
00022000
00000000
00000000
00000000
00000000
00000000
00000000
00000000
00000000
00033000
00000000
00000000
;
