#TITLE:Do it!! Do it!!;
#SUBTITLE:;
#ARTIST:Kraken;
#TITLETRANSLIT:;
#SUBTITLETRANSLIT:;
#ARTISTTRANSLIT:;
#GENRE:;
#CREDIT:;
#MUSIC:Do it!! Do it!!.ogg;
#BANNER:;
#BACKGROUND:Do it!! Do it!!-bg.png;
#CDTITLE:;
#SAMPLESTART:82.063;
#SAMPLELENGTH:14.396;
#SELECTABLE:YES;
#OFFSET:0.337;
#BPMS:0.000=300.000
,244.000=75.000
,268.000=150.000
,308.000=300.000
;
#STOPS:;
#BGCHANGES:;
#FGCHANGES:;

//--------------- dance-single - Pandemonium X ----------------
#NOTES:
     dance-single:
     Pandemonium X:
     Beginner:
     7:
     0,0,0,0,0:
0000
0000
0000
0000
,
0000
0000
0000
0000
,
0000
0000
0000
0000
,
0000
0000
0000
0000
,
0000
0000
0000
0000
,
0000
0000
0000
0000
,
0000
0000
0000
0000
,
0000
0000
0000
0000
,
0000
0000
0000
0000
,
0001
0000
0001
0000
,
0000
0000
0000
0000
,
0001
0000
0001
0000
,
0000
0000
0000
0000
,
0001
0000
0001
0000
,
0000
0000
0000
0000
,
0001
0000
0001
0000
,
0000
0000
0000
0000
,
0001
0000
0001
0000
,
1000
0000
1000
0000
,
0001
0000
0001
0000
,
0000
0000
0000
0000
,
0001
0000
0001
0000
,
1000
0000
1000
0000
,
0001
0000
0000
1000
,
0000
0000
0010
0000
,
1001
0000
0000
0000
,
0000
0000
0000
0000
,
0000
0000
0000
0000
,
0000
0000
0000
0000
,
1001
0000
0000
0000
,
0001
0000
1000
0000
,
0100
0000
0000
0000
,
0000
0000
0000
0000
,
0010
0000
0000
0000
,
0100
0000
1000
0000
,
0001
0000
0000
0000
,
0100
0000
0100
0000
,
1001
0000
0000
0000
,
0001
0000
1000
0000
,
0010
0000
0000
0000
,
0000
0000
0000
0000
,
0100
0000
0000
0000
,
0010
0000
0010
0000
,
1000
0000
0100
0000
,
0010
0000
0011
0000
,
0001
0000
0000
0000
,
0001
0000
0000
0000
,
1000
0000
0000
0000
,
1000
0000
0000
0000
,
0010
0000
0000
0000
,
0100
0000
0000
0000
,
0010
0000
0000
0000
,
0000
1000
0001
1000
,
0001
0000
0000
1000
,
0000
0000
0000
0000
,
0001
0000
0000
0100
,
0000
0000
0000
0000
,
0010
0000
0000
0100
,
0000
0000
0001
0000
,
2000
0000
0000
0000
,
0000
0000
0000
0000
,
3001
0000
0000
0000
,
0000
0000
0000
0000
,
0000
0000
1000
0000
,
0000
0000
0001
0000
,
0000
0000
1000
0000
,
0000
0000
0001
1000
,
0110
0000
0000
0000
,
1001
0000
0000
0000
,
1100
0000
0000
0000
,
1001
0000
0000
0000
,
0101
0000
1001
0000
,
0011
0000
1001
0000
,
1001
0110
1001
0110
,
0001
1000
0010
0100
,
1001
0000
0000
0000
,
0001
0010
0100
1100
,
1000
0000
1000
0000
,
0001
0000
0001
0000
,
0100
0000
0100
0000
,
0010
0000
0010
0000
,
0100
0000
0100
0000
,
0001
0000
0001
0000
,
1000
0000
1000
0000
,
1001
0000
0110
0000
,
1001
0000
0001
0000
,
1000
0000
1000
0000
,
0100
0000
0100
0000
,
0010
0000
0010
0000
,
0001
0000
0001
0000
,
1000
0000
1000
0000
,
0001
0000
0100
0000
,
0010
0000
1010
0000
,
1000
0000
0001
0000
,
0010
0000
0001
0000
,
1000
0000
0010
0000
,
1000
0000
0001
0000
,
1000
0000
0100
0000
,
1000
0000
0001
0000
,
0100
0000
0001
0000
,
1000
0000
0100
0000
,
1001
0000
0000
0000
,
0001
0000
0000
0000
,
1001
0000
0000
0000
,
1000
0000
0000
0000
,
0001
0000
0100
0000
,
0010
0000
1000
0000
,
0002
0000
0000
0000
,
0000
0000
0000
0000
,
1003
0000
0000
0000
;

//--------------- dance-single - Pandemonium X ----------------
#NOTES:
     dance-single:
     Pandemonium X:
     Easy:
     11:
     0,0,0,0,0:
0000
0000
0000
0000
,
0000
0000
0000
0000
,
0000
0000
0000
0000
,
0000
0000
0000
0000
,
0000
0000
0000
0000
,
0000
0000
0000
0000
,
0000
0000
0000
0000
,
0000
0000
0000
0000
,
0000
0000
0000
0000
,
0001
0000
0001
0000
,
0000
0000
0000
0000
,
1000
0000
1000
0000
,
0000
0000
0000
0000
,
0001
0000
0001
0000
,
0000
0000
0000
0000
,
1000
0000
1000
0000
,
0000
0000
0000
0000
,
0001
0000
0001
0000
,
1000
0000
1000
0000
,
0001
0000
0001
0000
,
0000
0000
0000
0000
,
1000
0000
1000
0000
,
0001
0000
0001
0000
,
0100
0000
0010
0000
,
1000
0000
0001
0000
,
0110
0000
0000
0000
,
0000
0000
0000
0000
,
0000
0000
0000
0000
,
0000
0000
0000
0000
,
1001
0000
1000
0000
,
0001
0100
0001
0000
,
0100
0000
0010
0000
,
1000
0100
1000
0000
,
0100
0000
0010
0000
,
0001
0100
0001
0000
,
0100
0000
0010
0000
,
0100
0010
1000
0001
,
0010
0000
0100
0000
,
0010
0001
0010
0000
,
0100
0000
0001
0000
,
0010
0100
0010
0000
,
1001
0000
0000
0000
,
1010
0000
0101
0000
,
1000
0100
0010
0001
,
0010
0100
1000
0000
,
0001
0100
0010
0000
,
0100
0000
0010
0000
,
1000
0100
0010
0000
,
0100
0000
1000
0000
,
0001
1000
0010
0000
,
1000
0000
0100
0000
,
0010
0100
1000
0000
,
0000
0001
0001
0001
,
1000
0001
0000
0001
,
0010
0000
0100
0000
,
0010
0001
0000
1000
,
0100
0000
0010
0000
,
0100
1000
0010
0000
,
0100
0001
0010
0000
,
0200
0000
0000
0000
,
0000
0000
0000
0000
,
0310
0000
0000
0000
,
0000
0000
0000
0000
,
0000
0000
0001
0000
,
0000
0000
1000
0000
,
0000
0000
0001
0000
,
0000
0000
1000
0000
,
1001
0000
0001
0100
,
1010
0000
1000
0100
,
0011
0000
0001
0010
,
1100
0000
1000
0010
,
0101
0000
0011
0000
,
1100
0000
0110
0000
,
0011
1100
0011
0101
,
1001
0110
1001
1100
,
1001
0000
0000
0000
,
0001
0010
0100
1000
0100
0010
0001
0000
,
1000
0010
1000
0000
,
0001
0100
0001
0000
,
0010
0100
0010
0000
,
0100
0010
0001
1000
,
0001
0010
0001
0000
,
0010
0100
0010
0000
,
0100
1000
0100
0000
,
1000
0001
0100
0001
,
1000
0100
0010
0000
,
0100
1000
0010
0000
,
0100
0001
0010
0000
,
0100
0010
0001
0100
,
0110
0000
0010
0100
,
0101
0000
1010
0000
,
0001
0010
0100
1000
,
0100
0010
0001
0000
,
1000
0001
0100
0000
,
0001
1000
0010
0000
,
1000
0100
0010
0000
,
0011
0000
1100
0000
,
0100
1000
0010
0000
,
0100
0001
0010
0000
,
0100
0010
0001
0000
,
0011
0000
1100
0000
,
0001
1000
0010
1000
,
0001
0010
0100
0010
,
0001
0100
0010
1000
,
0100
0010
0001
0100
,
0010
0010
0010
0100
,
0100
0100
0010
0100
,
0001
1000
0010
0100
,
0001
1000
0010
0100
,
1001
0000
0000
0000
;

//--------------- dance-single - Pandemonium X ----------------
#NOTES:
     dance-single:
     Pandemonium X:
     Medium:
     13:
     0,0,0,0,0:
0000
0000
0000
0000
,
0000
0000
0000
0000
,
0000
0000
0000
0000
,
0000
0000
0000
0000
,
0000
0000
0000
0000
,
0000
0000
0000
0000
,
0000
0000
0000
0000
,
0000
0000
0000
0000
,
0000
0000
0000
0000
,
0101
0000
0101
0000
,
0001
0100
0010
0000
,
1010
0000
1010
0000
,
1000
0010
0100
0000
,
0011
0000
0011
0000
,
0001
0010
0100
0000
,
1100
0000
1100
0000
,
1000
0001
0100
0000
,
1001
0000
0010
0000
,
1001
0000
0001
0000
,
1001
0000
1000
0000
,
0001
0100
0010
1000
,
0100
0010
0100
1000
,
0001
0001
0001
0001
,
1000
0001
0100
0001
,
1000
0100
1000
0001
,
0110
0000
0000
0000
,
0000
0000
0000
0000
,
2000
0000
0000
0000
,
0000
0000
0000
0000
,
3001
0010
0001
0010
,
0100
1000
0100
1000
,
0010
1000
0010
1000
,
0010
0100
0010
0100
,
0001
0010
0001
0010
,
0100
1000
0100
1000
,
0001
1000
0001
1000
,
0001
0100
1000
0100
,
0001
0100
0010
0100
,
0010
1000
0010
0100
,
0001
0010
0100
0010
,
0100
1000
0100
0010
,
0001
0100
0001
1000
,
0100
0010
0100
1000
,
0001
0001
1000
1000
,
0010
0000
0010
0000
1000
0001
0000
0000
,
1000
0100
0010
0010
,
0001
0100
0001
0001
,
1000
0001
0100
0100
,
0001
0010
0100
0100
,
0010
0001
1000
1000
,
0100
0010
0001
0001
,
0010
0100
1000
0001
,
0000
1000
0001
0100
,
0010
0000
0100
0000
0000
0001
1000
0000
,
0000
0100
0010
0000
0100
0000
1000
0000
,
0001
0000
0010
0000
0000
0100
0010
0000
,
0000
0100
1000
0000
0001
0000
0100
0000
,
0001
0001
0001
1000
,
1000
1000
0001
1000
,
0020
0000
0000
0000
,
0000
0000
0000
0000
,
0130
0000
0000
0000
,
0000
0000
0000
0000
,
0000
0000
1001
0000
,
0000
0000
0101
0000
,
0000
0000
0011
0000
,
0000
0000
0000
0000
0000
0000
0000
0000
1100
0000
0000
0000
1000
0001
1000
0001
,
1001
0000
0000
0000
0001
0100
0001
0100
,
0101
0000
0000
0000
1000
0010
1000
0010
,
1010
0000
0000
0000
1000
0100
1000
0100
,
1100
0000
0000
0000
0010
0001
0010
0001
,
0011
0010
0110
0100
,
1100
1000
1010
0010
,
0110
1001
0110
1001
,
0001
0100
0010
1000
0100
0010
0001
1000
,
0110
0000
0000
0000
,
0001
0100
1000
0100
0001
1000
0100
0000
,
0011
0010
0001
0100
,
0010
1000
0001
0010
,
0100
0010
0001
1000
,
0100
0010
0100
1000
,
0010
0100
0001
0010
,
0100
0010
0001
1000
,
0010
0100
0001
0010
,
0100
0100
0010
0010
,
0001
0100
0010
1000
,
0100
0010
0001
0010
,
0100
0010
0001
0100
,
0010
1000
0100
0010
,
0100
1000
0010
0100
,
0001
0010
0100
0010
,
0001
0001
1000
1000
,
0010
0000
0010
0000
1000
0001
0000
0000
,
1000
0000
0100
0000
0010
0000
0001
0100
,
0000
0100
0001
0000
0100
0000
0010
0000
,
1000
0000
0100
0000
1000
0000
0001
1000
,
0000
1000
0100
0000
0010
0000
0100
0000
,
1000
0000
0010
0000
0100
0000
0001
0010
,
0000
0010
0001
0000
1000
0000
0001
0000
,
0100
0000
0010
0000
1000
0000
0100
0010
,
0000
0010
0100
0000
0010
0000
0001
0000
,
1000
0000
0001
0000
0000
0100
0001
0000
,
0000
0010
0100
0000
0010
0000
0001
0000
,
1000
0000
0100
0000
0000
0010
0100
0000
,
0000
0010
0001
0000
0100
0000
0010
0000
,
1000
0001
0110
0001
,
1000
0110
0001
1000
,
0001
0010
1000
0010
,
0001
0100
1000
0100
,
1001
0000
0000
0000
;

//--------------- dance-single - Pandemonium X ----------------
#NOTES:
     dance-single:
     Pandemonium X:
     Hard:
     15:
     0,0,0,0,0:
0000
0000
0000
0000
,
0000
0000
0000
0000
,
0000
0000
0000
0000
,
0000
0000
0000
0000
,
0000
0000
0000
0000
,
0000
0000
0000
0000
,
0000
0000
0000
0000
,
0000
0000
0000
0000
,
0000
0000
0000
0000
,
1001
0000
1001
0000
,
0001
0000
0100
0000
0001
1000
0010
0100
,
0001
0000
1001
0000
,
1000
0000
0100
0000
0010
0100
1000
0001
,
1000
0000
1001
0000
,
0001
0000
0100
0000
0010
1000
0100
0010
,
0001
0000
1001
0000
,
0001
0000
0010
0000
0100
1000
0001
0100
,
0001
0000
1010
0000
,
1100
0000
0011
0000
,
1001
0000
1010
0000
,
0001
0000
1000
0000
0010
0100
0001
0010
,
0100
1000
0100
1000
,
0001
0001
0001
0001
,
1000
0010
1000
0010
1000
0000
0001
0010
,
0001
0010
0001
0000
1000
0010
1000
0010
,
2000
0000
0000
0000
,
0000
0000
0000
0000
,
3000
0000
0000
0000
,
0000
0000
0000
0000
,
1001
1000
0010
1000
,
0100
0010
0100
1000
,
0001
0010
0100
0010
,
0001
0000
1000
0000
0010
0000
0100
0001
,
0010
0100
0010
0001
,
1000
0100
0010
0001
,
0100
0001
1000
0100
,
0010
0100
1000
0000
0001
0100
0001
1000
,
0100
0010
0001
0100
,
0010
1000
0010
0100
,
0001
0010
0100
0010
,
0001
0000
1000
0000
0100
0000
0010
0001
,
0100
0010
1000
0001
,
1001
0000
1100
0000
,
1001
0100
1001
0010
,
1001
1010
1100
0000
,
1000
0010
1000
0000
0010
0000
0100
0000
,
0001
0010
0001
0000
0010
0000
0001
0000
,
1000
0100
1000
0000
0010
0000
0100
0000
,
0001
0100
0001
0000
0010
0000
0100
1000
,
0001
0100
0001
0000
0100
0000
0010
0000
,
1000
0100
1000
0000
0100
0000
0010
0000
,
0001
0100
0001
0000
0100
0000
0010
0000
,
0000
1010
0101
1010
,
1000
0000
0001
0000
0000
1000
0100
0000
,
0000
0010
0100
0000
1000
0000
0001
0000
,
0100
0000
0010
0000
0000
0100
0001
0000
,
0000
0010
0100
0000
0010
0000
0001
0000
,
1000
0100
1000
0100
1000
0000
0001
0100
,
0001
0100
0001
0000
1000
0100
1000
0100
,
0020
0000
0000
0000
,
0000
0000
0000
0000
,
0130
0000
0000
0000
,
0000
0000
0000
0000
,
0002
0000
1003
0000
,
2000
0000
3001
0000
,
0200
0000
0310
0000
,
0020
0000
0000
0000
0000
0000
0000
0000
0130
0000
0000
0000
1001
0001
0110
1000
,
1001
0000
0000
0000
0001
0100
0001
0100
,
1010
0000
0000
0000
1000
0100
1000
0100
,
0011
0000
0000
0000
0001
1000
0001
1000
,
0110
0000
0000
0000
1000
0001
1000
0001
,
1001
0000
0001
0100
1010
0000
1000
0100
,
0011
0000
0001
0100
1010
0000
1000
0100
,
0011
0010
0110
0100
1100
1000
1001
0001
,
0100
0001
0000
0001
0000
0001
0010
0100
1000
0001
1000
0001
1000
0001
1000
0001
,
0100
0000
0000
0000
,
1001
0010
1001
0100
0101
1010
1001
0000
,
1000
0100
1000
0010
,
0100
0001
0010
0100
,
0010
0001
1000
0010
,
0100
0000
0001
0000
0010
0000
0100
0010
,
0001
0010
0001
0100
,
0001
1000
0100
0010
,
0001
0010
0001
0100
,
0010
1000
0010
0000
0010
0100
0010
0100
,
0010
0100
1000
0100
,
0001
1000
0100
0010
,
0001
0010
1000
0010
,
0100
1000
0001
0100
,
1001
0001
1000
0010
,
1001
0000
0101
0000
,
1001
0010
1001
0100
,
1100
0011
1001
0000
,
0001
0000
1000
0000
0010
0000
0100
0001
,
0000
0001
0010
0000
0100
0000
0010
0001
,
0000
0001
0100
0000
0010
1000
0010
1000
,
0000
0010
0100
0000
0001
0000
1000
0100
,
0010
0000
0100
0000
0010
0000
0001
1000
,
0000
1000
0001
0000
0100
0000
0001
0100
,
0000
0100
0010
0000
0100
0001
0010
0001
,
0000
0100
0001
0000
0100
0000
0001
1000
,
0100
0000
0010
0000
0100
0000
1000
0010
,
0000
0100
0001
0000
0010
0000
0100
0010
,
0000
0001
0100
0000
0010
1000
0100
0010
,
0000
0100
1000
0000
0001
0000
1000
0001
,
0100
0010
0100
0010
0100
0000
0001
1000
,
0001
1000
0001
0000
1000
0100
1000
0100
,
0010
0001
0100
0001
0100
0010
1000
0010
,
0100
0001
0010
0100
1000
0100
0010
0001
,
2000
0000
0000
0000
,
3000
0000
0000
0000
;

//--------------- dance-single - Pandemonium X ----------------
#NOTES:
     dance-single:
     Pandemonium X:
     Challenge:
     16:
     0,0,0,0,0:
0000
0000
0000
0000
,
0000
0000
0000
0000
,
0000
0000
0000
0000
,
0000
0000
0000
0000
,
0000
0000
0000
0000
,
MMMM
0000
0000
0000
,
0000
MMMM
0000
MMMM
0000
MMMM
0000
MMMM
,
0000
MMMM
0000
0000
0000
0000
0000
0000
,
0000
0000
0000
0000
,
0001
1000
0001
1000
,
0010
0000
0010
0000
0010
0100
0010
0100
,
0001
1000
0001
1000
,
0010
0000
0000
0000
0000
0000
0010
0000
0000
0000
0000
0000
0010
0000
0000
0100
0000
0000
0010
0000
0100
0000
0010
0000
,
1000
0001
1000
0001
,
0010
0000
0100
0000
0010
0100
0010
0100
,
1000
0001
1000
0001
,
0010
0000
0000
0000
0000
0000
0100
0000
0000
0000
0000
0000
0010
0000
0000
0100
0000
0000
0010
0000
0100
0000
0010
0000
,
0100
0100
1000
1000
,
1001
0001
0100
0100
,
0110
0010
1000
1000
,
1001
0000
1001
0000
0001
0100
0010
1000
,
1100
0100
0110
0010
,
0011
0011
0011
0011
,
0001
0100
1000
0100
0001
0000
1000
0100
,
0001
0100
1000
0000
0001
0100
0010
1000
,
1001
0000
0000
0000
,
0000
0000
0000
0000
,
0000
0000
0000
0000
,
0000
0000
0000
0000
,
0001
0100
0010
1000
,
0100
0010
0100
1000
,
0001
0010
0100
1000
,
0001
0000
1000
0000
0010
0000
0100
0001
,
1000
0100
0010
0100
,
0010
0001
0100
0010
,
0100
0001
1000
0001
,
1000
0100
0010
0000
0100
0010
0001
0100
,
0010
1000
0100
0010
,
0001
1000
0010
0100
,
0010
0100
0001
1000
,
0001
0000
0010
0000
0100
0000
1000
0100
,
1001
0001
1000
0001
,
0101
0100
0110
0010
,
1010
0101
0011
0110
,
1100
0000
1001
0000
0001
1000
0000
0000
,
0001
0100
0001
0100
0001
0100
0001
0100
,
0010
1000
0010
1000
0010
1000
0010
1000
,
0001
1000
0001
1000
0001
1000
0001
1000
,
0001
0010
0001
0000
1000
0100
0010
0001
,
1000
0010
1000
0010
1000
0010
1000
0010
,
0100
0001
0100
0001
0100
0001
0100
0001
,
1000
0001
1000
0001
1000
0001
1000
0001
,
0000
1001
0110
1001
,
0101
0000
1010
0000
1000
0100
0001
0100
,
0000
1000
0010
0000
0110
0000
0101
0000
,
1001
0000
1100
0000
0001
0010
1000
0010
,
0000
0100
0010
0000
0011
0000
1100
0000
,
0001
0100
1000
0100
0001
0000
1000
0100
,
0001
0100
1000
0000
0001
0100
1000
0100
,
0001
0100
0010
1000
0001
0100
0010
1000
,
0001
0100
0010
1000
0001
0100
0010
1000
,
1001
0000
0000
0000
,
0000
0000
0000
0000
,
0002
0000
0000
0000
0000
0000
0000
0003
MMMM
0000
0000
0000
0000
0000
0000
0000
,
2000
0000
0000
0000
0000
0000
0000
3000
MMMM
0000
0000
0000
0000
0000
0000
0000
,
0200
0000
0000
0000
0000
0000
0000
0300
MMMM
0000
0000
0000
0000
0000
0000
0000
,
0020
0000
0000
0000
0000
0000
0000
0030
MMMM
0000
0000
0000
0201
0310
1200
0310
,
MMMM
0000
0000
0000
2100
3010
0102
0013
,
MMMM
0000
0000
0000
0102
0013
2100
3010
,
MMMM
0000
0000
0000
0021
0130
2100
3001
,
MMMM
0000
0000
0000
1200
0310
0021
0130
,
MMMM
0000
0010
0100
MMMM
0000
0100
0010
,
MMMM
0000
0001
1000
MMMM
0000
1000
0001
,
MMMM
0001
MMMM
0010
MMMM
0001
MMMM
0010
,
0001
0100
0000
0100
0000
0100
0010
1000
0001
1000
0001
1000
0001
1000
0001
1000
,
1001
0000
0000
0000
0000
0000
0000
0000
0000
0000
0000
0000
0000
0000
0000
0000
0000
0000
0000
0000
0000
0000
0000
0000
0000
0000
0000
0000
0000
0000
0000
0000
0000
0000
0000
0000
0000
0000
0000
0000
0000
0000
0000
0000
0000
0000
0000
0000
MMMM
0000
0000
0000
0000
0000
0000
0000
0000
0000
0000
0000
0000
0000
0000
0000
0000
0000
0000
0000
0000
0000
0000
0000
MMMM
0000
0000
0000
0000
0000
0000
0000
0000
0000
0000
0000
0000
0000
0000
0000
0000
0000
0000
0000
0000
0000
0000
0000
MMMM
0000
0000
0000
0000
0000
0000
0000
0000
0000
0000
0000
0000
0000
0000
0000
0000
0000
0000
MMMM
0000
0000
0000
0000
0000
0000
0000
0000
0000
0000
0000
0000
0000
0000
0000
0000
0000
0000
0000
0000
0000
0000
0000
0000
0000
0000
0000
0000
0000
0000
0000
0000
0000
0000
0000
0000
0000
0000
0000
0000
0000
0000
0000
0000
0000
0000
0000
0000
0000
0000
0000
0000
0000
0000
0000
0000
0000
0000
0000
0000
0000
0000
0000
0000
0000
0000
0000
0000
0000
0000
0000
0000
0000
0000
0000
0000
,
0001
0100
1000
0010
0001
1000
1001
0000
,
1001
0000
0001
0100
0001
0000
0100
0010
,
0100
0000
0010
1000
0010
0000
1000
0100
,
1000
0000
0100
0010
0100
0000
0010
0001
,
0010
0000
0100
1000
0100
0000
0010
0001
,
1001
0000
1000
0010
1000
0000
0010
0100
,
0010
0000
0100
0001
0100
0000
0001
0010
,
0001
0000
0010
0100
0010
0000
0001
1000
,
0001
0100
0010
0000
0100
0010
1000
0001
,
0010
0000
0100
0010
0001
0000
0010
0001
,
1000
0000
0010
0100
0001
0000
0100
0010
,
1000
0000
0001
1000
0100
0000
0010
0001
,
1000
0000
0001
0100
0010
0000
1000
0001
,
1001
0000
0001
0010
0100
0000
0010
0001
,
0101
0000
0100
0010
1010
0000
1000
0000
,
0001
0100
1000
0010
,
0001
1000
1001
0000
,
0001
0000
0100
0000
0010
0000
1000
0100
,
0000
0010
0001
0000
0100
0000
0001
0100
,
0000
0010
1000
0000
0001
0010
0100
0010
,
0000
0001
0010
0000
0100
0000
1000
0001
,
0010
0000
0100
0000
0010
0000
0001
0100
,
0000
0010
1000
0000
0100
0000
0010
0100
,
0000
1000
0001
0000
0100
0001
1000
0100
,
0000
0010
0100
0000
1000
0000
0001
0100
,
0010
0000
1000
0000
1100
0000
0100
1000
,
0000
0010
0100
0000
0101
0000
0001
0010
,
0000
0100
0010
0000
0001
0010
1000
0010
,
0000
0100
0010
0000
0011
0000
0001
0100
,
0001
0100
1000
0100
0001
0000
1000
0100
,
0001
0100
1000
0000
0010
1000
0001
0010
,
0100
0010
0001
0100
0010
1000
0001
0010
,
0100
0010
0001
0100
0010
1000
0001
1000
,
0100
0000
0000
0000
;

//--------------- dance-double - Pandemonium X ----------------
#NOTES:
     dance-double:
     Pandemonium X:
     Easy:
     10:
     0,0,0,0,0:
00000000
00000000
00000000
00000000
,
00000000
00000000
00000000
00000000
,
00000000
00000000
00000000
00000000
,
00000000
00000000
00000000
00000000
,
00000000
00000000
00000000
00000000
,
00000000
00000000
00000000
00000000
,
00000000
00000000
00000000
00000000
,
00000000
00000000
00000000
00000000
,
00000000
00000000
00000000
00000000
,
00001000
00010000
00001000
00010000
,
00000000
00000000
00000000
00000000
,
00001000
00010000
00001000
00010000
,
00000000
00000000
00000000
00000000
,
00001000
00010000
00001000
00010000
,
00000000
00000000
00000000
00000000
,
00001000
00010000
00001000
00010000
,
00000000
00000000
00000000
00000000
,
00001000
00010000
00001000
00010000
,
00001000
00010000
00001000
00010000
,
00001000
00010000
00001000
00010000
,
00000000
00000000
00000000
00000000
,
00001000
00010000
00001000
00010000
,
00001000
00001000
00001000
00001000
,
00010000
00010000
00001000
00010000
,
00010000
00001000
00010000
00010000
,
00011000
00000000
00000000
00000000
,
00000000
00000000
00000000
00000000
,
00000000
00000000
00000000
00000000
,
00000000
00000000
00000000
00000000
,
00001000
00000000
00010000
00000000
,
00000100
00000000
00001000
00000000
,
00000010
00000000
00000100
00000000
,
00000001
00000000
00000010
00000100
,
00001000
00000000
00000100
00000000
,
00010000
00000000
00001000
00000000
,
01000000
00000000
00010000
00000000
,
00100000
01000000
00100000
00010000
,
10000000
00000000
00010000
00000000
,
01000000
00000000
00001000
00000000
,
00010000
00000000
00000100
00000000
,
00001000
00000000
00000010
00000000
,
00001001
00000000
00000100
00000000
,
00000101
00000000
00001010
00000000
,
00000001
00000100
00000010
00001000
,
00000100
00010000
00011000
00000000
,
00001000
00000000
01000000
00000000
,
00010000
00000000
00100000
00000000
,
01000000
00000000
10000000
00000000
,
00100000
00000000
01000000
00010000
,
10000000
00000000
01000000
00000000
,
00100000
00000000
00010000
00000000
,
00001000
00000000
00010000
00000000
,
00000000
00000100
00000100
00000100
,
00001000
00000010
00000000
00000100
,
00000000
00000001
00001000
00000000
,
00000100
00000010
00000000
00000001
,
00000000
00000010
00000100
00000000
,
00000010
00000100
00000010
00001000
,
00000001
00001000
00000001
00000100
,
00000020
00000000
00000000
00000000
,
00000000
00000000
00000000
00000000
,
00000130
00000000
00000000
00000000
,
00000000
00000000
00000000
00000000
,
00000002
00000000
00001003
00000000
,
00000200
00000000
00010300
00000000
,
00002000
00000000
01003000
00000000
,
00200000
00000000
00000000
00000000
10300000
00000000
10010000
01100000
,
10010000
00000000
00100000
00001000
,
00011000
00000000
00010000
00000100
,
00001100
00000000
00001000
00000010
,
00000110
00000000
00000100
00000001
,
00001001
00000000
00001100
00000000
,
00010100
00000000
01001000
00000000
,
00011000
01001000
00010100
00011000
,
00001010
00000000
00011000
00000000
00001000
00010000
00001000
00010000
,
00011000
00000000
00000000
00000000
,
00010000
00000100
00010000
00001000
01000000
00001000
00011000
00000000
,
00001000
00000000
00010000
00000000
,
00000010
00000000
00000100
00000000
,
00000001
00000000
00001000
00000000
,
00000100
00000000
00001000
00000010
,
00000100
00000000
00000010
00000000
,
00010000
00000000
00001000
00000000
,
01000000
00000000
00010000
00000000
,
00100000
01000000
10000000
00010000
,
10000000
00000000
00010000
00000000
,
01000000
00000000
00001000
00000000
,
00010000
00000000
00000100
00000000
,
00010000
00000000
00001000
00000000
,
00011000
00000000
00010000
00000000
,
00010100
00000000
00010100
00000000
,
00000100
00001000
00000010
00000100
,
00000001
00000010
00000100
00000000
,
00000010
00000000
00000001
00000000
,
00000100
00000010
00001000
00000000
,
00000100
00000000
00010000
00000000
,
00001000
01000000
00010000
00000000
,
00100000
00000000
01000000
00000000
,
00100000
00010000
10000000
00000000
,
00010000
00000000
01000000
00000000
,
00100000
10000000
00010000
00000000
,
00110000
00000000
00100000
00000000
,
01000000
10000000
00010000
00000000
,
01010000
00000000
00010000
00100000
,
00001000
00000000
00010000
00000000
,
00001000
00010000
00000100
00010000
,
00001000
01000000
00001000
00010000
,
00001000
00010000
00001000
00010000
,
00001000
00010000
00001000
00010000
,
00001000
00000000
00000000
00000000
;

//--------------- dance-double - Pandemonium X ----------------
#NOTES:
     dance-double:
     Pandemonium X:
     Medium:
     13:
     0,0,0,0,0:
00000000
00000000
00000000
00000000
,
00000000
00000000
00000000
00000000
,
00000000
00000000
00000000
00000000
,
00000000
00000000
00000000
00000000
,
00000000
00000000
00000000
00000000
,
00000000
00000000
00000000
00000000
,
00000000
00000000
00000000
00000000
,
00000000
00000000
00000000
00000000
,
00000000
00000000
00000000
00000000
,
00001000
00010000
00001000
00010000
,
00001000
00000000
00001000
00000000
,
00001000
00010000
00001000
00010000
,
00001000
00000000
00001000
00000000
,
00001000
00010000
00001000
00010000
,
00001000
00000000
00001000
00000000
,
00001000
00010000
00001000
00010000
,
00001000
00000000
00001000
00000000
,
00011000
00000000
00000100
00000000
,
00000110
00000000
00000001
00000000
,
00001001
00000000
00001000
00000000
,
00000100
00001000
00000100
00001000
,
00000100
00000000
00010000
00000000
,
00001000
00001000
00001000
00001000
,
00010000
00001000
00100000
00001000
,
00010000
00000010
00010000
00001000
,
00022000
00000000
00000000
00000000
,
00000000
00000000
00000000
00000000
,
00033000
00000000
00000000
00000000
,
00000000
00000000
00000000
00000000
,
00001000
00010000
00000100
00001000
,
00000010
00000100
00000001
00000010
,
00000100
00001000
00000100
00010000
,
00001000
01000000
00010000
00100000
,
00100000
01000000
10000000
00100000
,
01000000
00010000
00100000
00001000
,
00010000
00000010
00000100
00000001
,
00001000
00000100
00000001
00000100
,
00001000
00000001
00000100
00000001
,
00001000
00000010
00001000
00000100
,
00010000
00001000
00100000
00010000
,
10000000
01000000
00100000
00010000
,
10010000
00000000
01000000
00100000
,
01100000
00000000
10010000
00000000
,
10000000
01000000
00100000
00010000
,
00100000
01000000
10010000
00000000
,
10000000
00100000
01000000
00010000
,
00100000
00001000
00010000
00000010
,
00000100
00000001
00000010
00000100
,
00001000
00000100
00010000
00001000
,
00001000
00010000
00000100
00010000
,
00001000
00100000
00001000
00010000
,
00000010
00000100
00000001
00001000
,
00000000
00001001
00001001
00001001
,
00000001
00000000
00000100
00000000
00000000
00000010
00001000
00000000
,
00000000
00001000
00000100
00000000
00010000
00000000
00001000
00000000
,
01000000
00000000
00010000
00000000
00000000
10000000
01000000
00000000
,
00000000
00100000
00010000
00000000
01000000
00000000
00100000
00000000
,
10000000
00010000
10010000
00010000
,
00100000
00110000
00100000
00001000
,
00020000
00000000
00000000
00000000
,
00000000
00000000
00000000
00000000
,
00031000
00000000
00000000
00000000
,
00000000
00000000
00000000
00000000
,
00002000
00000000
00103000
00000000
,
00002000
00000000
01003000
00000000
,
00002000
00000000
00013000
00000000
,
00002000
00000000
00000000
00000000
00000000
00000000
00000000
00000000
01003000
00000000
00000000
00000000
00010000
00010000
10000000
10000000
,
10010000
00000000
00000000
00000000
00010000
00010000
00100000
00100000
,
00110000
00000000
00000000
00000000
00001000
00001000
00010000
00010000
,
00011000
00000000
00000000
00000000
00010000
00010000
00000100
00000100
,
00001100
00000000
00000000
00000000
00001000
00001000
00000010
00000010
,
00001010
00000000
00000001
00000100
00000101
00000000
00000100
00000010
,
00000110
00000000
00000010
00001000
00001010
00000000
00001000
00000100
,
00001000
00001000
00000100
00000100
00010000
00010000
00001000
00001000
,
01000000
00100000
00000000
00100000
00000000
00100000
01000000
00000000
00010000
00000000
10000000
00000000
00010000
00000000
10000000
00000000
,
02200000
03300000
00000000
00000000
,
10000000
00010000
00100000
00001000
00010000
00000010
00001001
00000000
,
00000001
00000100
00000010
00001000
,
00000100
00010000
00001000
01000000
,
00001000
00010000
00000100
00010000
,
00001000
00100000
00010000
10000000
,
10000000
01000000
00100000
00001000
,
00010000
00000100
00001000
00000100
,
00000001
00001000
00000100
00010000
,
00001000
00001000
00100000
00010000
,
10010000
10000000
00100000
01000000
,
00001000
00010000
00000100
00001000
,
00000010
00000100
00000001
00000010
,
00000100
00001000
00000100
00010000
,
00011000
00000000
00001000
01000000
,
01100000
00000000
10010000
00000000
,
10000000
01000000
00100000
00010000
,
00001000
00000100
00001001
00000000
,
00000001
00000000
00000100
00000000
00000010
00000000
00001000
00000100
,
00000000
00000100
00010000
00000000
00001000
00000000
00010000
00001000
,
00000000
00001000
01000000
00000000
00100000
00000000
10000000
01000000
,
00000000
00100000
00010000
00000000
01000000
00000000
00010000
00000000
,
10000000
00000000
00010000
00000000
00100000
00000000
00001000
00010000
,
00000000
00010000
00000100
00000000
00001000
00000000
00000010
00000100
,
00000000
00000100
00000001
00000000
00001000
00000000
00000100
00000000
,
00000010
00000001
00000100
00000001
,
00001000
00000000
00000100
00000000
00000000
00000010
00000001
00000000
,
00000000
00000010
00000100
00000000
00001000
00000000
00000100
00000000
,
00010000
00000000
00000100
00000000
00000000
00010000
00001000
00000000
,
00000000
00001000
01000000
00000000
00100000
00000000
10000000
00000000
,
00010000
00100000
10000000
00100000
,
00010000
01000000
10000000
01000000
,
00001000
00001000
00001000
00001000
,
00001000
00001000
00001000
00001000
,
00011000
00000000
00000000
00000000
;

//--------------- dance-double - Pandemonium X ----------------
#NOTES:
     dance-double:
     Pandemonium X:
     Hard:
     15:
     0,0,0,0,0:
00000000
00000000
00000000
00000000
,
00000000
00000000
00000000
00000000
,
00000000
00000000
00000000
00000000
,
00000000
00000000
00000000
00000000
,
00000000
00000000
00000000
00000000
,
00000000
00000000
00000000
00000000
,
00000000
00000000
00000000
00000000
,
00000000
00000000
00000000
00000000
,
00000000
00000000
00000000
00000000
,
00001000
00010000
00001000
00010000
,
00001000
00000000
00001000
00000000
00001000
00010000
00001000
00010000
,
00001000
00010000
00001000
00010000
,
00001000
00000000
00001000
00000000
00001000
00010000
00001000
00010000
,
00001000
00010000
00001000
00010000
,
00001000
00000000
00001000
00000000
00001000
00010000
00001000
00010000
,
00001000
00010000
00001000
00010000
,
00001000
00000000
00001000
00000000
00001000
00010000
00001000
00010000
,
00000100
00010000
00000100
00010000
,
00001000
01000000
00001000
01000000
,
00010000
00100000
00010000
00100000
,
01000000
00000000
01000000
00000000
01000000
10000000
01000000
10000000
,
00010000
01000000
00010000
00100000
,
00001000
00001000
00001000
00001000
,
00010000
00000010
00000100
00000001
00000010
00000000
00000100
00000010
,
00000001
00001000
00000100
00000000
00001000
00000100
00010000
00001000
,
00020000
00000000
00000000
00000000
,
00030000
00000000
00000000
00000000
,
00000200
00000000
00000000
00000000
,
00000000
00000000
00000000
00000000
,
00001300
00000010
00000100
00000001
,
00000010
00000100
00001000
00000100
,
00010000
00001000
01000000
00010000
,
00100000
00000000
01000000
00000000
10000000
00000000
00010000
01000000
,
00010000
00100000
00001000
00010000
,
00001000
00010000
00000010
00000100
,
00000001
00000010
00000100
00001000
,
00000100
00001000
00000100
00000000
00001000
00000010
00001000
00000010
,
00000100
00000001
00000010
00000001
,
00001000
00000100
00010000
00001000
,
01000000
00010000
00100000
01000000
,
10000000
00010000
01000000
00100000
,
10010000
10000000
00010000
00100000
,
00101000
00000000
00010010
00000000
,
00000010
00000100
00001000
00010000
,
00100000
01000000
10010000
00000000
,
10000000
00000000
01000000
00100000
01000000
00000000
00100000
00000000
,
00001000
00000000
00010000
00000100
00010000
00000000
00000100
00000000
,
00001000
00000000
00000001
00000100
00000001
00000000
00000010
00000000
,
00000100
00000000
00001000
00000100
00001000
00000000
00000100
00010000
,
00001000
00000000
00100000
00010000
00100000
00000000
00010000
00000000
,
01000000
00000000
00100000
10000000
00100000
00000000
10000000
00000000
,
00010000
00000000
00100000
01000000
00100000
00000000
00010000
00000000
,
00000000
00011000
00011000
00011000
,
00010100
00000000
00010100
00000000
00000100
00001000
00000010
00000100
,
00000000
00000100
00000001
00000000
00000011
00000000
00000011
00000000
,
00001100
00000000
00001100
00000000
00000100
00010000
00001000
00010000
,
00000000
00010000
00001000
00000000
01001000
00000000
01001000
00000000
,
01000000
00100000
01000000
00100000
01000000
00000000
00010000
10000000
,
00010000
10000000
00010000
00000000
10000000
01000000
00100000
00010000
,
02000000
00000000
00000000
00000000
,
00000000
00000000
00000000
00000000
,
03001000
00000000
00000000
00000000
,
00000000
00000000
00000000
00000000
,
00200000
00000000
00300010
00000000
,
00000020
00000000
00100030
00000000
,
00000200
00000000
01000300
00000000
,
02000000
00000000
00000000
00000000
03000100
00000000
00011000
00011000
,
00110000
00000000
00000000
00000000
00010000
00100000
01000000
10000000
,
01010000
00000000
00000000
00000000
01000000
00001000
00010000
00000100
,
00000011
00000000
00000000
00000000
00001000
00000010
00000100
00000001
,
00000110
00000000
00000000
00000000
00000001
00000100
00000010
00001000
,
00001100
00000000
00000100
00010000
00011000
00000000
00001000
01000000
,
01100000
00000000
01000000
00010000
10010000
00000000
10000000
01000000
,
01100000
00100000
00110000
00001000
00011000
00010000
00010100
00000100
,
00001000
00000010
00000000
00001001
00000000
00000001
00000100
00001000
00000100
00000001
00001000
00000100
00000010
00000001
00001000
00000100
,
00000010
00000000
00000001
00000001
00000100
00000000
00000000
00000000
,
00000010
00000100
00001000
00010000
00100000
01000000
10010000
00000000
,
10000000
00100000
01000000
00010000
,
00100000
00001000
00010000
00000010
,
00000100
00000001
00000010
00000100
,
00010000
00000000
00001000
00000000
00100000
00000000
01000000
10000000
,
00010000
01000000
00010000
00100000
,
00001000
00010000
00000010
00000100
,
00000001
00000010
00000100
00001000
,
00000100
00010000
00000100
00000000
00010000
00001000
00010000
00001000
,
00010000
00001000
01000000
00010000
,
00100000
01000000
00100000
00010000
,
10000000
00100000
01000000
00010000
,
00100000
00000000
00001000
00000000
00010000
00000000
00000100
00001000
,
00000010
00000100
00000001
00000010
,
00000110
00000100
00001100
00001001
,
00000001
00000100
00001000
00010000
,
00100000
10000000
10010000
00000000
,
10000000
00000000
01000000
00000000
00100000
00000000
00001000
00010000
,
00000000
00000100
00001000
00000000
00000010
00000000
00000100
00000001
,
00000000
00000010
00000100
00000000
00000010
00000001
00000100
00000001
,
00000000
00000010
00000100
00000000
00001000
00000000
00000100
00010000
,
00001000
00000000
01000000
00000000
00010000
00000000
00100000
01000000
,
00000000
00100000
00010000
00000000
01000000
00000000
00100000
10000000
,
00000000
00010000
00100000
00000000
01000000
00100000
00010000
01000000
,
00000000
00010000
00100000
00000000
00001000
00000000
00010000
00000100
,
00001000
00000000
00000010
00000000
00000100
00000000
00000001
00000010
,
00000000
00000100
00001000
00000000
00000001
00000000
00000100
00000010
,
00000000
00001000
00000100
00000000
00001000
00000100
00010000
00001000
,
00000000
00010000
00001000
00000000
01000000
00000000
00001000
01000000
,
00100000
10000000
00100000
10000000
00100000
00000000
01000000
00010000
,
01000000
00010000
01000000
00000000
00010000
00100000
00010000
00100000
,
00001000
00010000
00001000
00010000
00001000
00010000
00001000
00010000
,
00001000
00010000
00001000
00010000
00001000
00010000
00001000
00010000
,
00001000
00000000
00000000
00000000
;

//--------------- dance-double - Pandemonium X ----------------
#NOTES:
     dance-double:
     Pandemonium X:
     Challenge:
     16:
     0,0,0,0,0:
00000000
00000000
00000000
00000000
,
00000000
00000000
00000000
00000000
,
00000000
00000000
00000000
00000000
,
00000000
00000000
00000000
00000000
,
00000000
00000000
00000000
00000000
,
MMMM0000
00000000
00000000
00000000
,
00000000
0000MMMM
00000000
MMMM0000
00000000
0000MMMM
00000000
MMMM0000
,
00000000
MMMMMMMM
00000000
00000000
00000000
00000000
00000000
00000000
,
00000000
00000000
00000000
00000000
,
00011000
00001000
00011000
00010000
,
00001000
00000000
00010000
00000000
00001000
00010000
00001000
00010000
,
00011000
00010000
00011000
00001000
,
00010000
00000000
00000000
00000000
00000000
00000000
00001000
00000000
00000000
00000000
00000000
00000000
00010000
00000000
00000000
00001000
00000000
00000000
00010000
00000000
00001000
00000000
00010000
00000000
,
00001000
00011000
00010000
00011000
,
00001000
00000000
00010000
00000000
00001000
00010000
00001000
00010000
,
00011000
00010000
00011000
00001000
,
00010000
00000000
00000000
00000000
00000000
00000000
00001000
00000000
00000000
00000000
00000000
00000000
00010000
00000000
00000000
00001000
00000000
00000000
00010000
00000000
00001000
00000000
00010000
00000000
,
00001000
00010000
00000100
00001000
,
00001010
00000010
00000100
00000001
,
00001001
00001000
00000100
00010000
,
00011000
00000000
00011000
00000000
00010000
00001000
00010000
00001000
,
00100000
00010000
11000000
10000000
,
10010000
01010000
10010000
01010000
,
01000000
00001000
00010000
00000100
00001000
00000000
00000100
00001000
,
00000100
00010000
00001000
00000000
00010000
00001000
01000000
00100000
,
MMMM0000
00000000
00000000
00000000
,
00000000
00000000
00000000
00000000
,
00000000
00000000
00000000
00000000
,
00000000
00000000
00000000
00000000
,
10010000
00010000
00100000
00001000
,
00010000
00000000
00000100
00000000
00001000
00000010
00000100
00000000
,
00000002
00000013
00000100
00000010
,
00000001
00000000
00001000
00000000
00000100
00000000
00010000
00001000
,
01000000
00010000
00100000
01000000
,
10000000
00000000
00010000
00000000
10000000
00010000
01000000
00000000
,
00200000
10300000
01000000
00100000
,
00001000
00010000
00000100
00000000
00001000
00000010
00000001
00000010
,
00001000
00000010
00010000
00001000
,
00100000
00000000
00010000
00000000
01000000
10000000
00100000
00000000
,
02000000
03100000
10000000
00010000
,
00100000
00000000
01000000
00000000
10000000
00000000
00010000
00100000
,
00101000
00000000
00001000
00000000
00010000
00000000
00000100
00001000
,
00001100
00000000
00001001
00000000
,
00000101
00000110
00001010
00010100
,
00011000
00101000
10010000
00000000
,
10000000
01000000
10000000
01000000
00100000
00010000
00100000
00010000
,
00100000
00001000
00100000
00001000
00010000
00001000
00010000
00001000
,
00010000
00000100
00010000
00000100
00001000
00000010
00001000
00000010
,
00000100
00000001
00000100
00000001
00001000
00000000
00000001
00000010
,
00000100
00001000
00000100
00001000
00000100
00010000
00000100
00010000
,
00001000
00010000
00001000
00010000
00001000
01000000
00001000
01000000
,
00100000
01000000
00100000
01000000
00100000
10000000
00100000
10000000
,
00000000
01010000
00110000
01010000
,
10010000
00000000
00110000
00000000
00100000
00001000
00010000
00000010
,
00000000
00000100
00000001
00000000
00001001
00000000
00001100
00000000
,
00001001
00000000
00001100
00000000
00000100
00010000
00001000
01000000
,
00000000
00010000
00100000
00000000
11000000
00000000
10010000
00000000
,
10000000
01000000
00100000
00010000
00001000
00000000
00010000
00001000
,
00000100
00000010
00000001
00000000
00000010
00000100
00001000
00000001
,
00000100
00000010
00000100
00000010
00000100
00000010
00000100
00000010
,
00000100
00000010
00000100
00000010
00000100
00000010
00000100
00000010
,
00001001
00000000
00000000
00000000
,
00000000
00000000
00000000
00000000
,
00002000
00000000
00000000
00000000
00000000
00000000
00000000
00000000
00000000
00000000
00000000
00003000
0001MMMM
00000000
00000000
00000000
00000000
00000000
00000000
00000000
00000000
00000000
00000000
00000000
,
00020000
00000000
00000000
00000000
00000000
00000000
00000000
00000000
00000000
00000000
00000000
00030000
MMMM1000
00000000
00000000
00000000
00000000
00000000
00000000
00000000
00000000
00000000
00000000
00000000
,
00002000
00000000
00000000
00000000
00000000
00000000
00000000
00000000
00000000
00000000
00000000
00003000
0100MMMM
00000000
00000000
00000000
00000000
00000000
00000000
00000000
00000000
00000000
00000000
00000000
,
02000000
00000000
00000000
00000000
00000000
00000000
00000000
00000000
00000000
00000000
00000000
00000000
00000000
00000000
00000000
00000000
00000000
00000000
00000000
00000000
00000000
00000000
03000000
00000000
MMMM1000
00000000
00000000
00000000
00000000
00000000
00000000
00000000
00000000
00000000
00000000
00000000
00011000
00000000
00000000
00000100
00000000
00000000
00011000
00000000
00000000
01000000
00000000
00000000
,
1001MMMM
00000000
10010000
00011000
,
0000MMMM
00000000
00001001
00011000
,
MMMM0000
00000000
10010000
00011000
,
0000MMMM
00000000
00001001
00011000
,
1001MMMM
00011000
MMMM1001
00011000
,
1001MMMM
00011000
MMMM1001
00011000
,
00100010
MMMMMMMM
01000100
MMMMMMMM
00100010
MMMMMMMM
01000100
MMMMMMMM
,
00010000
00001000
00000000
00001000
00000000
00001000
01000000
10000000
01000000
00010000
10000000
00010000
00100000
00001000
00000010
00000100
,
00000010
00000000
00000000
00000000
00000200
00000300
00000020
00000030
00002000
00000000
00000002
00000000
00003003
00000000
00000000
00000000
,
00000001
00000100
00001000
00010000
00100000
01000000
10010000
00000000
,
01010000
00000000
00010000
00100000
00001000
00000000
00010000
00000100
,
00001000
00000000
00000010
00000100
00000001
00000000
00000010
00000100
,
00001000
00000000
00000100
00010000
00001000
00000000
00010000
00001000
,
01000000
00000000
00100000
01000000
00010000
00000000
00100000
01000000
,
10000000
00000000
01000000
00100000
00010000
00000000
00100000
00001000
,
00010000
00000000
00000010
00000100
00000001
00000000
00001000
00000100
,
00000010
00000000
00000100
00001000
00000001
00000000
00000010
00001000
,
00000001
00000010
00001000
00000000
00001000
00000010
00000001
00001000
,
00000010
00000000
00000100
00000010
00001000
00000000
00000100
00010000
,
00001000
00000000
01000000
00010000
00100000
00000000
01000000
10000000
,
00010000
00000000
00100000
00001000
00010000
00000000
00000010
00000100
,
00000001
00000000
00000010
00000100
00001000
00000000
00000100
00010000
,
00011000
00000000
00001000
01000000
00100000
00000000
10000000
01000000
,
11000000
00000000
10010000
00000000
,
11000000
01100000
00110000
00011000
,
00001100
00000110
00001001
00000000
,
00000201
00000000
00000010
00000000
00000301
00000000
00001000
00000100
,
00000000
00000010
00000001
00000000
00001001
00000000
00001000
00000100
,
00000000
00000100
00010000
00000000
00001000
01000000
00010000
00100000
,
00000000
01000000
10000000
00000000
10010000
00000000
10000000
00100000
,
02100000
00000000
00010000
00000000
03100000
00000000
01000000
00010000
,
00000000
00100000
00001000
00000000
00010100
00000000
00000100
00001000
,
00000000
00000010
00000100
00000000
00001000
00000100
00000001
00001000
,
00000000
00000100
00000010
00000000
00000011
00000000
00000001
00000100
,
00000110
00000000
00001010
00000000
00000110
00000000
00000010
00010000
,
00000000
00001000
00100000
00000000
00110000
00000000
00100000
01000000
,
00000000
10000000
00010000
00000000
01000000
00001000
00010000
00000100
,
00000000
00001000
00000001
00000000
00000110
00000000
00001000
00000100
,
00000010
00000001
00000100
00001000
00010000
00000000
01000000
00100000
,
00010000
10000000
01000000
00000000
00100000
00001000
00010000
00000100
,
00010000
00001000
00010000
00001000
00010000
00001000
00010000
00001000
,
00010000
00001000
00010000
00001000
00010000
00001000
00010000
00001000
,
00010000
00000000
00000000
00000000
;
