#TITLE:DIGITAL DIVER 20XX;
#SUBTITLE:;
#ARTIST:くるぶっこちゃん;
#TITLETRANSLIT:;
#SUBTITLETRANSLIT:;
#ARTISTTRANSLIT:;
#GENRE:;
#CREDIT:;
#MUSIC:DIGITAL DIVER 20XX.ogg;
#BANNER:;
#BACKGROUND:;
#CDTITLE:;
#SAMPLESTART:97.467;
#SAMPLELENGTH:15.221;
#SELECTABLE:YES;
#OFFSET:1.764;
#BPMS:0.000=130.000;
#STOPS:;
#BGCHANGES:4.000=DIGITAL DIVER 20XX.mp4=1.000=0=0=1,
99999.000=-nosongbg-=1.000=0=0=0=StretchNoLoop====
;
#FGCHANGES:;

//--------------- dance-single - Pandemonium X ----------------
#NOTES:
     dance-single:
     Pandemonium X:
     Beginner:
     5:
     0,0,0,0,0:
0000
0000
0000
0000
,
0000
0000
0000
0000
,
0000
0000
0000
0000
,
0000
0000
0000
0000
,
0000
0000
0000
0000
,
0000
0000
0000
0000
,
0001
0000
1000
0000
,
0010
0000
0100
0000
,
0001
0000
0020
0000
,
0030
0000
0000
0100
,
1000
0001
0000
0100
,
0000
0001
0000
0010
,
0100
1000
0100
1000
,
0020
0000
0000
0130
,
1001
0000
0001
0000
,
1000
0000
0010
0000
,
1000
0101
0000
0011
,
0000
1100
0000
1000
,
0010
0000
0100
0000
,
0001
0000
0010
0100
,
0010
0001
0000
1000
,
0000
0100
1000
0010
,
0100
0000
0010
0000
,
1000
0000
0001
1000
,
0100
0000
1000
0000
,
0010
0000
0100
1001
,
0001
0000
1000
0000
,
0100
0000
0010
0002
,
0003
0000
0000
2000
,
3000
0000
0000
0020
,
0130
0100
0100
0100
,
0010
0010
0010
0010
,
1000
1000
1000
1000
,
0001
0001
0001
0200
,
0310
0100
0000
0001
,
0000
1000
0000
0100
,
1000
0010
0100
0001
,
1000
0000
0001
0001
,
0110
0000
0000
0000
,
0000
0000
0000
0000
,
0000
0000
0000
0000
,
0000
0000
0000
0000
,
1000
0000
0001
0000
,
0100
0000
0010
0000
,
1000
0000
0000
0000
0001
0000
0000
1000
,
0000
0000
0000
0001
0000
0000
0000
0100
,
0000
0010
0000
0020
,
0000
0000
0130
0100
,
0001
0000
0001
0000
,
0002
0000
1003
0110
,
0001
1000
0000
0100
,
0000
1000
0000
0010
,
0100
0001
0010
0100
,
2002
0000
0000
0000
3000
0003
0000
0000
,
1000
0000
0001
0000
,
0100
0000
0001
0010
,
0001
0000
1000
2000
,
0000
0000
0000
0000
,
3010
0100
0000
0010
,
0000
1000
0100
1000
,
0100
0000
0010
0001
,
0100
0000
0010
0100
,
1001
0001
0000
1000
,
0000
0100
0000
0010
,
0000
0100
0000
1000
,
0000
0010
0000
0100
,
0000
0001
0000
1000
,
0000
0100
0000
0010
,
0000
0100
0000
1000
,
0002
0000
0000
0003
,
0200
0000
0000
0000
,
0300
0000
0000
0000
0000
0000
0000
0000
0000
0000
0000
0000
0000
0000
0000
1001
;

//--------------- dance-single - Pandemonium X ----------------
#NOTES:
     dance-single:
     Pandemonium X:
     Easy:
     6:
     0,0,0,0,0:
0000
0000
0000
0000
,
0000
0000
0000
0000
,
0000
0000
0000
0000
,
0000
0000
0000
0000
,
0000
0000
0000
0000
,
0000
0000
0000
0000
0000
0000
0000
0001
,
0000
1000
1000
0001
,
1000
1000
0010
0100
,
0001
0001
0020
0230
,
2300
0000
0000
3000
0000
0000
0010
0000
,
0001
0010
1000
0001
,
0100
1000
0100
0001
,
1000
0100
0001
0100
,
1100
0100
1000
0010
,
0110
0001
1000
0001
,
0100
0001
0010
0100
,
1000
0001
0000
0100
,
0000
0010
0000
0100
,
0001
0000
1000
0100
,
1000
0000
0001
0100
,
0001
0000
0010
0000
,
0100
0010
0001
1000
,
0001
0000
1000
0000
,
0010
0000
0100
0000
,
0010
0000
0100
0000
,
0001
0000
1000
1001
,
0001
0000
1000
0000
,
0010
0000
0100
0001
,
0010
0000
0000
0100
,
1000
0000
0000
0010
,
0100
0100
0100
0010
,
1000
1000
1000
0001
,
0010
0010
0010
0100
,
1000
1000
1000
0100
,
0010
0001
0100
0001
,
1000
0100
1000
0010
,
0100
0001
1000
0100
,
0011
0000
1000
1000
,
0001
0000
0000
0000
,
0000
0000
0000
0000
,
0000
0000
0000
0000
,
0000
0000
0000
0000
,
1000
0000
0000
0001
,
0000
0000
0100
0000
,
0010
0000
0000
0000
0100
0000
0000
1001
,
0000
0000
0000
0110
0000
0000
0000
1001
,
0000
0001
1000
0010
,
0200
0000
0010
0310
,
1000
0001
0010
0001
,
0200
0000
0010
0310
,
1001
0001
0010
0001
,
1000
0100
1000
0010
,
0100
0001
1000
0010
,
1001
0000
0110
0000
,
0001
0000
1000
0000
,
0010
0000
1000
0100
,
0010
0100
2000
0000
,
0000
0000
0000
0000
,
3000
0010
0000
0100
,
0000
0001
0001
1000
,
1000
0000
0001
0000
,
0100
0000
0010
0100
,
0001
0000
1000
0000
,
0100
0000
0010
0100
,
1000
0000
0100
0000
,
0010
0000
0001
1000
,
0110
0010
0000
1000
,
0000
0001
0010
0001
,
1000
0000
0100
0000
,
0010
0000
0100
1000
,
0001
0000
0000
1000
0000
0000
0020
0000
,
0000
0000
0000
0230
,
0300
0000
0000
0000
;

//--------------- dance-single - Pandemonium X ----------------
#NOTES:
     dance-single:
     Pandemonium X:
     Medium:
     9:
     0,0,0,0,0:
0000
0000
0000
0000
,
0000
0000
0000
0000
,
0000
0000
0000
0000
,
0000
0000
0000
0000
,
0000
0000
0000
0000
,
0000
0000
0000
0000
0000
0000
0000
1010
,
0000
0001
1000
0100
,
1000
0001
0100
0001
,
0010
0000
0001
0000
1000
0100
0010
0001
,
2000
0000
3000
0001
,
1000
1100
0010
0011
,
0001
0101
1000
1010
,
1000
1001
0001
0010
,
0100
0010
0001
0100
,
0010
1000
0001
0010
,
0001
1000
0100
0010
,
0000
0000
0000
0000
0100
0000
0000
0100
0000
0000
0000
0000
0010
0000
0000
0010
,
0000
0000
0000
0000
0001
0000
0000
0001
0000
0000
0000
0000
1000
0000
0000
0001
,
0000
0100
0000
0000
0010
0000
1000
0000
,
0100
0000
0010
0001
,
1000
0001
0100
0001
,
0010
0000
0000
0000
1000
0000
0000
0000
0010
0000
0000
0000
0001
0000
0000
1000
,
0000
0000
0000
0000
0000
0000
0000
0001
0000
0000
0000
0000
0000
0000
0000
0100
,
0000
0000
0000
0000
0000
0000
0000
0010
0000
0000
0000
0000
1000
0000
0000
0000
,
1100
0000
0000
0000
0000
0000
0000
0100
0000
0000
0000
0000
0000
0000
0000
0010
,
0000
0000
0000
0000
0000
0000
0000
0001
0000
0000
0000
0000
1000
0000
0000
0000
,
0010
0000
0000
0000
0000
0000
0000
0100
0000
0000
0000
0000
0000
0000
0000
0010
,
0000
0000
0000
0000
0000
0000
0000
1000
0000
0000
0000
0000
0001
0000
0000
0001
,
0000
0000
0000
0000
0000
0000
0000
0000
0000
0000
0000
0000
1000
0000
0000
1000
,
0000
0000
0000
0010
,
0100
0010
1000
1001
,
1000
0001
0010
0011
,
0010
0001
1000
1100
,
0100
1000
0010
0110
,
0100
0001
0100
0000
0010
0000
1000
0000
,
0001
0010
0001
1000
,
0100
0000
0000
0000
0010
0000
0000
0000
0100
0000
0000
0000
1000
0000
0000
0002
,
0000
0003
1000
0010
,
0100
0000
0001
0100
0000
0000
0001
1000
,
0000
0000
0001
0010
0000
0000
0001
1000
,
0000
0000
0000
0000
0000
0001
0100
0010
,
0000
0000
0100
0001
0000
1000
0000
0000
,
0100
0000
1000
0010
0000
0100
0010
0100
,
0000
0000
0010
1000
0000
0000
0001
1000
,
0000
0000
0000
0000
0000
0100
0010
0001
,
0000
0000
0010
1000
0000
0000
0010
0001
,
0000
1000
0001
0100
,
0020
0000
1000
1030
,
0100
1000
0001
0010
,
0200
0000
0000
0000
0010
0000
0310
0001
,
1000
0000
0000
0000
0001
0000
0000
0001
0000
0000
0001
0000
1000
0000
0000
1000
,
0000
0000
1000
0000
0010
0000
0000
0010
0000
0000
0010
0000
0100
0000
0000
0100
,
0000
0000
0010
0000
1000
0000
0000
0001
0000
0000
0010
0000
0100
0000
0000
2100
,
0000
0000
0000
0000
0000
0000
0000
0001
0000
3001
0000
0000
0100
0000
0000
0010
,
0000
0000
0000
0000
1000
0000
0000
0100
0000
0000
0010
0000
0100
0000
0000
0010
,
0000
0001
0100
0000
0010
0000
0100
0000
,
0001
0000
0000
0000
1000
0000
0000
0001
0000
0000
0002
0000
0000
0000
0000
0000
,
0000
0000
0000
0000
,
0013
0000
0000
0000
0100
0000
0000
0010
0000
0000
0000
0000
0010
0000
0000
0100
,
0000
0000
0000
0000
1000
0000
0100
0000
0010
0000
0001
0000
0100
0000
0000
0010
,
0000
0000
1000
0000
0000
0000
0000
0001
0000
0000
1000
0000
0001
0000
0000
0010
,
0000
0200
0000
0000
0310
0100
0010
0001
,
1001
0000
0000
0000
0001
0000
0000
1000
0000
0000
0001
0000
0100
0000
0000
0001
,
0000
0000
1000
0000
0100
0000
0000
0010
0000
0100
0000
0010
0000
0010
0000
0001
,
0000
0000
0000
0000
1000
0000
0000
0001
0000
0000
1000
0000
0010
0000
0000
1000
,
0000
0000
0100
0000
0010
0000
0000
0000
0100
0000
0000
1000
0000
0010
0000
0100
,
0000
0000
0000
0000
0010
0000
0000
1010
0000
0000
0000
0000
1000
0000
0000
1001
,
0000
0000
0000
0000
1000
0000
0000
0010
0000
0100
0000
0010
0000
0000
0100
0000
,
0001
0000
0000
0000
1000
0000
0000
0000
0100
0000
0000
0000
0010
0000
0000
0001
,
0000
0010
0100
1000
,
0002
0000
0000
0103
0000
0000
0020
0000
0000
1030
0000
0000
0002
0000
0000
0000
,
0000
0000
0000
0000
0000
0000
0000
0000
0000
0000
0003
0000
1000
0001
0000
0120
,
0000
0000
0000
0000
,
0030
0000
0000
0000
;

//--------------- dance-single - Pandemonium X ----------------
#NOTES:
     dance-single:
     Pandemonium X:
     Hard:
     13:
     0,0,0,0,0:
0000
0000
0000
0000
,
0000
0000
0000
0000
,
0000
0000
0000
0000
,
0000
0000
0000
0000
,
0000
0000
0000
0000
,
0000
0000
0000
0000
0000
0000
0000
0001
,
0000
0000
1000
0000
0100
0000
0000
0000
1000
0000
0000
0010
0000
0100
0000
0010
,
0000
0100
0001
0000
1000
0000
0000
0000
0100
0000
0000
0000
1000
0000
0000
0010
,
0000
0000
0100
0000
0001
0000
0000
0000
0010
0000
0100
0000
1000
0000
0001
1000
,
0000
0010
0100
0001
,
0100
0010
1010
0000
1000
0000
1001
0000
,
0100
0010
0011
0000
0001
0000
1100
0000
,
0100
0000
1000
0000
1010
0000
0000
0000
1000
0000
0000
0000
0001
0000
0000
0010
,
0000
0100
0010
0000
0001
0000
0100
0010
0000
0000
0100
0000
0010
0000
1000
0002
,
0000
0000
0013
0000
0000
0000
0000
0200
0000
0000
1300
0000
0010
0000
0200
0000
,
0000
0000
0302
0000
0000
0003
1000
0020
0000
0000
0130
0000
0001
0000
2000
0000
,
0000
0000
3000
0000
0011
0000
0000
1100
0000
0000
0000
0000
0011
0000
0000
1100
,
0000
0000
0000
0000
0011
0000
0000
1001
0000
0000
0000
0000
0001
0000
0000
1000
,
0000
0000
0010
0000
1000
0000
0000
0001
0000
0000
0010
0000
0100
0000
0010
0000
,
0000
0000
0001
0000
0000
0000
0000
0100
0000
0000
0010
0000
1000
0000
0001
1000
,
0000
0000
0000
0000
0001
0000
0100
0010
0000
0000
0010
0000
0100
0000
0010
0100
,
0000
0000
0001
0000
0010
0000
0100
0000
1000
0000
0000
0000
0001
0000
0000
2100
,
0000
0000
0010
0000
3010
0000
0000
1002
0000
0000
0010
0000
0013
0000
0000
2001
,
0000
0000
0010
0000
3010
0000
0000
1000
0000
0001
0100
0000
0010
0000
0000
0000
,
1000
0000
0100
0000
0010
0000
0001
1000
0000
0000
0001
0000
0010
0000
0100
1000
,
0000
0000
0100
0000
0010
0000
0001
1000
0000
0010
0100
0000
0002
0000
0000
0000
,
0013
0000
0100
0000
2000
0000
0000
3010
0000
0000
0100
0000
0002
0000
0000
0013
,
0000
0000
0100
0000
2000
0000
0000
3010
0000
0100
0010
0000
1000
0000
0000
0001
,
0010
0000
0100
0000
1000
0000
0010
0100
0000
0000
0010
0000
1000
0000
0001
0010
,
0000
0000
0100
0000
0010
0000
0001
0010
0000
0010
0001
0000
1000
0000
0000
0001
,
1000
0001
0000
0001
1000
0000
1000
0010
0000
0010
1000
0000
0010
0000
0100
0000
,
0001
1000
0000
1000
0001
0000
0001
0100
0000
0001
0010
0000
0100
0000
1000
0000
,
0010
0100
0000
0100
0010
0000
0010
1000
0000
1000
0001
0000
0010
0000
0100
0000
,
0010
0100
0000
0100
0010
0000
0010
0001
0000
0001
1000
0000
0001
0000
1000
0000
,
0010
0000
0100
0000
0001
0000
1000
0100
0000
0000
0010
0000
0100
0000
1000
0100
,
0000
1000
0000
0010
0000
0100
0000
0001
0100
0000
0010
0000
1000
0000
0001
0010
,
0000
0000
0000
0000
0100
0000
0000
0000
1000
0000
0000
0000
0011
0000
0000
1100
,
0000
0001
0100
0000
0110
0000
0110
0000
,
0100
0000
0010
1000
0000
0000
0010
0100
,
0000
0000
0010
1000
0000
1000
0001
0010
,
0000
0000
0000
0000
0000
0100
0010
0001
,
0000
0000
0010
0001
0000
1000
0000
0000
,
0002
0000
0103
0020
0000
0130
0001
2000
,
0000
3001
0010
0200
0000
0310
0001
1000
,
0010
0000
0010
0000
0010
0000
0010
1001
,
0000
0000
0100
1001
0000
0000
0010
1001
,
0000
0000
1000
0000
0001
0000
0000
0010
0000
0000
0100
0000
0010
0000
0001
0200
,
0000
0000
0320
2030
,
3001
0000
1000
0000
0010
0000
0000
1000
0000
0000
0100
0000
0010
0000
0100
2000
,
0000
0000
0000
0000
0000
0000
0000
0000
3002
0000
0000
0000
2003
0000
0000
3001
,
0000
0000
0100
0000
0010
0000
0000
1010
0000
0000
1000
0000
0001
0000
0000
0101
,
0000
0000
0001
0000
0010
0000
0000
0010
0000
0010
0100
0000
1000
0000
1000
0001
,
0000
0000
0010
0000
0100
0000
0010
0002
0000
0000
0103
0000
0010
0000
1000
0001
,
0000
1001
0000
0000
1000
0000
0010
1000
0000
0101
0000
0000
2001
0000
3100
2000
,
0000
0000
3000
0000
0100
0000
1000
0020
0000
0000
0130
0000
0010
0000
0000
1000
,
0000
0000
0001
0000
0010
0000
0100
0010
0000
0001
0000
1000
0000
0000
0010
0000
,
0100
0000
0001
0000
1000
0000
0001
0100
0000
0100
0020
0000
0000
0000
0000
0000
,
0000
0000
0000
0000
,
0130
0000
0000
0000
0010
0000
0100
0010
0000
0000
0000
0000
1000
0000
0001
1000
,
0000
0000
0000
0000
0001
0000
0010
0000
0010
0000
0001
0000
0100
0000
0010
1000
,
0000
0000
0100
0000
0000
0000
0000
0010
0000
0000
0100
0000
1000
0000
0010
0100
,
0000
0020
0000
0000
0130
0010
1000
0001
,
1001
0000
0000
0000
1000
0000
0001
0100
0000
0000
0001
0000
1000
0000
0100
0010
,
0000
0000
0100
0000
1000
0000
0010
0100
0000
0100
0000
0010
0000
1000
0000
0001
,
0000
0000
1000
0000
0001
0000
0010
0100
0000
0010
0001
0000
0100
0010
0000
1000
,
0000
1000
0001
0000
0010
0000
0100
0010
0001
0000
1000
0001
0000
0100
0000
0010
,
0000
0000
0000
0000
0100
0000
0010
2000
0000
0000
0000
0000
3001
0000
0010
0200
,
0000
0000
0000
0000
0310
0000
0100
1000
0000
0001
0000
0100
0000
0000
0001
0010
,
0000
0000
0000
0000
0100
0000
1000
0000
0001
0000
0100
0000
0001
0100
0000
1010
,
0000
0000
0100
0000
0001
0000
0010
0100
0000
0100
0010
0000
0001
0000
1000
0000
,
0020
0000
0000
0230
0000
0000
0302
0000
0000
2003
0000
0000
3200
0000
0000
0000
,
0000
0000
0000
0000
0000
0000
0000
0000
0000
0000
0000
0000
0310
0100
0000
2002
,
0000
0000
0000
0000
,
3003
0000
0000
0000
;

//--------------- dance-single - Pandemonium X ----------------
#NOTES:
     dance-single:
     Pandemonium X:
     Challenge:
     15:
     0,0,0,0,0:
0000
0000
0000
0000
,
0000
0000
0000
0000
,
0000
0000
0000
0000
,
0000
0000
0000
0000
,
0000
0000
0000
0000
,
0000
0000
0000
0000
0000
0000
0000
0110
,
0000
1000
0001
0000
0010
0000
0100
0000
0010
0000
0001
0000
0100
0001
0000
0010
,
0000
0100
1000
0000
0100
0000
0010
0000
0100
0000
0000
0100
0000
0100
0000
0010
,
0000
0001
1000
0000
0100
0000
0010
0001
1000
0000
0010
0000
0100
0000
0001
0020
,
0000
0130
1000
0000
0001
0000
0000
0000
1000
0000
0010
0000
0100
0001
0000
0001
,
1000
0000
0100
0000
0110
0000
0010
0001
0100
0001
1000
0100
0010
0001
0000
0001
,
0000
0001
0100
0000
0110
0000
0010
1000
0010
0100
0001
1000
0100
0010
0000
0010
,
0000
0010
0100
0000
1100
0000
1000
0100
0020
0000
0000
0000
0130
0000
0000
1001
,
0000
0001
0100
0000
0010
0000
0100
0002
0000
0000
0013
0000
0100
0010
0001
2000
,
0000
0000
3010
0000
0100
0000
0000
0002
0000
0000
0023
0000
0230
0000
1300
0001
,
0000
1000
0001
0000
1000
0000
0010
1000
0020
0000
0230
0000
0302
0000
2003
0000
,
0000
0000
0000
3000
0011
0000
0000
1100
0000
0000
0000
0000
0011
0000
0000
0101
,
0000
0000
0000
0000
0011
0000
0000
1001
0000
0000
0001
0000
1000
0100
0010
0001
,
0000
0000
1000
0000
0010
0000
0000
0100
0000
0000
0001
0000
0010
0000
0010
0000
,
0000
0000
0001
0000
0000
0000
0000
1000
0000
0000
0001
0000
0100
0000
0100
0020
,
0000
0000
0000
0000
1030
0100
1000
0001
0000
0000
1000
0000
0001
0000
0100
0010
,
0000
0000
1000
0010
0100
0001
0010
0001
2000
0000
0000
0000
3020
0000
0000
0130
,
0000
0000
0000
0000
1001
0000
0000
1100
0000
0000
0001
0000
0011
0000
0000
0101
,
0000
0000
1000
0000
1010
0000
0000
1001
0000
0001
1000
0001
0100
0010
0000
0000
,
1000
0000
0100
0000
0110
0000
0000
1100
0000
0000
1000
0000
1010
0000
0000
0101
,
0000
0000
0001
0000
1001
0000
0000
0011
0000
0010
0100
0000
2000
0000
0000
0000
,
3001
1000
0010
1000
0001
0100
0001
1000
0000
0000
1000
0100
1000
0001
0100
0001
,
0000
0000
1000
0010
0100
0010
1000
0100
0000
0100
0010
0000
0002
0000
0000
0203
,
0000
0000
0310
1000
0001
0010
0001
1000
0000
0000
0100
0010
0001
0100
0001
0010
,
0000
0000
0100
1000
0010
0100
0010
1000
0000
1000
0001
0000
0020
0000
0000
0230
,
1300
0100
0000
0010
0001
0000
1000
0100
0000
0010
0001
0000
1001
0000
0011
0000
,
0001
0100
0000
0010
1000
0000
0001
0100
0000
0010
1000
0000
0101
0000
1001
0000
,
0001
0010
0000
0010
0100
0000
0100
1000
0000
1000
0010
0000
1010
0000
1001
0000
,
0001
1000
0000
1000
0010
0000
0010
0100
0000
0100
0001
0000
0020
0000
0000
0000
,
0130
0000
1000
0000
0010
0000
0100
0010
0000
0000
0010
0000
1000
0000
0001
1000
,
0000
1000
0000
0100
0000
0010
0000
0010
0100
0000
1000
0000
0010
0000
0100
0001
,
0000
0000
0000
0000
1100
0000
0000
0000
0100
0010
0001
0100
0010
1000
0001
2000
,
0000
0000
0000
0000
0000
0000
0000
3000
1001
0000
0000
0000
0110
0000
0000
0000
,
2001
3000
0000
0000
0000
0000
0000
0000
0000
0000
0000
0000
0000
0000
0000
0000
0000
0000
0000
0000
0000
0000
0000
0000
0002
0003
0000
0000
0000
0000
0000
0000
0000
0000
0000
0000
0200
0300
0000
0000
0000
0000
0000
0000
0000
0000
0000
0000
0000
0000
0000
0000
0000
0000
0000
0000
0000
0000
0000
0000
0000
0000
0000
0000
0000
0000
0000
0000
0000
0000
0000
0000
0002
0003
0000
0000
0000
0000
0000
0000
0000
0000
0000
0000
2000
3000
0000
0000
0000
0000
0000
0000
0000
0000
0000
0000
,
0000
0000
0000
0000
0000
0000
0000
0000
0000
0000
0000
0000
0000
0000
0000
0000
0000
0000
0000
0000
0000
0000
0000
0000
0200
0300
0000
0000
0000
0000
0000
0000
0000
0000
0000
0000
2000
3000
0000
0000
0000
0000
0000
0000
0000
0000
0000
0000
0000
0000
0000
0000
0000
0000
0000
0000
0000
0000
0000
0000
0200
0300
0000
0000
0000
0000
0000
0000
0000
0000
0000
0000
2000
3000
0000
0000
0000
0000
0000
0000
0000
0000
0000
0000
0020
0030
0000
0000
0000
0000
0000
0000
0000
0000
0000
0000
,
0000
0000
0000
0000
0000
0000
0000
0000
0000
0000
0000
0000
0000
0000
0000
0000
0000
0000
0000
0000
0000
0000
0000
0000
0000
0000
0000
0000
0000
0000
0000
0000
0000
0000
0000
0000
0000
0000
0000
0000
0000
0000
0000
0000
0000
0000
0000
0000
0000
0000
0000
0000
0000
0000
0000
0000
0000
0000
0000
0000
0200
0300
0000
0000
0000
0000
0000
0000
0000
0000
0000
0000
0020
0030
0000
0000
0000
0000
0000
0000
0000
0000
0000
0000
2000
3000
0000
0000
0000
0000
0000
0000
0000
0000
0000
0000
,
0000
0000
0000
0000
0000
0000
0000
0000
0000
0000
0000
0000
0000
0000
0000
0000
0000
0000
0000
0000
0000
0000
0000
0000
0002
0003
0000
0000
0000
0000
0000
0000
0000
0000
0000
0000
2000
3000
0000
0000
0000
0000
0000
0000
0000
0000
0000
0000
0000
0000
0000
0000
0000
0000
0000
0000
0000
0000
0000
0000
0002
0003
0000
0000
0000
0000
0000
0000
0000
0000
0000
0000
0000
0000
0000
0000
0000
0000
0000
0000
0000
0000
0000
0000
0000
0000
0000
0000
0000
0000
0000
0000
0000
0000
0000
0000
,
1002
0000
1003
0200
0000
1300
0010
0200
,
0000
0310
1000
0002
0000
0013
0100
1000
,
0001
0000
1000
0000
0010
0100
0001
1001
,
0000
0000
1000
1001
0000
0000
0001
1001
,
0000
1000
0100
0000
1000
0000
0001
0200
0000
0000
0310
0000
1000
0000
0001
0020
,
0000
0130
2000
3002
,
1003
0000
0010
0000
0100
0000
0001
0020
0000
0000
0130
0000
1000
0000
0010
0200
,
0000
0000
0000
0000
0310
0000
0000
0000
1002
0000
0000
0000
0013
0100
1000
0001
,
0000
0000
1000
0000
1020
0000
0130
0001
0000
0000
0001
0000
0021
0000
0130
1000
,
0000
0000
1000
0000
1002
0000
0000
0000
0203
0000
0000
0000
0310
1000
0001
0010
,
0100
0000
1000
0000
0100
1000
0001
0200
0000
0000
0010
0000
0301
1000
0001
0010
,
0000
0001
0100
0000
0100
0010
0000
1010
0000
0101
0000
0000
1001
0000
1000
0200
,
0000
0300
0000
0000
0010
0000
0001
0200
0000
0000
0310
0000
1000
0010
0100
0002
,
0000
0000
0013
0000
0100
0010
0001
1000
0000
0001
0000
0200
0000
0000
0310
0000
,
1000
0000
0001
0000
0010
0000
0100
1000
0000
0002
0000
0000
1000
0000
0000
0000
,
1000
1000
0100
0103
,
1001
0000
0000
0000
1000
0100
0010
0001
0000
0000
0010
0000
0001
0010
0002
0000
,
0000
0000
0003
0000
1000
0010
0100
0001
0010
0100
0010
0001
1000
0010
1000
0001
,
0020
0000
0130
0000
2000
0000
0000
0000
3010
0000
0100
0000
0010
1000
0001
2000
,
0000
0000
3200
0000
0000
0000
0000
0000
0310
0001
0100
0010
1000
0001
0010
0100
,
2000
0000
0000
0000
3001
0100
0001
0010
0000
0000
0100
0000
1000
0000
0001
0100
,
0000
0000
0010
0000
1000
0000
0001
1000
0000
0100
0000
0010
0000
0100
0000
1001
,
0000
0000
1000
0000
0010
0000
1000
0001
0000
0010
0100
0000
0100
1000
0000
0011
,
0000
1000
0001
0000
0100
0000
0001
0100
0010
0000
1000
0001
0000
0011
0000
1001
,
0000
0000
0000
0000
0001
0000
0100
1000
0000
0000
0000
0000
0100
0010
1000
0001
,
0000
0000
0000
0000
1000
0000
0100
0001
0000
0100
0000
1000
0000
0000
0001
1000
,
0010
0000
0000
0000
1000
0100
1000
0001
0100
0010
1000
0001
0010
0100
1000
0001
,
0000
1000
0100
0000
0010
0000
0001
0200
0000
0010
0000
0001
0000
0310
0100
0000
,
1002
0000
0000
2003
0000
0000
3020
0000
0000
2030
0000
0000
0002
0000
0000
0000
,
0000
0000
0000
0000
0000
0000
0000
0000
0000
0000
0000
3003
1000
0010
0000
0202
,
0000
0000
0000
0000
,
0303
0000
0000
0000
;

//--------------- dance-double - Pandemonium X ----------------
#NOTES:
     dance-double:
     Pandemonium X:
     Easy:
     7:
     0,0,0,0,0:
00000000
00000000
00000000
00000000
,
00000000
00000000
00000000
00000000
,
00000000
00000000
00000000
00000000
,
00000000
00000000
00000000
00000000
,
00000000
00000000
00000000
00000000
,
00000000
00000000
00000000
00000000
00000000
00000000
00000000
00001000
,
00000000
00010000
00000100
00001000
,
00000010
00000100
00000001
00000010
,
00000100
00001000
00000100
00010000
,
00002000
00000000
00000000
00003000
00000000
00000000
00000000
00000000
,
00010000
00011000
00001000
01000000
,
00100000
10100000
10000000
01000000
,
00100000
00110000
00100000
00001000
,
00010000
00000100
00002000
00000010
,
00003001
00000000
00001000
00000000
,
00000100
00000000
00010000
00001000
,
00000000
01010000
00000000
10100000
,
00000000
10010000
00000000
10000000
,
01000000
00000000
10000000
00010000
,
00100000
00000000
00001000
00010000
,
00000100
00001000
00000010
00000100
,
00000001
00000000
00000000
00000000
00000010
00000000
00000000
00000000
00000100
00000000
00000000
00000000
00010000
00000000
00000000
00011000
,
00000000
00000000
00000000
00000000
00000000
00000000
00000000
00001000
00000000
00000000
00000000
00000000
00000000
00000000
00000000
01000000
,
00000000
00000000
00000000
00000000
00000000
00000000
00000000
00010000
00000000
00000000
00000000
00000000
00100000
00000000
00000000
00000000
,
01000000
00000000
00000000
00000000
00000000
00000000
00000000
10000000
00000000
00000000
00000000
00000000
00000000
00000000
00000000
01000000
,
00000000
00000000
00000000
00000000
00000000
00000000
00000000
00100000
00000000
00000000
00000000
00000000
00002000
00000000
00000000
00000000
,
00013000
00000000
00000000
00000000
00000100
00000000
00000000
00001000
00000000
00000000
00000000
00000000
00000010
00000000
00000000
00000010
,
00000000
00000000
00000000
00000000
00000100
00000000
00000000
00000001
00000000
00000000
00000000
00000000
00001000
00000000
00000000
00000200
,
00000000
00000000
00000000
00000000
00000000
00000000
00000000
00000000
00000300
00000000
00000000
00000000
00010000
00000000
00000000
00002000
,
00000000
00000000
00003000
00010000
,
00001000
01000000
00100000
10000000
,
00010000
00100000
00001000
00010000
,
00000010
00000100
00000001
00001000
,
00000100
00010000
00001000
01000000
,
00100000
10000000
10000000
00010000
,
00100000
00100000
00001000
00010000
,
00000100
00001000
00000010
00000100
,
00000001
00000000
00001001
00001001
,
00000001
00000100
00000000
00001000
,
00000000
00010000
00000000
00100000
,
00000000
00000000
00000000
10000000
,
00000000
00000000
00000000
01000000
00000000
01000000
00000000
00000000
,
10000000
01000000
00000000
10000000
,
00100000
01000000
00000000
00010000
,
00100000
00000000
00100000
00000000
00001000
00000000
00001000
00010000
,
00000000
00000000
00000100
00001000
00000000
00000000
00000010
00000100
,
00000000
00000001
00001000
00000100
,
00020000
00000000
00031000
00010000
,
00001000
01000000
00010000
00100000
,
02000000
00000000
13000000
01000000
,
00100000
00101000
00001000
00011000
,
00010000
00010100
00000100
00001100
,
00000011
00000000
00000000
00000000
00000101
00000000
00000000
00000000
00000100
00000000
00000000
00000000
00000110
00000000
00000000
00002002
,
00000000
00000000
00000000
00000000
00000000
00000000
00000000
00003000
00000000
00000003
00000000
00000000
00000000
00000000
00000000
00000000
,
00000100
00000000
00000010
00000000
,
00010000
00001000
00100000
00001000
,
00010000
00000010
00000100
00000200
,
00000000
00000000
00000000
00000000
,
00000310
00001000
00000000
00000100
,
00000000
00010000
00001000
01000000
,
00100000
00000000
10000000
00010000
,
00100000
00000000
01000000
00100000
,
00010000
00100000
00000000
00001000
,
00000000
00010000
00000000
00000010
,
00000100
00000001
00000000
00001000
,
00000000
00000100
00000000
00010000
,
00011000
00002000
00003000
02000000
,
03000000
00100000
10000000
00010000
,
00100000
00000000
00000000
00000000
00000000
00000000
00000000
00000000
01000000
00000000
00000000
00000000
00001000
00000000
00000000
00010000
,
00000000
00000000
00000000
00000000
,
00001000
00000000
00000000
00010000
00000000
00000000
00001000
00000000
00000000
00010000
00000000
00000000
00001000
00000000
00000000
00000000
,
00000000
00000000
00000000
00000000
00000000
00000000
00000000
00000000
00000000
00000000
00000000
00000000
00000000
00000000
00000000
00022000
,
00000000
00000000
00000000
00000000
,
00033000
00000000
00000000
00000000
;

//--------------- dance-double - Pandemonium X ----------------
#NOTES:
     dance-double:
     Pandemonium X:
     Medium:
     11:
     0,0,0,0,0:
00000000
00000000
00000000
00000000
,
00000000
00000000
00000000
00000000
,
00000000
00000000
00000000
00000000
,
00000000
00000000
00000000
00000000
,
00001000
00000000
00001000
00000000
00001000
00010000
00000100
00002000
,
00000000
00000000
00003010
00000200
00000000
00000000
00000310
00020000
,
00000000
00031000
00100000
00000000
01000000
00000000
00100000
00000000
,
00001000
00000000
00000000
00000000
00010000
00000000
00000000
00000000
00000100
00000000
00000000
00000000
00001000
00000000
00000000
00000020
,
00000000
00000000
00000130
00000000
00000000
00000000
00000000
00000000
00000010
00000000
00000100
00000000
00000001
00000000
00000000
00002000
,
00000000
00000000
00000000
00003000
00000100
00000000
00010000
00000000
,
00001000
01000000
00100000
00000000
01000000
00000000
00010000
00000000
,
10000000
01000000
00100000
00000000
01000000
00000000
10000000
00000000
,
00010000
00000000
00100000
00000000
00001000
00000000
00000000
00000000
00010000
00000000
00000000
00000000
00000100
00000000
00000000
00001000
,
00000000
00000000
00000010
00000000
00000100
00000000
00000000
00000001
00000000
00000000
00000000
00000000
00000010
00000000
00000000
00000100
,
00000000
00000000
00001000
00000000
00000000
00000000
00000000
00001000
00000000
00000000
00000100
00000000
00010000
00000000
00001000
00000000
,
00000000
00010000
00000000
00001000
00000000
01000000
00010000
00100000
,
01000000
00000000
00000000
00000000
10010000
00000000
00000000
10010000
00000000
00000000
00000000
00000000
01100000
00000000
00000000
01100000
,
00000000
00000000
00000000
00000000
10010000
00000000
00000000
10010000
00000000
00000000
00000000
00000000
10000000
00000000
00000000
01000000
,
00000000
00000000
00100000
00000000
00000000
00000000
00000000
01000000
00000000
00000000
10000000
00000000
00010000
00000000
01000000
00000000
,
00000000
00000000
00010000
00000000
00000000
00000000
00000000
00100000
00000000
00000000
00001000
00000000
00010000
00000000
00000000
00001000
,
00000000
00000000
00000000
00000000
00010000
00000000
00000000
00000100
00000000
00000000
00001000
00000000
00000010
00000000
00000000
00000100
,
00000000
00000000
00000001
00000000
00000010
00000000
00000100
00000000
00001000
00000000
00000000
00000000
00000100
00000000
00000000
00011000
,
00000000
00000000
00000000
00000000
00001000
00000000
00000000
00001000
00000000
00000000
00000000
00000000
00010000
00000000
00000000
00010000
,
00000000
00000000
00000000
00000000
00001000
00000000
00000000
00001000
00000000
00000000
00000000
00000000
01000000
00000000
00000000
00000000
,
00100000
00000000
00000000
00000000
10000000
00000000
00000000
10000000
00000000
00000000
00000000
00000000
00010000
00000000
00000000
00010000
,
00000000
00000000
00000000
00000000
10000000
00000000
00000000
10000000
00000000
00000000
00000000
00000000
02100000
00000000
00000000
00000000
,
03010000
00000000
00000000
00000000
00100000
00000000
00000000
00001000
00000000
00000000
00000000
00000000
00010000
00000000
00000000
00000010
,
00000000
00000000
00000000
00000000
00001000
00000000
00000000
00000010
00000000
00000000
00000000
00000000
00000100
00000000
00000000
00000002
,
00000000
00000000
00000000
00000000
00000000
00000000
00000000
00000000
00000003
00000000
00000000
00000000
00000010
00000000
00000000
00000200
,
00000000
00000000
00000000
00000000
00000000
00000000
00000000
00000000
00000300
00000000
00000000
00000000
00010000
00000000
00000000
00001000
,
00010000
00010000
00010000
00010000
,
00000100
00000100
00000100
00000100
,
00001000
00001000
00001000
00001000
,
00000010
00000010
00000010
00000100
,
00000001
00001000
00000100
00000000
00010000
00000000
00011000
00000000
,
00001000
01000000
00100000
00000000
10000000
00000000
11000000
00000000
,
10000000
00000000
10010000
00000000
10000000
01000000
00100000
00010000
,
00001000
00000000
00011000
00011000
,
00010000
00000000
00000000
00000100
00000000
00000000
00000000
00001000
,
00000000
00000000
00000000
00000010
00000000
00000000
00000000
00000100
,
00000000
00000000
00000000
00000000
00000000
00000010
00000100
00000001
,
00000000
00000000
00000001
00001000
00000000
00001000
00000000
00000000
,
00000100
00000000
00010000
00000000
00001000
01000000
00100000
00000000
,
01000000
00000000
00010000
00000000
10000000
01000000
00100000
00000000
,
01000000
00000000
01000000
00000000
01000000
00100000
00001000
00010000
,
00000000
00000000
00000100
00001000
00000000
00000000
00000001
00000010
,
00000000
00000100
00010000
00001000
,
02000000
00000000
00000000
00000000
03100000
00000000
10000000
00010000
,
00100000
00010000
00100000
00001000
,
00020000
00000000
00031000
00010000
,
00000100
00000000
00000000
00000000
00001000
00000000
00000000
00001000
00000000
00000000
00000000
00000000
00000010
00000000
00000000
00000010
,
00000000
00000000
00000000
00000000
00000100
00000000
00000000
00000100
00000000
00000000
00000000
00000000
00000001
00000000
00000000
00000000
,
00001000
00000000
00000000
00000000
00000100
00000000
00000000
00010000
00000000
00000000
00001000
00000000
01000000
00000000
00000000
00100000
,
00000000
10000000
00000000
00000000
00010000
00000000
00000000
00100000
00000000
00100000
00000000
00000000
01000000
00000000
00000000
10000000
,
00000000
00000000
00000000
00000000
01000000
00000000
00000000
00100000
00000000
00000000
00001000
00000000
00010000
00000000
00000000
00000000
,
00000100
00001000
00000010
00000100
,
00000001
00000000
00000000
00000000
00000010
00000000
00000000
00000100
00000000
00000000
00000200
00000000
00000000
00000000
00000000
00000000
,
00000000
00000000
00000000
00000000
,
00000310
00000000
00000000
00000000
00000100
00000000
00000000
00000100
00000000
00000000
00000000
00000000
00010000
00000000
00002000
00000000
,
00000000
00000000
00003000
00000000
00010000
00000000
00001000
00000000
01000000
00000000
00000000
00000000
00100000
00000000
00000000
10000000
,
00000000
00000000
00010000
00000000
00000000
00000000
00000000
00100000
00000000
00000000
00000000
00000000
01000000
00000000
00000000
10000000
,
00000000
00200000
00000000
00000000
01300000
10000000
01000000
00010000
,
10000000
00000000
00000000
00000000
01000000
00000000
00000000
00100000
00000000
00000000
01000000
00000000
10000000
00000000
00000000
00010000
,
00000000
00000000
00100000
00000000
00001000
00000000
00000000
00010000
00000000
00000100
00000000
00001000
00000000
00000010
00000000
00000100
,
00000000
00000000
00000000
00000000
00000010
00000000
00000000
00000100
00000000
00000000
00000100
00000000
00000001
00000000
00000000
00001000
,
00000000
00000000
00000000
00000000
00000100
00000000
00000000
00000000
00010000
00000000
00000000
00001000
00000000
01000000
00000000
00100000
,
00000000
00000000
00000000
00000000
01000000
00000000
00000000
10010000
00000000
00000000
00000000
00000000
00100000
00000000
00000000
10010000
,
00000000
00000000
00000000
00000000
10000000
00000000
00000000
01000000
00000000
00100000
00000000
00010000
00000000
00000000
00100000
00001000
,
00000000
00000000
00010000
00000000
00000100
00001000
00000010
00000100
,
00000001
00000000
00000000
00000000
00000010
00000000
00000000
00000000
00000100
00010000
00000000
00010000
00000000
00010000
00001000
00000000
,
00001000
00000000
00000000
01000000
00000000
00000000
00100000
00000000
00000000
10000000
00000000
00000000
01000000
00000000
00000000
00000000
,
00000000
00000000
00000000
00000000
00000000
00000000
00000000
00000000
00000000
00000000
00000000
00000000
00100000
00001000
00000000
00022000
,
00000000
00000000
00000000
00000000
,
00033000
00000000
00000000
00000000
;

//--------------- dance-double - Pandemonium X ----------------
#NOTES:
     dance-double:
     Pandemonium X:
     Hard:
     13:
     0,0,0,0,0:
00000000
00000000
00000000
00000000
,
00000000
00000000
00000000
00000000
,
00000000
00000000
00000000
00000000
,
00000000
00000000
00000000
00000000
,
00001000
00000000
00001000
00000000
00001000
00100000
00010000
20000000
,
00000000
00000000
30100000
20000000
00000000
00000000
30010000
02000000
,
00000000
03001000
00010000
00000000
00000100
00000000
00001000
00000000
00000010
00000000
00000000
00000100
00000000
00000100
00000000
00000100
,
00000000
00000100
00000001
00000000
00000010
00000000
00000000
00000000
00000100
00000000
00000000
00010000
00000000
00010000
00000000
00010000
,
00000000
00010000
00001000
00000000
00100000
00000000
00010000
00000000
10000000
00000000
00100000
00000000
01000000
00000000
00010000
00200000
,
00000000
00300000
01000000
11000000
,
00100000
00001000
00011000
00000000
00000100
00001000
00001010
00000000
,
00000010
00000000
00000100
00000000
00000101
00000000
00000000
00000000
00000001
00000000
00000010
00000000
00000100
00001000
00000000
00001000
,
00000000
00000100
00010000
00000000
00001000
00000000
00000000
00000000
02000000
00000000
00000000
00000000
03200000
00000000
00000000
10300000
,
00000000
00010000
00100000
00000000
10000000
00000000
00100000
00010000
00000000
00000000
01000000
00000000
00001000
00000000
00010000
00000200
,
00000000
00000000
00001300
00000000
00000000
00000000
00000000
00000020
00000000
00000000
00000130
00000000
00000001
00000000
00002000
00000000
,
00000000
00000000
00003100
00000000
00000000
00000000
00000010
00000001
00000000
00000000
00001000
00000000
00000100
00000000
00010000
00000000
,
00000000
00000000
00000000
00000000
00011000
00000000
00000000
01001000
00000000
00000000
00000000
00000000
00011000
00000000
00000000
01001000
,
00000000
00000000
00000000
00000000
00011000
00000000
00000000
00010100
00000000
00000000
00000000
00000000
00001000
00000000
00010000
00000200
,
00000000
00000000
00001300
00000000
00000000
00000000
00000000
00000010
00000000
00000000
00000100
00000000
00000100
00000000
00000002
00000000
,
00000000
00000000
00001003
00000000
00000000
00000000
00000000
00000100
00000000
00000000
00010000
00000000
00001000
00000000
01000000
00100000
,
00000000
00000000
00000000
00000000
01000000
00000000
00010000
00100000
00000000
00000000
01000000
00000000
10000000
00000000
00100000
01000000
,
00000000
00000000
00010000
00000000
10000000
00000000
01000000
00000000
00010000
00000000
00000000
00000000
01000000
00000000
00000000
11000000
,
00000000
00000000
10000000
00000000
00010000
00000000
00000000
00010000
00000000
00000000
00100000
00000000
00001000
00000000
00000000
00001000
,
00000000
00000000
00010000
00000000
00000010
00000000
00000000
00000010
00000000
00000100
00000001
00000000
00000010
00000100
00000000
00000000
,
00000010
00000000
00000001
00000000
00001000
00000000
00000000
00001000
00000000
00000000
00000100
00000000
00010000
00000000
00000000
00010000
,
00000000
00000000
00001000
00000000
01000000
00000000
00000000
01000000
00000000
00100000
01000000
00000000
20010000
00000000
00000000
00000000
,
30100000
00000000
01000000
00000000
00010000
00000000
00000000
00100000
00000000
00000000
00001000
00000000
00010000
00000000
00000000
00000010
,
00000000
00000000
00001000
00000000
00000010
00000000
00000000
00000100
00000000
00000000
00000001
00000000
00002000
00000000
00000000
00003200
,
00000000
00000000
00000000
00000000
00010300
00000000
00000000
00001000
00000000
00000000
01000000
00000000
00200000
00000000
00000000
20300000
,
00000000
00000000
30010000
00000000
00100000
00000000
00000000
01000000
00000000
01000000
00100000
00000000
00020000
00000000
00000000
00000000
,
10030000
01000000
00000000
10000000
01000000
00000000
10000000
01000000
00000000
10000000
01000000
00000000
00100000
00000000
00010000
00000000
,
01000000
00010000
00000000
01000000
00010000
00000000
01000000
00010000
00000000
01000000
00010000
00000000
00100000
00000000
00001000
00000000
,
00010000
00000100
00000000
00010000
00000100
00000000
00010000
00000100
00000000
00010000
00000100
00000000
00001000
00000000
00000010
00000000
,
00000100
00000001
00000000
00000100
00000001
00000000
00000100
00000001
00000000
00000100
00000001
00000000
00002000
00000000
00000000
00000000
,
00003100
00000000
00010000
00000000
00001000
00000000
01000000
00100000
00000000
00000000
01000000
00000000
00010000
00000000
10000000
01000000
,
00000000
00010000
00000000
01000000
00000000
10000000
00000000
00100000
01000000
00000000
00100000
00000000
10000000
00000000
00010000
00100000
,
00000000
00000000
00000000
00000000
00001000
00000000
00000000
00000000
00010000
00000000
00000100
00000000
00001000
00000000
00000000
00002010
,
00000000
00000000
00000000
00003000
00000110
00000000
00001001
00000000
,
00001010
00000000
00000010
00010000
00000000
00000000
00001000
00100000
,
00000000
00000000
00010000
01000000
00000000
00000000
00100000
10000000
,
00000000
00000000
00000000
00000000
00000000
01000000
00100000
00010000
,
00000000
00000000
00010000
00001000
00000000
00011000
00000000
00000000
,
00020000
00000000
00030100
00002000
00000000
00003010
00000100
00000002
,
00000000
00000013
00000100
00002000
00000000
00003100
00010000
00001000
,
00010000
00000000
00010000
00000000
00010000
00001000
01000000
01100000
,
00000000
00000000
01000000
01010000
00000000
00000000
00100000
10010000
,
00000000
00000000
10000000
00000000
01000000
00000000
00000000
01000000
00000000
00000000
00100000
00000000
00001000
00000000
00000000
00020000
,
00000000
00000000
00000000
00000000
00000000
00000000
00000000
00000000
00030100
00000000
00000000
00000000
00001000
00000000
00000000
00000010
,
00000000
00000000
00000100
00000000
00000001
00000000
00000000
00000010
00000000
00000000
00000010
00000000
00000001
00000000
00000000
00002000
,
00000000
00000000
00000000
00000000
00000000
00000000
00000000
00000000
00003100
00000000
00000000
00000000
00010000
00001000
00010000
00001000
,
00000000
00000000
00010000
00000000
00001000
00000000
00000000
01001000
00000000
00000000
01000000
00000000
00100000
00000000
00000000
10100000
,
00000000
00000000
10000000
00000000
01000000
00000000
00000000
01100000
00000000
00100000
00010000
00000000
00100000
00000000
00001000
00000000
,
00010000
00000000
00000100
00000000
00001000
00000000
00000010
00000100
00000000
00000000
00000010
00000000
00000100
00000000
00000001
00001000
,
00000000
00000001
00000000
00000001
00001000
00000000
00000010
00000100
00000000
00000100
00000000
00000000
00000010
00000000
00010000
00002000
,
00000000
00000000
00003000
00000000
00010000
00000000
00001000
02000000
00000000
00000000
03100000
00000000
01000000
00010000
01000000
00010000
,
00000000
00000000
10000000
00000000
01000000
00000000
10000000
00100000
00000000
10000000
00000000
00010000
00000000
00000000
00100000
00000000
,
01000000
00000000
00100000
00000000
00001000
00000000
00010000
00000100
00000000
00001000
00000020
00000000
00000000
00000000
00000000
00000000
,
00000000
00000000
00000000
00000030
,
00001001
00000000
00000000
00000000
00000001
00000000
00000000
00001010
00000000
00000000
00000000
00000000
00001000
00000000
00001100
00000000
,
00000000
00000000
00000000
00000000
00000100
00000000
00010000
00000000
00010000
00000000
00001000
00000000
01000000
00000000
00100000
01000000
,
00000000
00000000
00010000
00000000
00000000
00000000
00000000
10000000
00000000
00000000
01000000
00000000
10000000
01000000
00000000
00100000
,
00000000
00010000
00000000
00000000
00100000
00001000
00010000
00000010
,
00000100
00000000
00000000
00000000
00000010
00000000
00000000
00000010
00000000
00000000
00000100
00000000
00000001
00000000
00000000
00000001
,
00000000
00000000
00001000
00000000
00000100
00000000
00000000
00010000
00000000
00000100
00000000
00010000
00000000
00001000
00000000
00010000
,
00000000
00000000
00000000
00000000
00001000
00000000
00000000
01000000
00000000
00000000
01000000
00000000
00100000
10000000
00000000
00010000
,
00000000
00100000
01000000
00000000
00100000
00000000
00010000
00000000
00001000
00000000
00010000
00001000
00000000
00001000
00000000
00011000
,
00000000
00000000
00000000
00000000
00010000
00000000
00000100
00001000
00000000
00000000
00000000
00000000
00000100
00000000
00010000
00001000
,
00000000
00000000
00000000
00000000
00010000
00000000
00001000
01000000
00000000
00100000
00000000
10000000
00000000
00000000
01000000
00100000
,
00000000
00000000
00000000
00000000
01000000
00000000
00000000
00000000
10000000
00000000
00010000
00000000
01000000
00010000
00000000
00010000
,
00000000
00100000
00001000
00000000
00010000
00000000
00000010
00000200
00000000
00000000
00000000
00000000
00000000
00000000
00000000
00000000
,
00000310
00000000
00000000
00000100
00000000
00000000
00001000
00000000
00000000
00010000
00000000
00000000
00002000
00000000
00000000
00000000
,
00000000
00000000
00000000
00000000
00000000
00000000
00000000
00000000
00000000
00000000
00000000
00000000
00013000
00001000
00000000
00022000
,
00000000
00000000
00000000
00000000
,
00033000
00000000
00000000
00000000
;

//--------------- dance-double - Pandemonium X ----------------
#NOTES:
     dance-double:
     Pandemonium X:
     Challenge:
     15:
     0,0,0,0,0:
00000000
00000000
00000000
00000000
,
00000000
00000000
00000000
00000000
,
00000000
00000000
00000000
00000000
,
00000000
00000000
00000000
00000000
,
00000000
00000000
00000000
00000000
,
00000000
00000000
00000000
00000000
00000000
00000000
00000000
00210000
,
00000000
01300000
00100000
00000000
00010000
00000000
10000000
00000000
00100000
01000000
00000000
10000000
00000000
01000000
00000000
00010000
,
00000000
00100000
00001000
00000000
00010000
00000000
00000100
00000000
00001000
00000010
00000000
00000001
00000000
00000010
00000000
00000100
,
00000000
00000001
00000010
00000000
00000100
00000000
00010000
00000100
00002000
00000000
00003200
00000000
00020300
00000000
00031000
02000000
,
00000000
00000000
03020000
00130000
,
01000000
00000000
10000000
00000000
10100000
00000000
00100000
01000000
00001000
00010000
00000010
00000100
00000001
00000010
00000000
00000010
,
00000000
00000010
00000100
00000000
00001000
00000000
00000000
00000000
00000100
00000000
00000000
00010000
00000000
00010000
00000000
00010000
,
00000000
00001000
01000000
00000000
00100000
00000000
01000000
10000000
02000000
00000000
00000000
00000000
03010000
00000000
00000000
00110000
,
00000000
00100000
00001000
00000000
00010000
00000000
00000010
00000200
00000000
00000000
00000310
00000000
00000100
00001000
00000100
00000002
,
00000000
00000000
00000013
00000000
00000000
00000000
00000000
00000200
00000000
00000000
00010300
00000000
00001000
00000000
01000000
00100000
,
00000000
00100000
10000000
00000000
00010000
00000000
00100000
02000000
00000000
00000000
13000000
00000000
01000000
00000000
00200000
00000000
,
00000000
00000000
00000000
00000000
00010000
00000000
00000000
00010000
00000000
00000000
00000000
00000000
00001000
00000000
00000000
00001000
,
00000000
00000000
00000000
00000000
00010000
00000000
00000000
00010000
00000000
00000000
00000000
00000000
00301000
00010000
00000100
00020000
,
00000000
00000000
00031000
00000000
00000000
00000000
00000000
00200000
00000000
00000000
00310000
00000000
10000000
00000000
02000000
00000000
,
00000000
00000000
13000000
00000000
00000000
00000000
00000000
00200000
00000000
00000000
01300000
00000000
00010000
00000000
00100000
00002000
,
00000000
00000000
00000000
00000000
00013000
00000100
00001000
00000010
00000000
00000000
00000100
00000000
00000001
00000000
00000010
00000100
,
00000000
00000000
00001000
00000100
00010000
00001000
01000000
00001000
00020000
00000000
00000000
00000000
00032000
00000000
00000000
01003000
,
00000000
00000000
00000000
00000000
00100000
00000000
00000000
10010000
00000000
10000000
00010000
00000000
00100000
00000000
00000000
00110000
,
00000000
00100000
00010000
00000000
00100000
00000000
00000000
00011000
00000000
00010000
00001000
00000000
00010000
00000100
00000000
00000100
,
00001000
00000000
00000000
00000000
00000101
00000000
00000001
00000100
00000000
00000000
00000010
00000000
00001010
00000000
00001000
00000010
,
00000000
00000000
00001000
00000000
00001100
00000000
00000100
00001000
00000000
00001000
00000100
00000000
00020000
00000000
00000000
00000000
,
00031000
00000000
01000000
00100000
10000000
00010000
00100000
01000000
00000000
00000000
00100000
00001000
00010000
00000010
00000100
00000010
,
00000000
00000000
00010000
00000100
00001000
00000100
00010000
00001000
00000000
00001000
00010000
00000000
00002000
00000000
00000000
01003000
,
00100000
00000000
10000000
00100000
01000000
00010000
00100000
01000000
00000000
01000000
00100000
00001000
00010000
00000100
00001000
00000010
,
00000000
00000100
00000010
00001000
00000100
00010000
00001000
00010000
00000000
00001000
00010000
00000000
00002000
00000000
00000000
01003000
,
00100000
10000000
00000000
00010000
01000000
00000000
00100000
10000000
00000000
00010000
01000000
00000000
00100000
00000000
00100000
00000000
,
01000000
00010000
00000000
00010000
00100000
00000000
00100000
00001000
00000000
00001000
00010000
00000000
00000100
00000000
00000100
00000000
,
00001000
00000100
00000000
00000010
00000001
00000000
00001000
00000100
00000000
00000010
00000001
00000000
00001000
00000000
00001000
00000000
,
00000100
00001000
00000000
00001000
00000100
00000000
00000100
00010000
00002000
00000000
00000000
00000000
00000000
00000000
00000000
00000000
,
00013000
00000000
00001000
00000000
00010000
00000000
00000100
00010000
00000000
00000000
00001000
00000000
00010000
00000000
00000100
00001000
,
00000000
00000010
00000000
00010000
00000000
00001000
00000000
00010000
00000100
00000000
00001000
00000000
00000010
00000000
00010000
00002000
,
00000000
00000000
00000000
00000000
01003000
00000000
00000000
00000000
00100000
01000000
00010000
00100000
01000000
10000000
00010000
00200000
,
00000000
00000000
00010000
00301000
,
00021000
00030000
00000000
00000000
00000000
00000000
00000000
00000000
00000000
00000000
00000000
00000000
00000000
00000000
00000000
00000000
00000200
00000300
00000000
00000000
00000000
00000000
00000000
00000000
00002000
00003000
00000000
00000000
00000000
00000000
00000000
00000000
00000000
00000000
00000000
00000000
00000000
00000000
00000000
00000000
00000000
00000000
00000000
00000000
00000000
00000000
00000000
00000000
00000020
00000030
00000000
00000000
00000000
00000000
00000000
00000000
00000200
00000300
00000000
00000000
00000000
00000000
00000000
00000000
,
00000000
00000000
00000000
00000000
00000000
00000000
00000000
00000000
00000000
00000000
00000000
00000000
00000000
00000000
00000000
00000000
00000020
00000030
00000000
00000000
00000000
00000000
00000000
00000000
00020000
00030000
00000000
00000000
00000000
00000000
00000000
00000000
00000000
00000000
00000000
00000000
00000000
00000000
00000000
00000000
00002000
00003000
00000000
00000000
00000000
00000000
00000000
00000000
02000000
03000000
00000000
00000000
00000000
00000000
00000000
00000000
00200000
00300000
00000000
00000000
00000000
00000000
00000000
00000000
,
00000000
00000000
00000000
00000000
00000000
00000000
00000000
00000000
00000000
00000000
00000000
00000000
00000000
00000000
00000000
00000000
00000000
00000000
00000000
00000000
00000000
00000000
00000000
00000000
00000000
00000000
00000000
00000000
00000000
00000000
00000000
00000000
00000000
00000000
00000000
00000000
00000000
00000000
00000000
00000000
20000000
30000000
00000000
00000000
00000000
00000000
00000000
00000000
00200000
00300000
00000000
00000000
00000000
00000000
00000000
00000000
00020000
00030000
00000000
00000000
00000000
00000000
00000000
00000000
,
00000000
00000000
00000000
00000000
00000000
00000000
00000000
00000000
00000000
00000000
00000000
00000000
00000000
00000000
00000000
00000000
00200000
00300000
00000000
00000000
00000000
00000000
00000000
00000000
02000000
03000000
00000000
00000000
00000000
00000000
00000000
00000000
00000000
00000000
00000000
00000000
00000000
00000000
00000000
00000000
00002000
00003000
00000000
00000000
00000000
00000000
00000000
00000000
00000000
00000000
00000000
00000000
00000000
00000000
00000000
00000000
00000000
00000000
00000000
00000000
00000000
00000000
00000000
00000000
,
00020000
00000000
00030100
00002000
00000000
00003010
00000001
00000020
,
00000000
00000130
00000001
00002000
00000000
00003100
00010000
00001000
,
01000000
00000000
01000000
00000000
01000000
00100000
10000000
10010000
,
00000000
00000000
00010000
11000000
00000000
00000000
10000000
01010000
,
00000000
00000000
01000000
00000000
00010000
00000000
00100000
00002000
00000000
00000000
00013000
00000000
00001000
00000000
00010000
00000200
,
00000000
00000000
00000000
00000000
00000000
00000000
00000000
00000000
00001300
00000000
00000000
00000000
00000010
00000000
00000000
00000100
,
00000000
00000000
00000001
00000000
00001000
00000000
00000100
00020000
00000000
00000000
00031000
00000000
01000000
00000000
00100000
02000000
,
00000000
00000000
00000000
00000000
00000000
00000000
00000000
00000000
03020000
00000000
00000000
00000000
10030000
01000000
00100000
00010000
,
00000000
00000000
00100000
00000000
00101000
00000000
00000000
00001000
00000000
00000000
00010000
00000000
00010100
00000000
00000000
00001000
,
00000000
00000000
00000010
00000000
00000110
00000000
00000000
00001001
00000000
00001000
00000001
00000000
00000001
00000000
00000010
00000200
,
00000000
00000000
00001300
00000000
00020100
00000000
00031000
02000000
00000000
03010000
10000000
00000000
10000000
00000000
01000000
00100000
,
00000000
00100000
00010000
00000000
00100000
00001000
00000000
00011000
00000000
00011000
00000000
00010000
00000200
00000000
00001300
00000020
,
00000000
00000000
00000030
00000000
00000200
00000000
00000301
00002000
00000000
00000000
00003100
00000000
00010000
00001000
01000000
00002000
,
00000000
00000000
00013000
00000000
00000100
00000000
00001000
00000010
00000000
00000001
00000000
00000010
00000000
00000000
00000200
00000000
,
00000000
00000000
00000310
00000000
00010000
00000000
00001000
00100000
00000000
00001000
00020000
00000000
00000000
00000000
00000000
00000000
,
00000000
00000000
00000000
00000000
,
00031000
00000000
00000000
00000000
00001000
01000000
00100000
10000000
00000000
00000000
00000000
00000000
00100000
01000000
00002000
00000000
,
00000000
00000000
00000000
00000000
00013000
00000100
00001000
00000010
00000100
00000001
00000010
00000001
00001000
00000100
00010000
00002000
,
00000000
00000000
02003000
00000000
00100000
00000000
00000000
03020000
00000000
00000000
10030000
00000000
01000000
10000000
00010000
02000000
,
00000000
00000000
00200000
00000000
00000000
00000000
03300000
00000000
01000000
00010000
01000000
00010000
00100000
00001000
00010000
00000100
,
00001000
00000000
00000000
00000000
00001000
00000100
00000010
00000001
00000000
00000000
00001000
00000000
00000010
00000000
00000010
00000100
,
00000000
00000000
00000000
00000000
00000010
00000000
00000010
00010000
00000000
00001000
00000000
01000000
00000000
00100000
00000000
10000000
,
00000000
00000000
00000000
00000000
01000000
00000000
01000000
00100000
00000000
00100000
00010000
00000000
00100000
00001000
00000000
00010000
,
00000000
00010000
00001000
00000000
00001000
00000000
00001000
00010000
00001000
00000000
00010000
00000100
00000000
00001000
00000000
00000110
,
00000000
00000000
00000000
00000000
00000201
00000000
00000310
00001000
00000000
00000000
00000000
00000000
00001200
00000000
00010300
00001000
,
00000000
00000000
00000000
00000000
00012000
00000000
01003000
00100000
00000000
10000000
00000000
01000000
00000000
00000000
00100000
02000000
,
00000000
00000000
00000000
00000000
10000000
00000000
00000000
00000000
03100000
00000000
00010000
00000000
10000000
00010000
00000000
11000000
,
00000000
10000000
00100000
00000000
01000000
00000000
00010000
00200000
00000000
00001000
00000000
00001000
00000000
00301000
00010000
00000000
,
00002100
00000000
00000000
00003010
00000000
00000000
00000201
00000000
00000000
00000310
00000000
00000000
00002002
00000000
00000000
00000000
,
00000000
00000000
00000000
00000000
00000000
00000000
00000000
00000000
00003003
00000000
00000000
00000000
00000010
00010000
00000000
00022000
,
00000000
00000000
00000000
00000000
,
00033000
00000000
00000000
00000000
;
