#TITLE:DAY DREAM;
#SUBTITLE:;
#ARTIST:Mutsuhiko Izumi;
#TITLETRANSLIT:;
#SUBTITLETRANSLIT:;
#ARTISTTRANSLIT:;
#GENRE:;
#CREDIT:;
#MUSIC:DAY DREAM.ogg;
#BANNER:;
#BACKGROUND:DAY DREAM-bg.png;
#CDTITLE:;
#SAMPLESTART:19.281;
#SAMPLELENGTH:9.044;
#SELECTABLE:YES;
#OFFSET:-0.318;
#BPMS:0.000=80.000
,15.500=78.000
,21.000=300.000
,35.000=195.000
,36.000=170.000
,90.500=90.000
,104.500=170.000
;
#STOPS:104.250=1.333;
#DISPLAYBPM:80.000:300.000;
#BGCHANGES:;
#FGCHANGES:;

//--------------- dance-single - Pandemonium X ----------------
#NOTES:
     dance-single:
     Pandemonium X:
     Beginner:
     4:
     0,0,0,0,0:
0000
0000
0000
0000
,
0001
0000
1000
0000
,
0010
0010
0010
0100
,
0000
0000
0001
0000
0000
0000
1000
1000
,
0000
0000
0000
0000
,
0000
0010
0000
0000
,
0000
0000
0000
0000
0000
0000
0000
0100
,
0000
0000
0000
0000
,
0000
0000
0000
0000
,
0010
0000
0000
1000
,
0000
0001
0000
0000
0000
0000
0000
0000
0000
0000
0000
0000
0000
0000
0000
0000
,
0000
1000
0000
0000
0000
0000
0000
0100
,
0000
0000
0000
0010
0000
0000
0000
0000
0000
0000
0000
0000
0000
0000
0000
0001
,
0000
0000
0000
0001
0000
0000
0000
0000
0000
0000
0000
0000
0000
0000
0000
0000
,
0000
0000
0000
0000
,
0000
0000
0000
1000
0000
0000
0000
0000
,
0000
0000
0010
0000
0000
0000
0000
0100
0000
0000
0000
0000
0000
0000
0000
0000
,
0000
0000
0001
0000
,
0000
0000
0000
0000
0000
0010
0000
0000
0000
0100
0000
0000
0000
0000
0000
0000
,
0000
0000
0000
1000
0000
0001
0000
0000
,
0000
0000
0000
0000
0000
0000
0000
0000
0000
0000
0000
1000
0000
0000
0000
0000
,
0000
0000
0000
0000
0000
0110
0000
0000
,
0000
0000
0000
0000
0000
0001
0000
0000
,
0001
0000
0000
0000
0000
1000
0000
0000
,
1000
0000
0000
0000
0000
0010
0000
0000
,
0010
0000
0000
0000
0000
0100
0000
0000
,
0100
0010
0000
0000
0000
0000
0000
0000
,
0000
1000
0000
0000
,
0000
0100
0000
0000
,
0010
0000
0000
0000
0000
0001
0000
0000
0000
0000
0000
0000
0000
0000
0000
0000
,
0000
1000
0000
0000
0000
0000
0000
0000
0000
0000
0000
0000
0000
0000
0000
0000
,
0000
0000
0000
0000
,
0000
0000
0000
0001
0000
0000
0000
0000
1000
0000
0000
0000
0000
0000
0000
0000
,
0000
0000
0000
0000
0000
0010
0000
0000
,
0000
0000
0000
0000
0000
0100
0000
0000
,
0000
0000
0000
0010
,
0000
0000
0000
1000
,
0000
0000
0000
0001
,
0000
0000
0000
0000
0000
0000
0000
0010
,
0000
0000
0000
0100
0000
0000
0000
1000
,
0000
0000
0000
0000
,
0010
0000
0000
0000
,
0010
0000
0000
0000
,
0000
0000
0000
0000
0000
0100
0000
0000
,
0000
0000
0000
0000
0000
0001
0000
0000
0000
0000
0000
0000
0000
0000
0000
0000
,
0000
0000
0000
0000
,
0000
0000
0000
0000
,
0000
1000
0000
0000
,
0010
0000
0000
0000
,
0000
0100
0000
0000
,
1001
0000
0000
0000
;

//--------------- dance-single - Pandemonium X ----------------
#NOTES:
     dance-single:
     Pandemonium X:
     Easy:
     9:
     0,0,0,0,0:
0000
0000
0000
0000
,
1001
0000
0000
0001
0010
0001
0000
0000
,
1000
0000
0010
0000
0100
0001
0010
0000
,
0000
0100
1000
0010
0000
0000
0100
2002
,
0000
0000
0000
0000
,
3003
0000
0001
0000
0000
1000
0000
0000
,
0100
0000
0000
0010
0000
0000
0000
0100
,
0000
0000
1000
0000
0000
0010
0000
0000
,
0100
0000
0000
0001
0000
1000
0000
0000
,
0001
0010
0001
0101
,
0000
0100
0000
0000
0000
0010
0000
0000
0000
1000
0000
0000
0000
0001
0000
0000
,
0000
1000
0000
0100
0000
0010
0000
0011
,
0000
0000
0000
0001
0000
0000
0000
0100
0000
0000
0000
0010
0000
0000
0000
1000
,
0000
0000
0000
1001
0000
0000
0000
0000
0000
0000
0000
0000
0000
0000
0000
0000
,
0000
0000
0000
0000
,
0000
0000
0000
0001
0100
0010
0000
0100
,
0000
0000
0101
0000
0000
0000
0000
0001
0000
1000
0000
0100
0000
0000
0000
0010
,
0000
0000
0000
0100
0000
0000
0000
0000
0010
0000
0100
0000
1000
0000
0000
0000
,
0001
0000
0000
0000
1010
0000
0000
0000
0000
1000
0000
0010
0000
0100
0000
0000
,
0000
0010
0000
0000
0000
1001
0000
0000
0000
0000
0001
0000
0000
0000
0000
1000
,
0000
0100
0000
1000
0000
0010
0000
0100
0000
0000
0010
0000
0000
1000
0000
0000
,
0001
0000
0000
0010
0000
0000
0000
0000
0000
0000
2001
0000
0000
0000
0000
0000
,
0000
0000
0000
0000
0000
0000
0000
0000
0000
0000
3001
0000
0000
0001
0000
0000
,
0001
0000
0000
0001
0000
0000
0000
0000
0000
0000
1000
0000
0000
1000
0000
0000
,
1000
0000
0000
1000
0000
0000
0000
0000
0000
0000
0010
0000
0000
0010
0000
0000
,
0010
0000
0000
0010
0000
0000
0000
0000
0000
0000
0100
0000
0000
0100
0000
0000
,
1001
0001
0000
1000
0000
0100
0000
0011
,
0000
0000
0000
0001
0000
0000
0000
1000
0000
0000
0000
0100
0000
0000
0000
1000
,
0000
1000
0010
1000
,
0011
0000
0000
0000
0000
0001
0000
0000
0000
1000
0000
0000
0000
0100
0000
0000
,
0000
0010
0000
0001
0000
0100
0000
0000
0000
0000
0000
0000
0000
0000
0000
0000
,
0000
0000
0000
0000
,
0000
0000
0000
0010
0000
0000
0000
0000
2002
0000
0000
0000
0000
0000
0000
0000
,
0000
3003
0000
1000
0000
0010
0000
0100
,
0000
0001
0000
1000
0000
0100
0000
0010
,
0000
0100
0000
1000
0000
0010
0000
0100
,
0000
0001
0000
0010
0000
0100
0010
0001
,
0000
0000
1000
0000
0001
0000
0000
0200
,
0000
0000
0000
0320
,
0000
0000
0000
0000
0000
0000
1030
0000
0000
0100
0000
0000
0010
0000
0000
0002
,
0000
0000
0000
0003
,
1000
0010
0100
0200
0000
0000
0000
0000
,
0301
0010
0100
0200
0000
0000
0000
0000
,
0300
0000
0000
0000
0000
2002
0000
0000
,
0000
0000
3003
1000
0000
0100
0000
0010
,
0000
0001
0000
0100
0000
0010
0000
0100
,
0000
0001
0000
1000
0000
0100
0000
0010
,
0000
0001
0000
0200
0000
0000
0000
0000
,
0300
0010
0000
0000
1000
0000
0000
0001
0000
0000
0010
0000
0000
0100
0000
0000
,
1000
0000
0000
0100
0000
0000
0020
0000
0000
0000
0000
0000
0000
0000
0000
0000
,
0200
0000
0000
0000
0000
0000
0000
0000
0000
0000
0000
0000
0000
0000
0030
0300
;

//--------------- dance-single - Pandemonium X ----------------
#NOTES:
     dance-single:
     Pandemonium X:
     Medium:
     13:
     0,0,0,0,0:
0000
0000
0000
0000
,
1002
0000
0000
0013
1000
0020
0000
0000
,
0230
0000
2300
0000
3100
0010
0012
0000
,
0000
1003
0010
0200
0000
0000
0310
2002
,
0000
0000
0000
0000
,
0000
3003
0001
0000
0100
0000
0010
0000
,
1000
0000
0100
0010
0000
0000
0000
0100
,
0010
0000
0010
0100
0000
0100
1000
0000
,
1000
0001
0000
0001
0100
0010
0000
0000
,
1000
0000
0000
0100
0000
0000
1000
0000
0000
0010
0000
0000
0101
0000
0001
0000
,
0000
1000
0000
0000
0010
0000
0000
0100
0000
0000
0001
0000
0000
0010
0000
0000
,
0100
0000
0010
0000
0000
0001
0000
0000
1000
0000
0000
0001
0000
0000
0110
0000
,
0001
0000
0000
1000
0000
0000
0100
0000
0000
1000
0000
0000
0010
0000
0000
0100
,
0000
0001
0000
0020
0000
0000
0000
0000
0000
0000
0000
0000
0000
0000
0000
0000
,
0000
0000
0000
0000
,
0000
0000
0000
0000
0000
0000
0130
0000
0000
1000
0000
0000
0010
0000
0000
0100
,
0000
0000
0101
0000
0001
0000
0000
1000
0000
0000
0100
0000
0000
1000
0000
0000
,
0010
0000
0000
0100
0000
0000
0001
0000
1000
0000
0000
0100
0000
0000
0010
0000
,
0000
0001
0000
0000
0101
0000
0000
0100
0000
0000
0010
0000
0000
1000
0000
0000
,
0100
0000
0000
0001
0000
0000
0100
0000
0010
0000
0001
0000
1000
0010
0000
0100
,
0000
0010
0000
1000
0000
0001
0010
0001
0000
0000
0001
0010
0000
0010
0100
0000
,
0100
1000
0000
1000
0010
0000
0000
0000
0000
0000
2002
0000
0000
0000
0000
0000
,
0000
0000
0000
0000
3003
0001
0100
1000
,
0100
0000
0001
0000
0010
0000
1000
0000
0010
0100
1000
0000
0100
0000
0001
0000
,
0100
0000
1000
0000
0010
0000
0001
0000
0010
0100
0001
0000
0010
0000
1000
0000
,
0010
0000
0001
0000
0100
0000
1000
0000
0100
0010
1000
0000
0001
0000
0010
0000
,
0100
1000
0001
0000
0000
0010
0000
0000
0001
0000
0000
1000
0000
0000
1010
0000
,
0010
0000
0000
0100
0000
0000
0001
0000
0000
0010
0000
0000
0001
0000
0000
1000
,
0000
0000
0001
0000
0010
0000
0000
0100
0000
0000
1000
0000
0000
0001
0000
0000
,
1001
0000
1000
0000
0000
0001
0000
0000
0010
0000
0000
0100
0000
0000
1000
0000
,
0000
0010
0000
1000
0000
0002
0000
0000
0000
0000
0000
0000
0000
0000
0000
0000
,
0000
0000
0000
0000
,
0000
0013
1002
0000
,
0000
0000
0000
0000
1003
0010
1000
0000
0000
0010
0000
0000
0100
0001
0000
0000
,
0010
0000
0100
1000
0000
0100
0000
0010
0001
0000
1000
0000
0001
0100
0000
0010
,
0000
1000
0100
0000
0010
0001
1000
0000
0001
0000
1000
0010
0000
0010
0000
0100
,
0001
0000
0010
0000
0100
1000
0000
0001
0000
1000
0001
0000
0010
0001
1000
0000
,
0000
0000
0001
1000
0010
0100
0001
0200
,
0000
0000
0000
0000
0000
0000
0000
0000
0000
0000
0000
0000
0000
0320
0000
0000
,
0000
0000
0000
0000
0000
0000
0200
0030
0000
0302
0000
0000
2000
0003
0000
0200
,
0000
0000
0000
3000
,
0310
0001
0100
0200
0000
0000
0000
0000
,
0310
1000
0100
0200
0000
0000
0000
0000
,
0300
0000
0000
0000
0000
2002
0000
0000
,
0003
0000
0000
0000
0000
3001
0100
0000
0100
0010
0000
0010
1000
0000
1000
0100
,
0000
0100
0010
0000
0010
0001
0000
0001
1000
0000
1000
0010
0000
0010
0100
0000
,
0001
0010
0100
0010
0001
1000
0010
1000
,
0100
0010
0100
2000
0000
0000
0000
0000
,
3000
0001
1000
0000
1000
0010
0000
0010
0100
0000
0100
0001
0000
0001
0010
0000
,
0010
0100
0000
0100
1000
0000
2000
0000
0000
0000
0000
0000
0000
0000
0000
0020
,
3000
0000
0000
0000
0000
0000
0000
0000
0000
0000
0000
0000
0000
0000
1030
0001
,
1000
0000
0000
0000
;

//--------------- dance-single - Pandemonium X ----------------
#NOTES:
     dance-single:
     Pandemonium X:
     Hard:
     17:
     0,0,0,0,0:
0000
0000
0000
0000
,
2010
0000
0000
3001
1000
1200
0000
0000
,
0320
0000
0230
0000
1300
0001
2100
0000
,
0000
3010
0100
0120
0000
0000
0130
2002
,
0000
0000
0000
0000
,
3003
0000
0001
0010
1000
0010
0001
0100
,
0001
1000
0100
0010
0100
0000
0000
0100
,
0010
0000
0010
0100
0000
0010
1000
0000
,
0001
0100
0000
0001
1000
0001
0000
0000
,
1000
0010
0000
0100
0001
0000
0010
0100
0000
0010
0001
0000
0010
0100
0010
0001
,
1000
0010
0100
0000
0001
0010
0000
0100
0010
0000
0001
0100
0000
0010
1000
0010
,
0100
0001
0100
0010
0000
0010
0100
0000
0001
0010
0000
0100
0010
0000
0010
0100
,
1000
0100
0010
0001
1000
0000
0100
0010
0000
0001
0100
0000
0010
1000
0000
0001
,
0010
0001
1000
0010
0100
0000
0010
0100
0000
0010
0100
0000
0010
0100
0000
0010
,
0100
0010
1000
0001
0010
0100
0000
0100
0010
0000
0010
0100
0000
0100
0010
0000
,
0100
1000
0100
0010
0001
0000
0001
0010
0000
0010
0100
0000
0100
1000
0000
1000
,
0100
0000
0100
0010
0100
1000
0001
0100
0010
0000
0010
0100
0000
0010
1000
0000
,
1000
0001
0000
0001
0010
0100
0010
0001
1000
0010
0000
0010
0100
0000
0100
0001
,
0000
0001
0010
0000
0100
1000
0010
0100
0001
1000
0100
0000
0100
0010
0000
0010
,
0001
0000
0001
0100
0000
0100
0010
1000
0001
1000
0100
0001
0100
1000
0000
1100
,
0000
0011
0000
1001
0000
0001
0100
0001
1000
0000
0100
0001
0100
1000
0010
0001
,
0010
0100
0010
1000
0001
0010
0000
0000
0000
0000
2200
0000
0000
0000
0000
0000
,
0000
0000
0000
0000
0000
0000
0000
0000
0300
0000
3001
0100
0001
0100
0000
0010
,
1000
0100
1000
0100
0000
1000
0001
0001
1000
1000
0010
0100
0010
0100
0000
0001
,
0010
0100
0010
0100
0000
1000
0100
0100
0010
0010
0100
1000
0100
1000
0000
0010
,
0100
0001
0100
0001
0000
0010
0100
0100
0010
0010
0001
1000
0001
0100
0000
0010
,
1001
1001
0001
0100
0000
0001
0010
0000
0100
1000
0000
0100
0010
0000
0100
1000
,
0001
0100
0001
1000
0100
0000
0010
0001
0000
0001
0010
0000
0100
0010
0000
0001
,
1000
0001
1000
0100
0010
0001
0000
1000
0010
0000
0100
0010
0000
1000
0010
0000
,
0100
0010
0100
0001
1000
0001
0010
0000
0010
0100
0000
0100
0010
0000
0100
1000
,
0000
1000
0010
0100
0001
0100
0010
0000
0100
0010
0000
0100
0010
0000
0100
0010
,
0000
0100
0010
1000
0001
0010
0100
0010
0000
0100
0010
0000
0100
0010
0000
0100
,
0010
0000
0100
0010
0001
1000
0001
0100
0020
0000
0000
0000
0000
0000
0000
0000
,
0000
0000
0000
0000
0000
0130
0001
1000
0100
0010
0001
0010
0100
1000
0001
0010
,
0100
1000
0001
0010
0100
1000
0001
0010
0100
1000
0001
0010
0100
1000
0001
0010
,
0100
1000
0100
0010
0100
0010
0001
1000
0100
0010
0001
1000
0100
0010
0001
1000
,
0100
0010
0001
1000
0100
0020
0000
0130
2000
0000
0000
0000
3010
0100
0002
0000
,
0000
0000
0000
0000
1003
0100
1000
0010
0100
0001
0010
0100
0010
0001
2000
0000
,
0000
0000
0000
0000
0000
0000
0000
3002
,
0000
0000
0000
0000
0000
0000
0203
0000
0000
0320
0000
0000
1030
0000
0000
2000
,
0000
0000
0000
0000
0000
0000
0000
0000
0000
0000
0000
0000
3000
0000
0000
1000
,
0100
0001
0100
0010
0001
1000
0020
0000
0000
0000
0000
0000
0000
0000
0000
0130
,
1000
0100
0001
1000
0001
0010
0100
1000
0020
0000
0000
0000
0000
0000
0000
0000
,
0000
0000
0030
0000
0000
2002
0000
0000
,
0000
0000
0000
0000
3003
1000
0100
0000
0100
0010
0000
0010
0001
0000
0001
0010
,
0000
0010
0100
0000
0100
1000
0000
1000
0001
0000
0001
0100
0000
0100
0010
1000
,
0001
0010
0100
0010
0001
1000
0010
0100
0001
1000
0001
0010
0100
0010
0001
0100
,
0010
1000
0100
0010
0100
1000
0001
0200
0000
0000
0000
0000
0000
0000
0000
0000
,
0310
1000
0000
0010
0100
0000
0010
0001
0000
0010
0100
0000
0010
0001
0000
0010
,
0100
0000
0100
0001
0000
0001
2000
0000
0000
0000
0000
0000
0000
0000
3000
0012
,
0000
0000
0000
0000
0000
0000
0000
0000
0000
0000
0000
0000
0000
0000
0103
0010
,
1000
0000
0000
0000
;

//--------------- dance-single - Pandemonium X ----------------
#NOTES:
     dance-single:
     Pandemonium X:
     Challenge:
     18:
     0,0,0,0,0:
0000
0000
0000
0000
0000
0000
0000
0000
0000
0000
0000
0000
2000
0000
0000
3000
,
0102
0000
0000
1003
0001
0021
0000
0000
,
0230
0000
0000
0000
0320
0000
0000
0030
0011
0000
1010
0000
0012
0000
0000
0000
,
0000
0103
1010
0210
0000
0300
0110
2002
,
0000
0000
0000
0000
,
3003
0000
0001
0100
1000
0100
0001
0010
,
1000
0010
0001
0010
0100
0000
0000
0010
,
0011
0000
1000
1100
0000
0001
0101
0000
,
1000
1010
0000
0001
1000
1001
0000
0000
,
0001
0100
0000
0010
1000
0000
0100
0010
0000
0100
1000
0000
0110
0010
0100
1000
,
0001
0100
0010
0000
1000
0100
0000
0010
0100
0000
1000
0010
0000
0100
0001
0100
,
0010
1000
0010
0100
0000
0100
0010
0000
1000
0100
0000
0010
0100
0000
0110
0010
,
0001
0010
0100
1000
0001
0000
0010
0100
0000
1000
0010
0000
0100
0001
0000
1000
,
0100
1000
0001
1000
1000
0000
0001
0001
0000
0010
0010
0000
0100
0100
0000
0100
,
0010
0100
0010
0001
0100
0100
0000
0010
0010
0000
1000
1000
0000
0001
0001
0000
,
0010
0001
0010
0100
1000
0001
1000
0100
0000
0100
0010
0000
0010
0001
0000
0001
,
0010
0000
0110
0100
0010
0001
1000
0010
0100
0000
0100
0010
0000
0100
0001
0000
,
0001
1000
0000
1000
0100
0010
0100
1000
0001
0100
0000
0100
0010
0000
0010
1000
,
0000
1000
0100
0000
0011
0001
0100
0010
1000
0001
0010
0000
0010
0100
0000
0100
,
1000
0000
1000
0010
0000
0010
0100
0001
1000
0001
0010
1000
0010
0011
0000
1001
,
0000
1100
0000
1001
0000
1000
0010
0001
0010
0000
0100
0001
0010
0001
0100
1000
,
0100
0010
0100
0001
0010
0100
0000
0000
0000
0000
2002
0000
0000
0000
0000
0000
,
0000
0000
0000
0000
0000
0000
0000
0000
3003
0000
1000
1000
0010
1010
0000
0100
,
0001
0001
0010
0011
0000
0001
1000
1000
1000
1000
0100
0100
0010
0011
0000
1000
,
0010
0010
0100
0110
0000
0001
0001
0001
0001
0001
0010
0010
0100
0110
0000
0100
,
1000
1000
0001
1001
0000
1000
1000
1000
1000
1000
0001
0001
1000
1010
0000
0100
,
1001
1001
1000
0010
0000
1000
0100
0000
0010
0001
0000
0010
0100
0000
0011
0001
,
1000
0010
1000
0001
0010
0000
0100
1000
0000
1000
0100
0000
0010
0100
0000
1000
,
0001
1000
0001
0010
0100
1000
0000
0001
0100
0000
0010
0100
0000
0001
0100
0000
,
0110
0100
0010
1000
0001
1000
0100
0000
0100
0010
0000
0010
0100
0000
0010
0001
,
0000
0001
0100
0010
1000
0010
0010
0000
1000
1000
0000
0100
0100
0000
0010
0010
,
0000
0100
0010
0001
1000
0100
0010
0010
0000
0100
0100
0000
1000
1000
0000
0001
,
0001
0000
0010
0100
1000
0001
1000
0010
0200
0000
0000
0000
0000
0000
0000
0000
,
0000
0000
0000
0000
0000
0310
1000
0001
0010
0100
1000
0100
0010
0001
0010
0100
,
0010
0001
0010
0100
0010
0001
0010
0100
1000
0100
0010
0100
1000
0100
0010
0001
,
0010
0100
0010
0001
1000
0010
0100
0010
1000
0010
0100
0001
0010
0001
0100
0010
,
1000
0001
0010
0100
1000
0200
0000
0310
0002
0000
0000
0000
0103
0010
2000
0000
,
0000
0000
0000
0000
3001
0010
0001
0100
0010
1000
0100
0010
0100
1000
0002
0000
,
0000
0000
0000
0000
0000
0000
0000
2003
,
0000
0000
0000
0000
0000
0000
3020
0000
0000
0230
0000
0000
0020
0000
0330
2002
,
0000
0000
0000
0000
0000
0000
0000
0000
0000
0000
0000
0000
3003
0000
0000
0001
,
0001
1000
0010
0100
0001
1000
0010
1000
0010
1000
0010
1000
0010
0000
0000
0100
,
0100
0010
1000
0001
0010
0100
1000
0001
0100
0001
0100
0010
1000
0100
1000
0001
,
1000
0100
1000
0000
0000
0000
0000
0000
0000
0000
2002
0000
0000
0000
0000
0000
,
0000
0000
0000
0000
3003
0001
0001
0000
0010
0010
0000
0100
0100
0000
1000
1000
,
0000
0100
0100
0000
0010
0010
0000
0001
0001
0000
1000
1000
0000
0010
0100
0001
,
1000
0100
0010
0100
1000
0001
0100
0010
1000
0001
1000
0100
0010
0100
1000
0010
,
0100
0001
0010
0100
0010
0001
1000
0020
0000
0000
0000
0000
0000
0000
0000
0000
,
0130
0001
0100
0001
0100
0001
1000
0010
1000
0010
1000
0010
1000
0001
1000
0001
1000
0001
1000
0100
1000
0100
1000
0100
,
0010
0000
0100
0000
0010
0000
0100
0000
0010
0000
0100
0000
0010
0000
0001
0000
0010
0000
0001
0000
0010
0000
0001
0000
2000
0000
0000
0000
0000
0000
0000
0000
0000
0000
0000
0000
0000
0000
0000
3000
0000
0000
0000
0000
0000
0220
0000
0000
,
0000
0000
0000
0000
0000
0000
0000
0000
0000
0000
0000
0000
0000
0000
0000
0000
0000
0000
0330
0000
0000
0010
0100
0001
,
1000
0000
0000
0000
;

//--------------- dance-double - Pandemonium X ----------------
#NOTES:
     dance-double:
     Pandemonium X:
     Easy:
     7:
     0,0,0,0,0:
00000000
00000000
00000000
00000000
,
00010000
00000000
00000000
00000100
00001000
00000100
00000000
00000000
,
00010000
00000000
00001000
00000000
01000000
00010000
01000000
00000000
,
00000000
00100000
10000000
00100000
00000000
00000000
01000000
10010000
,
00000000
00000000
00000000
00000000
,
00000000
00000000
01000000
00000000
00000000
00100000
00000000
00000000
,
00001000
00000000
00000000
00010000
00000000
00000000
00000000
00000010
,
00000000
00000000
00001000
00000000
00000000
00000010
00000000
00000000
,
00000100
00000000
00000000
00000001
00000000
00001000
00000000
00000000
,
00000100
00010000
00001000
01001000
,
00000000
01000000
00000000
00100000
00000000
10000000
00000000
01000000
,
00000000
00000000
00000000
00100000
00000000
00000000
00000000
00001000
00000000
00000000
00000000
00010000
00000000
00000000
00000000
00010100
,
00000000
00000100
00001000
00000010
,
00000000
00000100
00000000
00000100
00000000
00000000
00000000
00000000
00000000
00000000
00000000
00000000
00000000
00000000
00000000
00000000
,
00000000
00000000
00000000
00000000
,
00000000
00000000
00000000
00000010
00000000
00000100
00000000
00000001
,
00000000
00000000
00001001
00000000
00000000
00000000
00000000
00001000
00000000
00000000
00000000
00000100
00000000
00000000
00000000
00010000
,
00000000
00000000
00000000
00001000
00000000
00000000
00000000
00000000
00010000
00000000
00000000
00000000
00001000
00000000
00000000
00000000
,
01000000
00000000
00000000
00000000
01010000
00000000
00000000
00000000
00000000
00010000
00000000
00000000
00000000
00100000
00000000
00000000
,
00000000
01000000
00000000
00000000
00000000
10000000
00000000
00000000
00000000
00000000
10010000
00000000
00000000
00000000
00000000
10000000
,
00000000
00000000
00000000
00000000
00000000
00000000
00000000
00000000
00000000
00000000
00100000
00000000
00000000
01000000
00000000
00000000
,
00010000
00000000
00000000
00100000
00000000
00000000
00000000
00000000
00000000
00000000
12000000
00000000
00000000
00000000
00000000
00000000
,
00000000
00000000
00000000
00000000
00000000
03100000
00000000
00000000
,
00100000
00000000
00000000
00000000
00000000
00001000
00000000
00000000
,
00001000
00000000
00000000
00000000
00000000
00010000
00000000
00000000
,
00010000
00000000
00000000
00000000
00000000
00000100
00000000
00000000
,
00000100
00000000
00001000
00000000
00000000
00000000
00000010
00000000
00000000
00000000
00000100
00000000
00000000
00000000
00000000
00000101
,
00000000
00000001
00000010
00000100
,
00000010
00000001
00001000
00000100
,
00010100
00000000
00000000
00000000
00000000
00010000
00000000
00000000
00000000
00001000
00000000
00000000
00000000
01000000
00000000
00000000
,
00000000
00100000
00000000
00100000
00000000
00000000
00000000
00000000
00000000
00000000
00000000
00000000
00000000
00000000
00000000
00000000
,
00000000
00000000
00000000
00000000
,
00000000
01000000
10020000
00000000
,
00000000
00000000
00000000
00000000
10030000
00000000
00000000
00000000
00000000
00000000
01000000
00000000
00000000
00000000
00000000
00100000
,
00000000
00000000
00000000
00000000
00000000
00010000
00000000
00000000
00000000
00000000
01000000
00000000
00000000
00000000
00000000
00100000
,
00000000
00000000
00000000
10000000
00000000
00000000
00000000
00010000
00000000
00000000
00000000
00000000
00100000
00000000
00000000
00000000
,
01000000
10000000
00100000
10010000
,
00000000
00000000
00010000
00000000
00100000
00000000
00001000
00020000
,
00000000
00000000
00000000
00030000
,
00000200
00000000
00000000
00000000
00000000
00000000
00001300
00000000
00000000
00000010
00000000
00000000
00000100
00000000
00000000
00000020
,
00000000
00000000
00000000
00000030
,
00000100
00000001
00001000
00000100
00000000
00000000
00000000
00000000
,
00010000
00001000
01000000
00200000
00000000
00000000
00000000
00000000
,
00300000
00000000
00000000
00000000
00000000
20020000
00000000
00000000
,
30030000
00000000
00000000
00000000
00000000
00000000
10000000
00000000
00000000
01000000
00000000
00000000
00100000
00000000
00000000
00010000
,
00000000
00000000
01000000
00000000
00000000
00100000
00000000
00000000
10000000
00000000
00000000
00010000
00000000
00000000
00100000
00000000
,
00000000
00001000
00000000
00000000
00010000
00000000
00000000
00000100
00000000
00000000
00001000
00000000
00000000
00000010
00000000
00000000
,
00000100
00000000
00000000
00000001
00000000
00000000
00000010
00000000
00000000
00000000
00000000
00000000
00000000
00000000
00000000
00000000
,
00000100
00000000
00000000
00001000
00000000
00000000
00000100
00000000
00000000
00010000
00000000
00000000
00001000
00000000
00000000
01000000
,
00000000
00000000
00100000
00000000
00000000
10000000
00000000
00000000
02000000
00000000
00000000
00000000
00000000
00000000
00000000
00000000
,
00200000
00000000
00000000
00000000
00000000
00000000
00000000
03300000
;

//--------------- dance-double - Pandemonium X ----------------
#NOTES:
     dance-double:
     Pandemonium X:
     Medium:
     13:
     0,0,0,0,0:
00000000
00000000
00000000
00000000
,
00010100
00000000
00000000
00000100
00001000
00000020
00000000
00000000
,
00000130
00000000
00000100
00000000
00000010
00000100
00001002
00000000
,
00000000
00001003
00000100
00002000
00000000
00000000
00003100
00022000
,
00000000
00000000
00000000
00000000
,
00033000
00000000
00000100
00010000
00000100
00010000
00001000
01000000
,
00001000
01000000
00010000
00100000
01000000
00000000
00000000
10000000
,
00010000
00000000
00010000
10000000
00000000
10000000
00100000
00000000
,
00100000
10000000
00000000
10000000
01000000
00100000
00010000
00000000
,
00100000
00000000
00000000
00001000
00000000
00000000
00010000
00000000
00000000
00000010
00000000
00000000
00000100
00000000
00000001
00000000
,
00000010
00000100
00001000
00000000
00000000
00000100
00000000
00000000
00010000
00000000
00000000
00001000
00000000
00000000
01000000
00000000
,
00010000
00000000
00100000
00000000
00000000
01000000
00000000
00000000
00100000
00000000
00000000
00001000
00000000
00000000
00010000
00000000
,
00000100
00001000
00000010
00000100
00000000
00000000
00000001
00000000
00000000
00000010
00000000
00000000
00000001
00000000
00000000
00001000
,
00000100
00001000
00000100
00010000
00000000
00000000
00000000
00000000
00000000
00000000
00000000
00000000
00000000
00000000
00000000
00000000
,
00000000
00000000
00000000
00000000
,
00000000
00000000
00000000
00000000
00000000
00000000
00000010
00000000
00000000
00001000
00000000
00000000
00000001
00000000
00000000
00000010
,
00000000
00000000
00000001
00000000
00001000
00000000
00000100
00000010
00000100
00000000
00000000
00010000
00000000
00000000
00001000
00000000
,
00000000
00100000
00000000
00000000
00010000
00000000
00010000
00000000
10000000
00000000
00000000
01000000
00000000
00000000
00100000
00000000
,
00000000
01000000
00000000
00000000
10000000
00000000
00000000
00010000
01000000
00100000
00000000
00000000
01000000
00000000
00000000
00010000
,
00000000
00000000
00100000
00000000
00000000
00001000
00000000
00010000
00000000
00000000
00001000
00100000
00001000
00100000
00000000
00010000
,
00000000
01000000
00000000
00100000
00000000
10000000
01000000
00100000
00010000
00000000
00100000
00001000
00000000
00010000
00000100
00000000
,
00001000
00000010
00000000
00000100
00000001
00000000
00000000
00000000
00000000
00000000
00012000
00000000
00000000
00000000
00000000
00000000
,
00000000
00000000
00000000
00000000
00000000
00000000
00000000
00000000
00000000
00000000
01003000
01000000
00010000
01000000
00000000
01000000
,
00100000
00100000
01000000
00100000
00000000
00000000
00000000
00000000
00000000
00000000
10000000
10000000
00010000
10000000
00000000
01000000
,
00100000
00100000
00001000
00010000
00000000
00000000
00000000
00000000
00000000
00000000
00001000
00001000
00010000
00000100
00000000
00001000
,
00000010
00000010
00000100
00000001
00000000
00000000
00000000
00000000
00000000
00000000
00000010
00000010
00000001
00001000
00000000
00000100
,
00001100
00001100
00000100
00000000
00000000
00010000
00000000
00000000
00001000
00000000
00000000
01000000
00000000
00000000
00100000
00000000
,
10000000
00000000
01000000
00100000
00010000
00000000
00000000
00100000
00000000
00000000
00001000
00000000
00000000
00010000
00000000
00000000
,
00000010
00000000
00001000
00000000
00000100
00000000
00000000
00000010
00000000
00000000
00000100
00000000
00000000
00010000
00000000
00000000
,
00001000
00000000
00100000
00010000
01000000
00100000
00000000
00000000
10000000
00000000
00000000
01000000
00000000
00000000
10000000
00000000
,
00000000
00010000
00100000
00010000
00100000
00001000
00000000
00000000
00000000
00000000
00000000
00000000
00000000
00000000
00000000
00000000
,
00000000
00000000
00000000
00000000
,
00000000
00010000
00002100
00000000
,
00000000
00000000
00000000
00000000
00003100
00000000
00001000
00000000
00000010
00000000
00000100
00000000
00000001
00000010
00000000
00000100
,
00000000
00001000
00000010
00000000
00000100
00000000
00000001
00001000
00000000
00000100
00000000
00010000
00001000
00000000
00010000
00000000
,
00001000
01000000
00000000
00100000
00000000
10000000
01000000
00000000
00100000
00000000
01000000
10000000
00000000
00010000
00000000
01000000
,
00010000
00000000
00100000
00000000
00001000
00010000
00000000
00000000
00000100
00001000
00000000
00000000
00000010
00000100
00000001
00000000
,
00000000
00000000
00001000
00000100
00000010
00000100
00001000
00020100
,
00000000
00000000
00000000
00000000
00000000
00000000
00000000
00032000
,
00000000
00000000
00000000
00000000
00000000
00000000
02003000
00000000
00000000
03020000
00000000
00000000
00230000
00000000
00000000
02300000
,
00000000
00000000
00000000
00000000
00000000
00000000
00000000
00000000
00000000
00000000
00000000
00000000
03000000
00000000
00000000
00100000
,
01000000
10000000
00010000
00000000
10000000
00000000
20000000
00000000
00000000
00000000
00000000
00000000
00000000
00000000
00000000
31000000
,
00100000
00010000
00100000
00001000
00010000
00000000
00000000
00020000
00000000
00000000
00000000
00000000
00000000
00000000
00000000
00000000
,
00030000
00000000
00000000
00000000
00000000
00020100
00000000
00000000
,
00000000
00000000
00000000
00000000
00000000
00000000
00031000
00000000
00000000
00000010
00000000
00000000
00000100
00000000
00000000
00000001
,
00000000
00000000
00000010
00000000
00000000
00000100
00000000
00000000
00001000
00000000
00000000
00000100
00000000
00000000
00010000
00000000
,
00001000
00100000
00010000
01000000
00100000
10000000
01000000
00100000
,
00001000
00010000
00000100
00002000
00000000
00000000
00000000
00000000
,
00003010
00000100
00000000
00000100
00000001
00000000
00000001
00001000
00000000
00001000
00000100
00000000
00000100
00010000
00000000
00010000
,
00001000
00000000
00001000
01000000
00000000
01000000
00200000
00000000
00000000
00000000
00000000
00000000
00000000
00000000
00000000
00000000
,
02000000
00000000
00000000
00000000
00000000
00000000
00000000
00300000
,
03000000
00000000
00000000
00000000
;

//--------------- dance-double - Pandemonium X ----------------
#NOTES:
     dance-double:
     Pandemonium X:
     Hard:
     17:
     0,0,0,0,0:
00000000
00000000
00000000
00000000
,
00021000
00000000
00000000
00030100
00010000
00002000
00000000
00000000
,
00203000
00000000
00320000
00000000
10030000
00010000
02100000
00000000
,
00000000
03100000
10000000
00020000
00000000
00000000
00130000
00022000
,
00000000
00000000
00000000
00000000
,
00033000
00000000
00010000
00000100
00010000
00000100
00001000
00000010
,
00000100
00000001
00001000
00000100
00000000
00000000
00000000
00000001
,
00000010
00000000
00000010
00000100
00000000
00000100
00010000
00000000
,
00010000
00001000
00000000
00010000
00001000
01000000
00000000
00000000
,
00100000
10000000
00000000
10000000
01000000
00000000
01000000
00100000
00000000
00100000
00001000
00000000
00010000
00000100
00001000
00000000
,
00000010
00000100
00000001
00000000
00000001
00000010
00000000
00000010
00000100
00000000
00000100
00001000
00000000
00000100
00000000
00010000
,
00001000
00100000
00010000
01000000
00000000
01000000
00100000
00000000
00100000
10000000
00000000
10000000
00010000
00000000
00010000
00100000
,
00001000
00010000
00000100
00001000
00000100
00000000
00000100
00000010
00000000
00000010
00000001
00000000
00000001
00001000
00000000
00000100
,
00010000
00001000
01000000
00200000
00000000
00000000
00000000
00000000
00000000
00000000
00000000
00000000
00000000
00000000
00000000
00000000
,
00000000
00000000
00000000
00000000
,
00000000
00000000
00000000
00000000
00000000
00000000
01300000
00010000
00000000
00100000
00001000
00000000
00010000
00000100
00000000
00001000
,
00000010
00000000
00000100
00000001
00000010
00000100
00001000
00000001
00001000
00000000
00000100
00010000
00000000
00001000
01000000
00000000
,
00010000
00100000
00000000
01000000
00100000
00010000
10000000
00100000
01000000
00010000
00000000
00100000
01000000
00000000
10000000
00100000
,
00000000
01000000
00001000
00000000
00010000
00000100
00001000
00000100
00010000
00000100
00001000
00000000
00000010
00000100
00000000
00000001
,
00000010
00000000
00000100
00000010
00000000
00000001
00000100
00000010
00010000
00001000
01000000
10000000
01000000
00010000
00000000
00100000
,
00000000
00001000
00000000
00010000
00000000
00000100
00001000
00000001
00001000
00000000
00000001
00000010
00000100
00001000
00000100
00000001
,
00000100
00010000
00000100
00001000
01000000
00100000
00000000
00000000
00000000
00000000
00022000
00000000
00000000
00000000
00000000
00000000
,
00000000
00000000
00000000
00000000
00000000
00000000
00000000
00000000
00033000
00000000
00001000
01000000
00001000
00100000
00000000
01000000
,
10000000
01000000
10000000
00010000
00000000
01000000
00010000
01000000
00010000
01000000
00010000
00100000
00010000
01000000
00000000
00010000
,
00100000
00001000
00100000
00010000
00000000
00100000
00001000
00100000
00001000
00100000
00001000
00010000
00000100
00001000
00000000
00000100
,
00001000
00000010
00001000
00000100
00000000
00000010
00000001
00000010
00000001
00000010
00000001
00000100
00000001
00001000
00000000
00000010
,
00010000
00010000
00001000
01000000
00000000
00100000
10000000
00000000
01000000
00100000
00000000
00001000
00010000
00000000
00000100
00001000
,
00000010
00000100
00000001
00000010
00000100
00000000
00000010
00000001
00000000
00000010
00000100
00000000
00001000
00000100
00000000
00010000
,
00001000
01000000
00100000
10000000
01000000
00100000
00000000
01000000
10000000
00000000
00010000
01000000
00000000
00001000
00010000
00000000
,
00000100
00001000
00000010
00001000
00000100
00000010
00000001
00000000
00001000
00000010
00000000
00010000
00001000
00000000
01000000
00010000
,
00000000
00100000
01000000
10000000
00010000
02000000
00000000
00000000
00000000
00000000
00000000
00000000
00000000
00000000
00000000
00000000
,
00000000
00000000
00000000
00000000
,
00000000
00000000
00000000
03100000
00000000
00000000
00000000
00000000
00022000
00000000
00000000
00000000
00000000
00000000
00000000
00000000
,
00000000
00000000
00000000
00003000
00031000
00100000
00010000
01000000
00010000
10000000
00000000
00010000
00100000
01000000
00000000
10000000
,
00000000
00100000
01000000
00001000
00000000
00010000
00000000
00000100
00001000
00000010
00000100
00000001
00000010
00000001
00000100
00000010
,
00001000
00000010
00000100
00000010
00010000
00001000
01000000
00010000
00100000
01000000
10000000
00010000
01000000
00100000
10000000
00010000
,
00100000
00001000
00010000
00000010
00000200
00000000
00000000
00000000
00000301
00000010
00000100
00001000
00000100
00010000
00001000
00000000
,
00000000
00000000
00000000
00000000
00010000
00001000
01000000
00010000
00100000
01000000
10000000
00010000
01000000
00100000
20000000
00000000
,
00000000
00000000
00000000
00000000
00000000
00000000
30000000
02010000
,
00000000
00000000
00000000
00000000
00000000
00000000
03001000
00000000
00000000
00010000
00000000
00000000
00001000
00000000
00000000
00022000
,
00000000
00000000
00000000
00000000
00000000
00000000
00000000
00000000
00000000
00000000
00000000
00000000
00033000
00000000
00100000
00001000
,
00010000
00000010
00010000
00001000
00100000
00000000
00220000
00000000
00000000
00000000
00000000
00000000
00330000
00000000
00000000
01000000
,
00001000
00010000
00000100
00010000
00001000
01000000
00001000
00200000
00000000
00000000
00000000
00000000
00000000
00000000
00000000
00000000
,
00300000
00000000
00000000
00000000
00000000
10020000
00000000
00000000
,
00000000
00000000
00000000
00000000
00000000
00000000
10030000
01000000
00000000
00100000
00010000
00000000
01000000
00001000
00000000
00100000
,
00001000
00000000
00010000
00000010
00000000
00000100
00000001
00000000
00001000
00000100
00000000
00000010
00000001
00000000
00000001
00000010
,
00000001
00000100
00000010
00001000
00000100
00010000
00001000
01000000
00010000
00100000
01000000
10000000
00100000
01000000
00010000
10000000
,
01000000
00100000
01000000
10000000
00010000
01000000
00020000
00000000
00000000
00000000
00000000
00000000
00000000
00000000
00000000
00000000
,
00000000
10030000
01000000
00010000
01000000
10000000
00100000
01000000
00001000
00010000
00000100
00001000
00000010
00000001
00000010
00001000
,
00000100
00001000
00000100
00010000
00001000
00100000
00010000
01000000
00200000
00000000
00000000
00000000
00000000
00000000
00000000
02300000
,
00000000
00000000
00000000
00000000
00000000
00000000
00000000
00000000
00000000
00000000
00000000
00000000
00000000
00000000
03001000
00100000
,
00010000
00000000
00000000
00000000
;

//--------------- dance-double - Pandemonium X ----------------
#NOTES:
     dance-double:
     Pandemonium X:
     Challenge:
     18:
     0,0,0,0,0:
00000000
00000000
00000000
00000000
00000000
00000000
00000000
00000000
00000000
00000000
00000000
00000000
00200000
00000000
00000000
00300000
,
00002200
00000000
00003000
00001300
00000011
00000201
00000000
00000000
,
00000310
00000000
00011000
00000000
01001000
01000000
20010000
00000000
,
00000000
31000000
00100000
00021000
00000000
00000000
00031000
00022000
,
00000000
00000000
00000000
00000000
,
00033000
00000000
00001000
01000000
00010000
00100000
10000000
00100000
,
00010000
00001000
00000010
00000001
00001000
00000000
00000000
00000001
,
00000100
00000000
00000100
00001000
00000000
00001000
00000100
00000000
,
00000100
00000001
00000000
00001000
00000010
00000100
00000000
00000000
,
00000001
00000010
00000000
00000100
00001000
00000000
00000100
00010000
00000000
00010000
00001000
00000000
00010000
00001000
01000000
00100000
,
10000000
01000000
00100000
00000000
01000000
10000000
00000000
01000000
00100000
00000000
00001000
00010000
00000000
00000100
00001000
00000000
,
00000010
00000100
00000001
00001000
00000100
00000000
00000010
00000001
00000000
00000100
00000010
00000000
00010000
00001000
00000000
00010000
,
00001000
01000000
00010000
00100000
01000000
10000000
00000000
01000000
00100000
00000000
00001000
00010000
00000000
00000100
00001000
00000000
,
00000010
00010000
00001000
00100000
01000000
00000000
00100000
01000000
00000000
00100000
01000000
00000000
00100000
01000000
00000000
01000000
,
10000000
00010000
01000000
00100000
01000000
00100000
00000000
01000000
00100000
00000000
01000000
00100000
00000000
01000000
00100000
00000000
,
01000000
00100000
10000000
00010000
00100000
01000000
10000000
01000000
00000000
00100000
00010000
00000000
00100000
00001000
00000000
00010000
,
00000100
00000000
00001000
00000010
00000100
00000001
00000010
00000100
00000010
00000001
00000000
00000100
00000010
00000000
00001000
00000100
,
00000000
00010000
00001000
00000000
00010000
00001000
01000000
00010000
00100000
01000000
00100000
00000000
01000000
10000000
00000000
00010000
,
01000000
00000000
00010000
00100000
00000000
00001000
00010000
00000100
00001000
00000010
00000100
00000001
00000000
00000010
00000100
00000000
,
00000100
00001000
00000000
00000100
00010000
00000000
00001000
01000000
00010000
00100000
01000000
00010000
01000000
10000000
00000000
10100000
,
00000000
01010000
00000000
01001000
00000000
00010000
00001000
00010000
00000010
00000100
00001000
00000100
00000001
00000100
00001000
00000100
,
00000001
00000010
00000100
00001000
00000001
00000000
00000000
00000000
00000000
00000000
00022000
00000000
00000000
00000000
00000000
00000000
,
00000000
00000000
00000000
00000000
00000000
00000000
00000000
00000000
00033000
00000000
01001000
01000000
00100000
10100000
00000000
10000000
,
11000000
01000000
00100000
00101000
00000000
00001000
00010000
00010000
00010000
00001000
00010100
00000100
00001000
00001010
00000000
00000010
,
00000110
00000100
00000001
00001001
00000000
00000001
00001000
00001000
00001000
00000100
00000011
00000001
00001000
00001100
00000000
00000100
,
00010100
00010000
00001000
01001000
00000000
01000000
00010000
00100000
01000000
10000000
11000000
01000000
00100000
00110000
00000000
00100000
,
00101000
00011000
00001000
01000000
00000000
00010000
00100000
00000000
01000000
10000000
00000000
01000000
00100000
00000000
00100000
00001000
,
00010000
00000010
00000100
00000001
00000010
00000100
00000000
00000010
00000001
00000000
00001000
00000100
00000000
00010000
00001000
00000000
,
00010000
00001000
01000000
00010000
00100000
01000000
10000000
00000000
01000000
00100000
00000000
01000000
10000000
00000000
00010000
01000000
,
00000000
00100000
01000000
00010000
10000000
01000000
00100000
00000000
01000000
00100000
00000000
00100000
00001000
00000000
00010000
00000010
,
00000000
00000100
00001000
00000100
00000001
00000100
00000010
00000000
00000100
00000010
00000000
00000100
00000010
00000000
00000100
00000010
,
00000000
00000100
00000001
00000010
00000100
00001000
00000100
00000010
00000000
00000100
00000010
00000000
00000100
00000010
00000000
00000100
,
00000010
00000000
00000100
00000010
00000001
00001000
00000010
00010000
00002000
00000000
00000000
00000000
00000000
00000000
00000000
00000000
,
00000000
00000000
00000000
00000000
00000000
01003000
00010000
10000000
01000000
00100000
00010000
10000000
00100000
00010000
00100000
10000000
,
00010000
00100000
00001000
00010000
00000010
00000100
00001000
00000100
00000001
00001000
00000100
00000001
00000100
00001000
00000010
00010000
,
00001000
01000000
00010000
00100000
01000000
10000000
01000000
00010000
01000000
10000000
00100000
01000000
10000000
01000000
00010000
00100000
,
01000000
10000000
01000000
00100000
00010000
00000000
00000000
10000000
00200000
00000000
00000000
00000000
01300000
00010000
00100000
00000000
,
00000000
00000000
00000000
00000000
01000000
00010000
01000000
10000000
00100000
01000000
00001000
00010000
00000100
00001000
00000002
00000000
,
00000000
00000000
00000000
00000000
00000000
00000000
00000003
00001200
,
00000000
00000000
00000000
00000000
00000000
00000000
00010300
00000000
00000000
00001000
00000000
00000000
01000000
00000000
00000000
02020000
,
00000000
00000000
00000000
00000000
00000000
00000000
00000000
00000000
00000000
00000000
00000000
00000000
03030000
00000000
00000000
01000000
,
10000000
01000000
00010000
00100000
00001000
00010000
00000200
00000000
00000000
00000000
00000000
00000000
00000000
00000000
00000000
00000000
,
00001300
00000010
00000001
00000010
00001000
00000100
00000001
00000100
00001000
00000100
00010000
00001000
01000000
00010000
00100000
01000000
,
10000000
00000000
00000000
00000000
00000000
10010000
00000000
00000000
,
00000000
00000000
00000000
00000000
00000000
10000000
00100000
00000000
00100000
01000000
00000000
01000000
00001000
00000000
00001000
00010000
,
00000000
00010000
00000100
00000000
00000100
00001000
00000000
00001000
00000010
00000000
00000010
00000100
00000000
00000100
00000001
00000010
,
00000100
00001000
00000100
00010000
00001000
01000000
00010000
00100000
01000000
10000000
00100000
01000000
00010000
10000000
01000000
00100000
,
00010000
00100000
01000000
00100000
00010000
00001000
00000200
00000000
00000000
00000000
00000000
00000000
00000000
00000000
00000000
00000000
,
00010300
00001000
00010000
00001000
00010000
00001000
00010000
00000100
00010000
00000100
00010000
00000100
00001000
00000010
00001000
00000010
00001000
00000010
00000100
00000010
00000100
00000010
00000100
00000010
,
00000100
00000001
00000100
00000001
00000100
00000001
00001000
00000001
00001000
00000001
00001000
00000001
00002000
00000000
00000000
00000000
00000000
00000000
00003000
00000000
00000000
00000000
00000000
00000000
,
00022000
00000000
00000000
00000000
00000000
00000000
00000000
00000000
00000000
00000000
00000000
00000000
00000000
00000000
00000000
00000000
00000000
00000000
00030000
00000000
00000000
00103000
00010000
10000000
,
00010000
00000000
00000000
00000000
;
