#TITLE:Cool Blue Shark Girl;
#SUBTITLE:;
#ARTIST:megawolf77;
#TITLETRANSLIT:;
#SUBTITLETRANSLIT:;
#ARTISTTRANSLIT:;
#GENRE:;
#CREDIT:;
#MUSIC:Cool Blue Shark Girl.ogg;
#BANNER:Cool Blue Shark Girl.png;
#BACKGROUND:Cool Blue Shark Girl-bg.png;
#CDTITLE:cdtitle.png;
#SAMPLESTART:50.918;
#SAMPLELENGTH:16.271;
#SELECTABLE:YES;
#OFFSET:-0.071;
#BPMS:0.000=118.000;
#STOPS:;
#ORIGIN:;
#TAGS:;
#PREVIEWVID:;
#JACKET:Cool Blue Shark Girl-jacket.png;
#CDIMAGE:;
#DISCIMAGE:;
#BGCHANGES:0.000=Cool Blue Shark Girl-bg.png=1.000=0=0=1,
4.000=Cool Blue Shark Girl.mp4=1.000=0=0=1,
99999.000=-nosongbg-=1.000=0=0=0=StretchNoLoop====
;
#FGCHANGES:;

//--------------- dance-single - ----------------
#NOTES:
     dance-single:
     :
     Beginner:
     2:
     0.128178,0.207147,0.10923,0.015604,0,115,101,14,2,0,0,0,0,0,0.128178,0.207147,0.10923,0.015604,0,115,101,14,2,0,0,0,0,0:
0000
0000
0000
0000
,
0000
0000
0000
0000
,
0000
0000
0000
0000
,
0000
0000
0000
0000
,
0000
0000
0000
0000
,
0010
0000
0000
0000
,
0010
0000
0100
0000
,
0001
0000
1000
0000
,
0001
1000
0000
0110
,
0001
0000
0000
0000
,
1000
0000
0000
0000
,
0100
0000
0000
0000
,
0010
0000
0100
0100
,
1000
0000
0000
0000
,
0010
0000
0000
0000
,
0100
0000
0000
0000
,
0001
0000
1000
0000
,
0110
0000
0000
0000
,
1000
0000
0001
0000
,
0110
0000
0000
0000
,
1000
0000
0001
0000
,
1001
0000
0000
0000
,
0010
0000
0100
0000
,
1001
0000
0000
0000
,
0100
0010
0000
1001
,
0110
0000
0001
0000
,
1000
1000
1000
0000
,
0110
0000
0001
0000
,
0010
0010
0010
0010
,
0110
0000
0100
0000
,
1000
0000
0000
1000
,
1001
0000
0010
0000
,
1000
1000
0000
0001
,
1000
0000
0100
0000
,
0010
0000
0001
1000
,
0001
0000
0100
0000
,
0010
1000
0001
0010
,
1001
0000
0001
0000
,
1000
0000
0010
0100
,
0001
0000
1000
0000
,
0001
0100
0010
1000
,
1001
0000
0000
0000
,
1000
0000
0000
0000
,
0001
0000
0000
0000
,
0010
0000
0100
0100
,
1000
0000
0000
0000
,
0010
0000
0000
0000
,
0100
0000
0000
0000
,
0001
0000
1000
0000
,
0010
0200
0000
0000
,
0000
0000
0000
0300
,
0000
0010
0000
0000
,
1000
0000
0000
1000
,
1001
0000
0001
0000
,
0100
0000
0010
1000
,
0100
0000
0010
0000
,
0001
1000
0001
0000
,
0120
0000
0000
0000
,
0000
0000
0000
0000
,
0030
0000
0000
0000
;

//--------------- dance-single - ----------------
#NOTES:
     dance-single:
     :
     Easy:
     7:
     0.275304,0.345245,0.226262,0.031209,0.042912,247,218,29,4,0,0,0,0,0,0.275304,0.345245,0.226262,0.031209,0.042912,247,218,29,4,0,0,0,0,0:
0000
0000
0000
0000
,
0000
0000
0000
0000
,
0000
0000
0000
0000
,
0000
0000
0000
0000
,
0000
0000
0000
0000
,
0101
0000
0000
0000
,
1100
0000
1010
0000
,
0101
0000
1000
0000
,
0100
0000
0000
0000
0010
0000
0000
0000
0000
0001
0000
0000
1000
0001
0000
0000
,
0100
0000
0010
0000
1000
0000
0001
0010
,
0100
0000
0010
0000
0001
0000
1000
0100
,
0010
0000
0100
0000
1000
0000
0010
0100
,
0001
1000
1001
0110
,
1001
0000
0001
0000
1000
0000
0100
1000
,
0010
0000
0100
0000
0010
0000
1000
0001
,
0010
0000
0100
0000
0010
0000
0001
0010
,
0100
0010
0001
1000
,
0001
0100
1000
0100
,
0001
0100
0001
0001
0100
0001
0100
0100
,
0001
0010
1000
0010
,
0001
0001
1000
0001
1000
1000
0001
1000
,
0010
0001
0010
1000
,
0100
0100
1000
0100
1000
1000
0100
1000
,
0100
0001
0100
0010
,
0011
0000
1100
0000
0001
0100
0010
0000
,
1001
1000
0001
1000
,
0100
0000
0000
0100
0000
0000
0100
0000
0000
0000
0000
0000
0100
0000
0000
0000
,
1001
0001
1000
0001
,
0100
0000
0000
0100
0000
0000
0100
0000
0000
0000
0000
0000
0100
0000
0000
0000
,
1001
0001
1000
0001
,
0010
0000
0000
0010
,
1001
1000
0001
1000
,
0100
0000
0000
0000
0100
0000
0000
0000
0000
0100
0000
0000
0100
0000
0000
0000
,
0010
0001
0100
0010
,
1000
0000
0001
0000
1000
0100
0010
0001
,
1000
0001
0010
0001
,
0100
0000
0010
0000
0100
0010
1001
0000
,
1000
0001
0010
0001
,
1000
0000
0001
0000
0001
0010
0100
1000
,
0001
1000
0010
1000
,
1100
0011
0101
1010
,
1001
1000
0010
0100
,
0011
0010
0100
1000
,
1001
0001
1000
0010
,
0110
0100
0101
0011
,
1001
1000
0010
0100
,
0110
0010
1000
0001
,
1100
0100
1000
0010
,
0110
0100
0010
1000
,
0001
0000
0000
0000
2000
0000
0000
0000
0000
0000
0000
0000
0000
0001
0000
3001
,
0000
0000
0000
0000
0000
0000
0000
0100
0000
0000
0000
0000
0000
0000
0000
0000
,
0000
0010
0100
0001
,
1000
0000
0000
0100
0000
0000
0010
0000
,
0000
0001
0010
0100
,
0000
0010
0001
0200
,
0310
0000
0000
0000
0000
1000
0000
1000
0000
0000
0000
0000
0000
0000
0010
0000
,
0100
0000
0001
0000
1000
0000
0000
0001
0000
0000
0000
0000
0000
0000
0000
0000
,
0220
0000
0000
0000
,
0000
0000
0000
0000
,
0330
0000
0000
0000
;

//--------------- dance-single - ----------------
#NOTES:
     dance-single:
     :
     Medium:
     12:
     0.485962,0.506359,0.265273,0.085824,0.659281,436,402,34,11,0,0,0,0,0,0.485962,0.506359,0.265273,0.085824,0.659281,436,402,34,11,0,0,0,0,0:
0000
0000
0000
0000
,
0000
0000
0000
0000
,
0000
0000
0000
0000
,
0000
0000
0000
0000
,
0000
0000
0000
0000
,
1001
0000
0001
0000
0100
1000
0100
0001
,
1001
0000
1000
0000
1100
0100
0001
0100
,
1100
0100
0100
0100
1100
1000
1000
1000
,
1010
0000
0010
0000
0110
0000
0100
0000
0000
0101
0000
0000
1000
0010
0000
0000
,
1000
0000
0000
0001
0000
0010
0000
0001
0000
0100
0000
0010
0000
1000
0010
0000
,
0100
0000
0000
0001
0000
0010
0000
0001
0000
1000
0000
0010
0000
0100
0001
0000
,
1000
0000
0000
0001
0000
0010
0000
0001
0000
1000
0000
0100
0000
0010
0100
0000
,
0010
0000
0000
0001
0000
1000
0000
0000
0110
0000
0000
0000
1001
0000
0000
0000
,
1000
0000
0001
0100
0000
1000
0000
0100
0000
0010
0000
1000
0000
0001
0010
0000
,
0001
0000
1000
0100
0000
0001
0000
0100
0000
0010
0000
0001
0000
1000
0010
0000
,
0100
0000
0010
1000
0000
0001
0000
0010
0000
0001
0000
1000
0000
0010
0100
0000
,
0001
0000
1000
0001
0000
0010
0000
0100
0000
1000
0000
0001
0000
1000
0001
0000
,
1001
0000
1000
0000
0010
0000
0000
1000
0000
0000
0001
0000
0010
0000
0100
0000
,
1000
1000
1100
1100
0100
0100
0110
0011
,
0001
0000
0100
0000
0001
0000
0000
0010
0000
0000
0100
0000
0010
0000
0001
0000
,
0100
0100
0101
0101
0001
0001
0011
1100
,
1000
0000
0001
0000
1000
0000
0000
0010
0000
0000
1000
0000
0001
0000
1000
0000
,
0001
0001
0011
0011
0010
0010
0110
1100
,
1000
0000
0001
0000
1000
0000
0000
0010
0000
0000
1000
0000
0001
0000
1000
0000
,
1000
0001
0000
0000
0010
0100
0000
0000
0010
0100
0010
0100
0010
0000
0000
0000
,
1001
0000
0000
0000
0001
0000
0000
1000
0000
0001
0000
0000
1000
0000
0010
0000
,
0100
0000
0000
0100
0000
0000
0100
0000
0000
0000
0000
0000
0100
0000
0000
0000
,
0110
0000
0000
0000
0100
0000
0001
1000
0000
0001
0000
0010
0001
0000
1000
0000
,
0010
0000
0000
0010
0000
0000
0010
0000
0000
0000
0000
0000
0010
0000
0000
0000
,
1001
0000
0000
0000
1000
0000
0001
0010
0000
0001
0100
0001
0100
0000
0010
0000
,
1000
0001
0010
0001
1000
0010
1001
0000
,
1000
0000
0000
0000
0001
0000
0000
0010
0000
0010
0000
0100
0010
0000
0001
0000
,
1000
0000
1000
0000
0001
0000
0001
0000
0000
0101
0000
0010
1000
0100
0000
0000
,
0021
0000
0000
0000
0130
0000
1000
0100
0000
1000
0000
0010
0000
0100
0001
1000
,
0001
0000
1000
0000
0010
0000
1000
0000
0001
0010
0000
0010
0001
0000
1000
0000
,
0100
0000
0000
0000
0010
0000
0001
0100
0000
0001
0000
1000
0000
0100
1000
0001
,
0100
0000
0010
0000
1000
0001
0010
0001
0000
0010
0001
1000
0010
0000
0000
0000
,
0110
0000
0000
0000
1000
0000
0001
0010
0000
0001
0000
1000
0000
0100
1000
0100
,
0010
0000
0100
0000
1000
0000
0001
0100
0000
0001
0000
1000
0200
0000
0000
0000
,
0310
0000
0000
0000
0100
0000
1000
0001
0000
0100
0000
0001
0000
1000
0001
0010
,
0100
0000
0100
1000
0010
0000
0100
0001
0010
0000
0100
1000
0020
0000
0000
0000
,
0130
0000
0001
1000
0000
1000
0000
0001
0000
0001
0000
1000
0000
0001
1000
0000
,
0001
0000
1000
0100
0000
0100
0000
0010
0000
0010
0000
0100
0000
0010
0100
0000
,
0010
0000
0001
0100
0000
0100
0000
0010
0000
0010
0000
0100
0000
0010
0100
0000
,
0010
0000
0100
0001
0000
1000
0000
0001
1001
0000
0000
0000
0110
0000
0000
0000
,
0001
0000
1000
0010
0000
0001
0000
0010
0000
1000
0000
0010
0000
0100
0001
0000
,
1000
0000
0001
0010
0000
1000
0000
0010
0000
0001
0000
0010
0000
0100
1000
0000
,
0100
0000
1000
0010
0000
0100
0000
0001
0000
0010
0000
0100
0000
0010
0001
0000
,
0100
0010
0100
0010
0000
0100
0000
0001
0000
1000
0000
0100
0000
0010
0100
0000
,
1000
0000
0000
0000
0102
0000
0000
0000
0000
0000
0000
0000
0000
1003
0000
2000
,
0000
0000
0000
0000
0000
0000
0000
0002
0000
0000
0000
0000
0000
3003
0000
0000
,
1000
0000
0100
0000
0010
0000
0100
0000
1000
0010
0000
0100
0000
0001
0000
0010
,
0100
0000
0000
0100
0000
0000
0100
0000
0000
0000
0000
0000
0100
0000
0000
0000
,
0011
0000
0001
0100
0001
0000
0100
0010
0100
0000
0010
1000
0010
0000
1000
0000
,
0000
0000
1000
0100
1000
0000
0100
0010
0100
0000
0010
0001
2000
0000
0000
0000
,
3010
0000
0000
0000
0000
0100
0000
0200
0000
0000
0000
0000
0300
0010
0100
0001
,
1000
0000
0001
0000
0010
0100
0010
0002
0000
0000
0000
0000
0000
0000
0000
0000
,
2003
0000
0000
0020
0000
0000
0000
0000
,
0000
0000
0000
0000
,
3030
0000
0000
0000
;

//--------------- dance-single - ----------------
#NOTES:
     dance-single:
     :
     Hard:
     15:
     0.687703,0.759538,0.499337,0.093626,1.029882,617,553,64,12,0,0,0,0,0,0.687703,0.759538,0.499337,0.093626,1.029882,617,553,64,12,0,0,0,0,0:
0000
0000
0000
0000
,
0000
0000
0000
0000
,
0000
0000
0000
0000
,
0000
0000
0000
0000
,
0000
0000
0000
0000
,
1001
0000
1000
0010
1000
0000
0001
0100
0001
0000
1000
0010
1000
0001
0010
0000
,
1001
0000
1000
0100
1000
0000
0001
0010
0001
0000
1000
0100
1000
0001
0100
0001
,
1000
0010
1000
0010
1000
0010
1000
0010
0100
0010
0100
0010
0100
0010
0100
0001
,
0100
0001
0100
0001
0010
0001
0010
0001
0000
0011
0000
0000
1100
1000
0000
0000
,
0001
1000
0100
1000
0000
0100
0000
0001
0000
0100
0000
1000
0000
0010
1000
0000
,
0001
1000
0001
1000
0000
0001
0000
0100
0000
1000
0000
0100
0000
0001
1000
0000
,
1000
0010
1000
0001
0000
1000
0000
0100
0000
0001
0000
0100
0000
1000
0100
0000
,
0010
0100
0010
0001
0000
1000
0000
0001
0201
0000
0000
0000
0320
0000
0000
0000
,
1030
0001
0010
0001
0000
1010
0000
1100
0000
0101
0000
1001
0000
0001
1000
0000
,
0010
0100
0001
0100
0000
0011
0000
1010
0000
1001
0000
0101
0000
0001
0100
0000
,
0001
1000
0100
1000
0000
1100
0000
1010
0000
0110
0000
0101
0000
0001
0010
0000
,
0100
0010
0100
1000
0000
1001
0000
0110
0000
1001
0000
0101
0000
1000
0100
0000
,
1001
0000
0001
0000
1000
0000
0001
1000
0000
0001
1000
0000
0001
0000
1000
0000
,
0001
0100
0001
0100
0001
0000
1000
0000
0100
1000
0100
1000
0100
0000
1000
0000
,
0001
0000
1000
0000
0001
0000
1000
0001
0000
1000
0001
0000
1000
0000
0001
0000
,
0100
0010
0100
0010
0100
0000
0001
0000
1000
0010
1000
0010
1000
0000
1000
0000
,
0001
0000
1000
0000
0100
0000
0010
0100
0000
0010
0001
0000
0100
0000
0010
0000
,
1000
0001
0100
1000
0100
0000
0001
0000
1000
0100
0001
0100
0010
0000
1001
0000
,
1000
0000
0001
0000
0010
0000
0100
0010
0000
0100
1000
0000
0010
0000
0100
0000
,
0001
1000
0010
0001
0010
0100
0001
1000
0001
1000
0001
1000
0100
0000
0000
0000
,
1001
0000
0000
0000
0101
0000
0001
0100
0000
0100
0010
0100
0010
0000
1000
0000
,
0100
0000
0000
0100
0000
0000
0100
0000
0010
0001
0010
0001
0100
0000
0000
0000
,
1001
0000
0000
0000
1100
0000
0100
0010
0000
0010
0000
0010
0001
0000
1000
0000
,
0100
1000
0001
0100
0001
1000
0100
1000
0001
1000
0001
1000
0100
0000
0000
0000
,
1001
0000
0000
0000
0001
0000
1000
0001
0000
1000
0001
0100
0001
0000
0001
0000
,
1001
0000
0000
0000
0000
0000
0001
0000
0100
0000
0001
0000
0100
0000
0000
0010
0000
0000
1000
0000
0000
0001
0000
0000
0010
0000
0000
0001
0000
0000
1000
0000
0000
0001
0000
0000
0100
0000
0000
0000
0000
0000
0000
0000
0000
0000
0000
0000
,
1001
0000
0000
0000
1100
0000
1000
0100
0000
0100
0000
0100
0010
0000
0100
0000
,
1000
1000
0001
0100
0010
0010
0100
0001
0000
1001
0000
1000
0001
0010
0100
0000
,
1001
0001
0010
0000
0001
1000
0010
0000
1000
0001
0100
0010
1000
0001
0010
0100
,
1000
0000
0100
0010
0001
0000
0001
0000
0001
0010
1000
0010
0100
0010
0001
0000
,
1000
0000
0001
0000
0100
0010
1000
0000
0001
1000
0100
1000
0001
0000
1000
0000
,
0001
0100
1000
0100
0010
1000
0001
0010
1000
0010
0100
0010
0001
0000
0000
0000
,
1001
1000
0010
0000
1000
0001
0010
0000
0001
1000
0100
0010
0001
1000
0010
0100
,
0001
0000
0100
0010
1000
0000
1000
0000
1000
0010
0001
0010
0100
0010
1000
0000
,
0001
0000
1000
0000
0100
0010
0001
0000
1000
0001
0100
0001
1000
0000
0001
0000
,
1000
0100
0001
0100
0010
0001
1000
0010
0001
0010
0100
0010
1000
0000
0000
0000
,
0001
0100
0001
0100
0000
0101
0000
0011
0000
0101
0000
0011
0000
0001
0100
0000
,
0010
1000
0010
1000
0000
1010
0000
1100
0000
1010
0000
1100
0000
1000
0001
0000
,
1000
0001
1000
0001
0000
0101
0000
1001
0000
1100
0000
1001
0000
1000
0100
0000
,
0010
0100
0010
0001
0000
0011
0000
0010
0200
0000
0000
0000
2300
0000
0000
0000
,
3010
1000
0010
0100
0000
0110
0000
1010
0000
0110
0000
1010
0000
0100
0001
0000
,
1000
0001
0010
0001
0000
0011
0000
1001
0000
0011
0000
1001
0000
1000
0100
0000
,
0010
0100
0010
0100
0000
1100
0000
1010
0000
1100
0000
1010
0000
1000
0001
0000
,
1000
0100
0001
0100
1000
0100
0010
0001
0000
0110
0000
1001
0000
0001
1000
0000
,
0000
0000
0000
0000
0012
0000
0000
0000
0000
0000
0000
0000
0000
1000
0000
2003
,
0100
0000
0000
0100
0000
0000
0100
0000
3002
0000
0000
0000
0100
0000
0000
0000
,
1003
0000
0001
0010
0100
0010
0001
0000
1000
0001
0000
0100
0000
0001
0000
0010
,
0100
0010
0001
0100
0010
1000
0100
0010
0001
1000
0001
0010
0100
0000
0000
0000
,
1100
0000
1000
0001
0010
0010
0100
1000
0100
0100
0010
0001
1000
1000
0001
0100
,
0000
0000
0000
0000
0000
0000
0010
0000
0000
0100
0000
0000
0001
0000
0000
0001
0000
0000
1000
0000
0000
0100
0000
0000
0010
0000
0000
0010
0000
0000
0001
0000
0000
1000
0000
0000
0001
0000
0100
0000
0010
0000
1000
0000
0001
0000
0010
0000
,
0200
0000
0000
0000
0000
1000
0000
2000
0000
0000
0000
0000
3300
1000
0100
1000
,
0001
0000
0001
0000
0001
0010
0001
0200
0000
0000
0000
0000
0000
0000
0300
0000
,
1002
0000
0000
0200
0000
0000
0000
0000
,
0000
0000
0000
0000
,
0303
0000
0000
0000
;

//--------------- dance-double - ----------------
#NOTES:
     dance-double:
     :
     Easy:
     7:
     0.274189,0.345245,0.335492,0.062417,0.003901,246,203,43,8,0,0,0,0,0,0.274189,0.345245,0.335492,0.062417,0.003901,246,203,43,8,0,0,0,0,0:
00000000
00000000
00000000
00000000
,
00000000
00000000
00000000
00000000
,
00000000
00000000
00000000
00000000
,
00000000
00000000
00000000
00000000
,
00000000
00000000
00000000
00000000
,
10010000
00000000
00000000
00000000
,
01100000
00000000
00110000
00000000
,
00200000
00300000
00002000
00003000
,
00020000
00000000
00000000
00000000
00030020
00000000
00000000
00000000
00000030
00000100
00000000
00000000
00000001
00000000
00000000
00000000
,
00001000
00000100
00010000
00001000
,
01000000
00100000
10000000
00010000
,
00100000
01000000
10000000
00010000
,
00100000
00001000
00011000
00011000
,
00010000
00000100
00001000
00000010
,
00000100
00000001
00000010
00000100
,
00000010
00000001
00001000
00000100
,
00010000
00001000
01000000
00100000
,
10010000
10000000
00010000
10000000
,
00010000
00100000
00010000
00010000
00100000
00010000
00100000
00100000
,
00001000
00010000
00000100
00001000
,
00000010
00000010
00000100
00000010
00000100
00000100
00000010
00000100
,
00000001
00001000
00000100
00010000
,
00001000
00001000
01000000
00001000
01000000
01000000
00001000
01000000
,
00010000
01000000
00100000
10000000
,
10010000
00000000
00110000
00000000
00100000
00001000
00010000
00000000
,
00010100
00000100
00001000
00000010
,
00000100
00000100
00000100
00001001
,
00000101
00000001
00001000
00000100
,
00010000
00001000
01000000
01100000
,
10010000
10000000
00010000
00100000
,
00101000
00001000
00010000
00001100
,
00000011
00000001
00000100
00000010
,
00001010
00001010
00000000
00001100
,
00000100
00010000
00001000
01000000
,
00100000
10000000
01000000
01100000
,
00110000
10000000
00010000
01000000
,
00100000
01000000
00001000
00011000
,
00010100
00001000
00000100
00001000
,
00000010
00000100
00000001
00000110
,
00001100
00000100
00010000
00001000
,
01001000
01010000
01100000
10100000
,
10010000
10000000
00010000
00100000
,
00101000
00001000
00010000
00000100
,
00001100
00001000
00000010
00000100
,
00000101
00000001
00000011
00001100
,
00001001
00001000
00000100
00010000
,
00011000
00001000
01000000
00100000
,
10100000
10000000
00100000
01000000
,
00001000
00010000
00000100
00001000
,
00001001
00000002
00000000
00000003
,
00000100
00000000
00000000
00000110
,
00001010
00000000
00000010
00000000
,
00010000
00010000
00010000
00011000
,
01001000
00000000
01000000
00000000
,
00100000
00000000
10000000
00020000
,
00130000
00000000
01000000
00000000
,
10000000
00010000
00100000
00000000
,
00002000
00000000
00000000
00020000
00000000
00000000
00000000
00000000
,
00000000
00000000
00000000
00000000
,
00033000
00000000
00000000
00000000
;

//--------------- dance-double - ----------------
#NOTES:
     dance-double:
     :
     Medium:
     12:
     0.468128,0.529375,0.265273,0.085824,0.526644,420,386,34,11,0,0,0,0,0,0.468128,0.529375,0.265273,0.085824,0.526644,420,386,34,11,0,0,0,0,0:
00000000
00000000
00000000
00000000
,
00000000
00000000
00000000
00000000
,
00000000
00000000
00000000
00000000
,
00000000
00000000
00000000
00000000
,
00000000
00000000
00000000
00000000
,
00101000
00000000
00000000
00000000
,
00010100
00000000
00011000
00000000
,
00000100
00010000
00001000
00100000
00001000
00010000
00000100
00010000
,
00001000
00000000
00010000
00000000
00001000
00000000
00010000
00000000
00000000
00011000
00000000
00000000
00010000
00001000
00000000
00000000
,
00001000
00000000
01000000
00100000
00000000
10000000
00000000
00010000
00000000
00100000
00000000
01000000
00000000
10000000
01000000
00000000
,
10000000
00000000
00010000
00100000
00000000
00001000
00000000
00010000
00000000
00000100
00000000
00001000
00000000
00000010
00000100
00000000
,
00000010
00000000
00000100
00000001
00000000
00000010
00000000
00000100
00000000
00000010
00000000
00000001
00000000
00001000
00000001
00000000
,
00001000
00000000
00000010
00001000
00000000
00000100
00000000
00001000
00000200
00000000
00000000
00000000
00020300
00000000
00000000
00000000
,
00031000
00000000
01000000
00100000
00000000
10000000
00000000
00010000
00000000
00100000
00000000
01000000
00000000
10000000
01000000
00000000
,
00100000
00000000
00001000
00010000
00000000
00000100
00000000
00001000
00000000
00000010
00000000
00000100
00000000
00000001
00000010
00000000
,
00000100
00000000
00001000
00000010
00000000
00000100
00000000
00000001
00000000
00001000
00000000
00000100
00000000
00010000
00001000
00000000
,
00100000
00010000
00100000
00010000
00000000
00100000
00000000
01000000
00000000
10000000
00000000
00100000
00000000
01000000
00010000
00000000
,
00100000
00000000
00001000
00000000
00010000
00000000
00000000
00000100
00000000
00000000
00001000
00000000
00000010
00000000
00000100
00000000
,
00000001
00000001
00001001
00001001
00001000
00001000
00001001
00000110
,
00000010
00000000
00010000
00000000
00001000
00000000
00000000
01000000
00000000
00000000
00100000
00000000
10000000
00000000
00010000
00000000
,
00100000
00100000
01100000
01100000
01000000
01000000
11000000
00110000
,
00100000
00000000
00001000
00000000
00010000
00000000
00000000
00000100
00000000
00000000
00001000
00000000
00000010
00000000
00000100
00000000
,
00000001
00000001
00001001
00001001
00001000
00001000
00001100
00010100
,
00001000
00000000
01000000
00000000
00100000
00000000
00000000
10000000
00000000
00000000
00100000
00000000
01000000
00000000
00010000
00000000
,
00100000
00001000
00000000
00000000
00010000
00000010
00000000
00000000
00010000
00001000
00010000
00001000
00010000
00000000
00000000
00000000
,
00101000
00000000
00000000
00000000
00001000
00000000
00000000
00010000
00000000
00010000
00000000
00010000
00001000
00000000
00010000
00000000
,
00000100
00000000
00000000
00000100
00000000
00000000
00000100
00000000
00000000
00000000
00000000
00000000
00001100
00000000
00000000
00000000
,
00000011
00000000
00000000
00000000
00000001
00000000
00000100
00000001
00000000
00000001
00000000
00000001
00000100
00000000
00000010
00000000
,
00001000
00000000
00000000
00001000
00000000
00000000
00001000
00000000
00000000
00000000
00000000
00000000
00001100
00000000
00000000
00000000
,
00010100
00000000
00000000
00000000
00010000
00000000
00001000
01000000
00000000
01000000
00000000
01000000
00100000
00000000
10000000
00000000
,
00010000
10000000
01000000
00010000
01000000
10000000
10100000
00000000
,
01010000
00000000
00000000
00000000
00010000
00000000
00100000
00001000
00000000
00001000
00000000
00001000
00010000
00000000
00010000
00000000
,
00010100
00000000
00000000
00000000
00011000
00000000
00000000
00000000
00000000
00001000
00000000
00000000
01000000
00100000
10000000
00000000
,
00010000
00100000
10000000
00100000
00010000
01000000
00010000
00100000
,
00001000
00010000
00000100
00000100
00001000
00000010
00000001
00000010
,
00001000
00000100
00010000
00001000
01000000
00100000
10000000
00010000
,
10000000
01000000
00100000
00010000
00001000
00000100
00000110
00000000
,
00000010
00000001
00000100
00001000
00000100
00000010
00010000
00001000
,
00100000
01000000
10000000
10000000
01000000
00100000
00010000
00001000
,
00010000
00000100
00001000
00000010
00000100
00000001
00000100
00000010
,
00001010
00110000
00001010
00011000
,
00001000
00000000
00000000
01000000
00000000
00100000
00000000
10000000
00000000
00010000
00000000
00100000
00000000
01000000
10000000
00000000
,
01000000
00000000
00000000
00100000
00000000
00001000
00000000
00010000
00000000
00000100
00000000
00001000
00000000
00000010
00000100
00000000
,
00000001
00000000
00000000
00001000
00000000
00000100
00000000
00010000
00000000
00001000
00000000
01000000
00000000
00100000
10000000
00000000
,
00010000
00000000
00100000
00001000
00000000
00010000
00000000
00000100
00010000
00000000
00000000
00000000
00011000
00000000
00000000
00000000
,
01001000
00000000
00001000
01000000
00000000
00001000
00000000
00010000
00000000
00000100
00000000
00001000
00000000
00000010
00000100
00000000
,
00000001
00000000
00000010
00000100
00000000
00000010
00000000
00000001
00000000
00000100
00000000
00000010
00000000
00001000
00000100
00000000
,
00010000
00001000
00010000
00000000
00001000
01000000
00001000
00000000
01000000
00100000
01000000
00000000
00100000
10000000
00100000
00000000
,
10000000
01000000
10000000
01000000
00000000
01000000
00000000
00100000
00000000
00010000
00000000
00001000
00000000
00000100
00000010
00000000
,
00000001
00000000
00000000
00000000
00001200
00000000
00000000
00000000
00000000
00000000
00000000
00000000
00000000
00010300
00000000
00010000
,
00001000
00000000
00000000
00001000
00000000
00000000
00001000
00000000
00000000
00000000
00000000
00000000
00001000
00000000
00000000
00000000
,
00011000
00000000
00001000
00000000
00010000
00000000
00000100
00000000
00001000
00000000
00000000
00000010
00000000
00000100
00000000
00000001
,
00000020
00000000
00000000
00000230
00000000
00000000
00020300
00000000
,
00031000
00000000
00001000
01000000
00001000
00000000
01000000
00100000
01000000
00000000
00100000
10000000
00100000
00000000
10000000
00010000
,
00000000
00000000
00100000
00010000
00100000
00000000
01000000
10000000
01000000
00000000
10000000
00100000
02000000
00000000
00000000
00000000
,
03010000
00000000
00000000
00000000
00000000
00100000
00000000
00200000
00000000
00000000
00000000
00000000
00000000
00310000
00100000
01000000
,
10000000
00000000
00010000
00000000
01000000
00001000
00010000
00000200
00000000
00000000
00000000
00000000
00000000
00000000
00000000
00000000
,
00020300
00000000
00000000
00002000
00000000
00000000
00000000
00000000
,
00000000
00000000
00000000
00000000
,
00033000
00000000
00000000
00000000
;

//--------------- dance-double - ----------------
#NOTES:
     dance-double:
     :
     Hard:
     15:
     0.630859,0.759538,0.265273,0.163845,0.975267,566,532,34,21,0,0,0,0,0,0.630859,0.759538,0.265273,0.163845,0.975267,566,532,34,21,0,0,0,0,0:
00000000
00000000
00000000
00000000
,
00000000
00000000
00000000
00000000
,
00000000
00000000
00000000
00000000
,
00000000
00000000
00000000
00000000
,
00000000
00000000
00000000
00000000
,
00010100
00010000
00001000
01000000
00100000
10000000
01000000
00100000
,
00110000
00000000
00100000
00000000
00001000
00000000
00010000
00000000
00010010
00000000
00000010
00000000
00000100
00000000
00000001
00001000
,
00000001
00000010
00000001
00000010
00000001
00000010
00000001
00000010
00000100
00001000
00000100
00001000
00000100
00001000
00000100
00001000
,
00000100
00010000
00000100
00010000
00001000
00010000
00001000
00010000
00000000
00011000
00000000
00000000
00000100
00000100
00000000
00000000
,
00001100
00001000
00000001
00000100
00000000
00000010
00000000
00001000
00000000
00000010
00000000
00000100
00000000
00000010
00001000
00000000
,
00000100
00010000
00001000
00010000
00000000
00001000
00000000
01000000
00000000
00010000
00000000
00100000
00000000
01000000
10000000
00000000
,
00010000
00100000
00010000
00100000
00000000
01000000
00000000
10000000
00000000
00010000
00000000
01000000
00000000
00100000
10000000
00000000
,
00010000
00100000
00001000
00100000
00000000
00001000
00000000
00010000
00010200
00000000
00000000
00000000
00002300
00000000
00000000
00000000
,
00003010
00000100
00000010
00001000
00000000
00000001
00000000
00000010
00000000
00001000
00000000
00000010
00000000
00000001
00000010
00000000
,
00000100
00001000
00000010
00010000
00000000
00001000
00000000
01000000
00000000
00100000
00000000
10000000
00000000
00010000
00100000
00000000
,
01000000
10000000
01000000
00100000
00000000
01000000
00000000
10000000
00000000
00100000
00000000
00010000
00000000
00100000
01000000
00000000
,
00001000
00010000
00001000
00010000
00000000
00000100
00000000
00010000
00000000
00001000
00000000
01000000
00000000
00001000
00010000
00000000
,
00000100
00000000
00001000
00000000
00000010
00000000
00000100
00000001
00000000
00000100
00000001
00000000
00001000
00000000
00000100
00000000
,
00010000
00001000
00010000
00001000
00010000
00000000
00011000
00000000
00001000
01000000
00001000
01000000
00001000
00000000
01001000
00000000
,
01000000
00000000
00100000
00000000
10000000
00000000
00010000
00100000
00000000
00010000
00100000
00000000
01000000
00000000
10000000
00000000
,
00010000
10000000
00010000
10000000
00010000
00000000
10010000
00000000
01000000
00010000
01000000
00010000
01000000
00000000
00110000
00000000
,
00010000
00000000
00100000
00000000
00001000
00000000
00010000
00001000
00000000
00001000
00010000
00000000
00000010
00000000
00001000
00000000
,
00000100
00000010
00000100
00000010
00000100
00000000
00000110
00000000
00001000
00000001
00001000
00000001
00001000
00000000
00001001
00000000
,
00001000
00000000
00000100
00000000
00010000
00000000
00001000
00010000
00000000
00001000
00010000
00000000
00001000
00000000
00100000
00000000
,
00010000
00100000
01000000
00000000
00100000
01000000
10000000
00000000
00010000
10000000
00010000
10000000
01000000
00000000
00000000
00000000
,
10100000
00000000
00000000
00000000
01000000
00000000
00010000
00100000
00000000
00001000
00010000
00001000
00010000
00000000
00000100
00000000
,
00001000
00000000
00000000
00001000
00000000
00000000
00001000
00000000
00000000
00000000
00000000
00000000
00002100
00000000
00000000
00000000
,
00003001
00000000
00000000
00000000
00000001
00000000
00000100
00000010
00000000
00000010
00000000
00000010
00001000
00000000
00000100
00000000
,
00010000
00001000
00010000
00001000
00010000
00001000
00010000
00001000
00010000
00001000
00010000
00001000
00012000
00000000
00000000
00000000
,
01003000
00000000
00000000
00000000
01100000
00000000
00010000
10000000
00000000
00010000
00100000
00010000
00100000
00000000
01000000
00000000
,
10000000
00000000
00010000
00100000
00001000
00010000
00000100
00001000
00000010
00000100
00000001
00000100
00000002
00000000
00000000
00000000
,
00001003
00000000
00000000
00000000
00010100
00000000
00010000
00000100
00000000
00000100
00000000
00000100
00010000
00000000
00001000
00000000
,
00100000
00010000
00100000
10000000
00100000
00010000
00001000
00000100
00000000
00000011
00000000
00000100
00001000
00000010
00000200
00000000
,
00000301
00001000
00000100
00000000
00000100
00001000
00000001
00000000
00001000
00000000
00000010
00010000
00001000
01000000
00100000
10000000
,
01000000
00000000
01000000
00000000
11000000
00000000
11000000
00000000
10000000
01000000
00100000
00010000
00001000
00000100
00000010
00000000
,
00001001
00000000
00000101
00000000
00001000
00000000
00000010
00000100
00000000
00000001
00000000
00001000
00000100
00010000
00000010
00000100
,
00000001
00000100
00000010
00001000
00000010
00010000
00001000
01000000
00100000
10000000
01000000
00100000
00110000
00000000
00000000
00000000
,
10000000
00010000
01000000
00000000
00010000
10000000
01000000
00000000
10000000
00100000
01000000
00010000
00100000
00001000
00010000
00000100
,
00000010
00000000
00000001
00000000
00000011
00000000
00000011
00000000
00000001
00000100
00001000
00010000
00100000
10000000
00010000
00000000
,
10010000
00000000
10000000
00000000
00010000
00000000
00100000
00001000
00000000
00010000
00000000
00000100
00001000
00000000
00000010
00000000
,
00000100
00000010
00001000
00100000
10000000
01000000
00100000
00010000
00001000
00010000
00000010
00000100
00000002
00000000
00000000
00000000
,
00001003
00000001
00000010
00000100
00000000
00001000
00000000
00010000
00000000
00001000
00000000
01000000
00000000
01000000
00010000
00000000
,
10000000
00010000
01000000
00010000
00000000
00100000
00000000
00001000
00000000
00010000
00000000
00000010
00000000
00000100
00000001
00000000
,
00000010
00000100
00000010
00000001
00000000
00000010
00000000
00000001
00000000
00000100
00000000
00000010
00000000
00000010
00010000
00000000
,
00001000
01000000
00001000
00010000
00000000
00001000
00000000
01000000
01200000
00000000
00000000
00000000
20300000
00000000
00000000
00000000
,
31000000
01000000
10000000
01000000
00000000
10000000
00000000
00010000
00000000
00100000
00000000
00001000
00000000
00010000
00000010
00000000
,
00000100
00000100
00000001
00000100
00000000
00000001
00000000
00000010
00000000
00001000
00000000
00000010
00000000
00000100
00001000
00000000
,
00000001
00000000
00001000
00000000
00000001
00000000
00001000
00000000
00000010
00000000
00001000
00000000
00000010
00000000
00001000
00000100
00001000
00000000
00000100
00000000
00010000
00000000
00001000
00000000
00010000
00000000
00001000
00000000
00010000
00000000
00001000
00000000
,
00010000
00010000
00001000
00011000
00000000
00101000
00000000
00010010
00000000
00011000
00000000
01001000
00000000
00010000
00000200
00000000
,
00001300
00000000
00000000
00000000
00000000
00000000
00000000
00000000
00000000
00000000
00000001
00000000
00000020
00000000
00000000
00000000
00000000
00000000
00000000
00000000
00000000
00000000
00000000
00000000
00000000
00000000
00000000
00000000
00000000
00000000
00000000
00000000
00000000
00000000
00000000
00000000
00000030
00000000
00000000
00000100
00000000
00000000
00000000
00000000
00000000
00000200
00000000
00000000
,
00010000
00000000
00000000
00010000
00000000
00000000
00010300
00000000
00002000
00000000
00000000
00000000
00013000
00000000
00000000
00000000
,
00101000
00000000
00010000
00100000
01000000
00100000
00010000
00000000
10000000
00100000
00000000
00010000
00000000
00100000
00000000
01000000
,
00002000
00000000
00000000
00010000
00000000
00000000
00023000
00000000
00000000
00000000
00000000
00000000
00000100
00000000
00000000
00000000
,
00031000
00000000
00010000
00010000
00000100
00000100
00001000
00000010
00000100
00000100
00000001
00000010
00000100
00000100
00010000
00010000
,
00000000
00000000
00000000
00001000
00000000
00000000
00001000
00000000
00000000
01000000
00000000
00000000
01000000
00000000
00000000
00100000
00000000
00000000
10000000
00000000
00000000
00010000
00000000
00000000
00010000
00000000
00000000
00100000
00000000
00000000
01000000
00000000
00000000
01000000
00000000
00000000
10000000
00000000
01000000
00000000
00100000
00000000
00010000
00000000
00100000
00000000
01000000
00000000
,
20000000
00000000
00000000
00000000
00000000
30010000
00000000
00020000
00000000
00000000
00000000
00000000
00030000
00010000
00100000
00001000
,
00010000
00000000
00010000
00000000
00010000
00000010
00000100
00000002
00000000
00000000
00000000
00000000
00000000
00000003
00000000
00000000
,
00002020
00000000
00003000
00020000
00000000
00000000
00000000
00000000
,
00000000
00000000
00000000
00000000
,
00030030
00000000
00000000
00000000
;
