#TITLE:Clover (BMS Edit);
#SUBTITLE:;
#ARTIST:Est;
#TITLETRANSLIT:;
#SUBTITLETRANSLIT:;
#ARTISTTRANSLIT:;
#GENRE:;
#CREDIT:;
#MUSIC:Clover (BMS Edit).ogg;
#BANNER:[Mother Nature] - Clover.png;
#BACKGROUND:[Mother Nature] - Clover-bg.png;
#CDTITLE:;
#SAMPLESTART:70.459;
#SAMPLELENGTH:13.714;
#SELECTABLE:YES;
#OFFSET:-0.172;
#BPMS:0.000=140.000;
#STOPS:;
#BGCHANGES:;
#FGCHANGES:;

//--------------- dance-single - Pandemonium X ----------------
#NOTES:
     dance-single:
     Pandemonium X:
     Beginner:
     2:
     0,0,0,0,0:
0000
0000
0000
0000
,
0000
0000
0000
0000
,
0000
0000
0000
0000
,
0000
0000
0000
0000
,
0000
0000
0000
0000
,
0000
0000
0000
0000
,
0000
0000
0000
0000
,
0000
0000
0000
0000
,
0000
0000
0000
0000
,
0001
0000
0000
0000
,
1000
0000
0000
0000
,
0010
0000
0000
0000
,
0100
0000
0000
0000
,
0001
0000
1000
1000
,
0000
0000
0010
0010
,
0000
0000
0100
0100
,
0000
0000
0001
0001
,
0000
0000
0010
0100
,
0000
0000
1000
0010
,
0000
0000
0100
0001
,
0000
0000
1000
0001
,
0000
0000
0010
0100
,
0000
0000
1000
0010
,
0000
0000
0100
0001
,
0000
0000
1000
0001
,
0110
0000
0000
0000
,
0000
0000
0000
0000
,
0000
0000
0000
0000
,
0000
0000
0000
0000
,
0000
0000
0000
0000
,
0000
0000
0000
0000
,
0000
0000
0000
0000
,
0000
0000
0000
0000
,
0001
0000
0000
0000
,
1000
0000
0000
0000
,
0010
0000
0000
0000
,
0100
0000
0000
0000
,
0010
0000
0000
0000
,
0000
0000
1000
1000
,
1000
0000
0000
0000
,
0000
0000
0000
0000
,
0001
0000
0000
0000
,
0010
0000
0001
0000
,
0100
0000
0000
0010
,
0100
0000
0000
0000
,
0010
0000
0000
0100
,
0001
1000
0001
1000
,
0001
0000
0000
0000
,
0010
0000
0100
0010
,
0100
0000
1000
0000
,
0010
0000
0100
0000
,
0001
0000
0010
0000
,
0100
0000
1000
0000
,
0001
0000
0000
0000
,
0000
0000
1000
0001
,
1000
0000
0000
0000
,
0000
0000
0010
0000
,
0100
0000
0010
0000
,
1000
0000
0100
0000
,
0010
0000
0100
0000
,
1000
0001
0010
0000
,
0100
0000
0010
0000
,
0001
0000
0100
0010
,
1000
0000
1000
0000
,
0001
0000
0001
0000
,
1000
0000
0100
0000
,
0010
0000
0001
0000
,
1000
0000
0100
0000
,
0010
0000
0001
0000
,
0010
0000
0001
0000
,
1001
0000
0000
0000
,
1000
0000
0010
0000
,
1001
0000
0000
0000
,
0110
0000
0000
0000
;

//--------------- dance-single - Pandemonium X ----------------
#NOTES:
     dance-single:
     Pandemonium X:
     Easy:
     5:
     0,0,0,0,0:
0000
0000
0000
0000
,
0000
0000
0000
0000
,
0000
0000
0000
0000
,
0000
0000
0000
0000
,
0000
0000
0000
0000
,
0000
0000
0000
0000
,
0000
0000
0000
0000
,
0000
0000
0000
0000
,
0000
0000
0000
0000
,
1000
0001
0000
0010
,
0000
0001
0000
0100
,
0000
0010
0000
1000
,
0000
0100
0000
0010
,
0001
0000
1000
0100
,
0010
0000
0100
1000
,
0010
0000
0100
0001
,
0010
0000
0100
0010
,
0001
0000
1000
0001
,
0100
0000
0010
1000
,
0100
0000
0010
0001
,
1000
0000
0001
0100
,
0010
0000
0100
0001
,
1000
0000
0100
0010
,
0001
0000
0010
0001
,
1000
0000
0001
1000
,
1002
0000
0000
0003
,
0020
0030
0200
0300
,
0020
0000
0000
0130
,
2000
0000
0000
3000
,
0002
0000
0003
2000
,
3020
2030
3200
0320
,
0032
0000
0000
0003
,
0020
0030
0001
0100
,
0020
0030
0200
0300
,
0002
0003
2000
3000
,
0200
0300
0020
0030
,
0200
0300
2000
3000
,
0020
0000
0000
0000
,
0000
0000
0230
0302
,
2000
0000
0000
0000
,
0000
0000
0000
3003
,
0002
0100
0000
0103
,
0020
1030
0200
0310
,
0002
0013
0000
0020
,
0230
1000
0000
1300
,
0200
0010
0000
0320
,
0032
0203
0320
2030
,
3002
1000
0000
1003
,
0200
0310
0200
2300
,
3002
0000
0203
0000
,
2300
0000
3200
0000
,
0302
0000
0023
0000
,
2030
0000
3020
0000
,
0032
0000
0000
0000
,
0000
0000
0203
0320
,
0230
0000
0000
0000
,
0000
0000
0302
0000
,
1003
0001
1000
0000
,
0001
0100
0001
0000
,
0100
0010
0100
0000
,
0010
1000
0100
0010
,
0002
0000
0003
0020
,
0032
0203
0320
2030
,
3200
1000
0000
1300
,
0002
0100
0203
0320
,
1030
1000
0001
0001
,
0200
0000
0320
0000
,
1030
1000
0001
0001
,
0020
0000
0230
0000
,
1300
0100
0010
0001
,
1001
0000
0001
1000
,
1000
0100
0010
0001
,
1001
0000
1000
0001
,
0110
0000
0000
0000
;

//--------------- dance-single - Pandemonium X ----------------
#NOTES:
     dance-single:
     Pandemonium X:
     Medium:
     10:
     0.371084,0.393148,0.035102,0.217635,0.122859,334,5,31,0,0,0,0.371084,0.393148,0.035102,0.217635,0.122859,334,5,31,0,0,0:
0000
0000
0000
0000
,
0000
0000
0000
0000
,
0000
0000
0000
0000
,
0000
0000
0000
0000
,
0000
0000
0000
0000
,
0000
0000
0000
0001
0000
0001
0000
0001
,
0000
0000
0000
0000
0000
0010
0000
0010
,
0000
0000
0000
0001
0000
0001
0000
0001
,
0000
0000
0000
0000
0000
0010
0100
0010
,
0001
0000
0100
0010
1000
0000
1001
0000
,
1000
0000
0100
0010
0001
0000
1100
0000
,
1000
0000
0001
0100
0010
0000
1010
0000
,
1000
0000
0001
0010
0100
0000
0011
0000
,
0001
0000
1000
0100
0010
0000
1100
0000
,
1000
0000
0010
0100
0001
0000
0101
0000
,
0001
0000
1000
0010
0100
0000
1001
0000
,
1000
0000
0001
0010
0100
0000
1001
0000
,
0101
0000
0001
0100
0010
0100
0001
1000
,
0100
0000
0010
0000
0100
1000
0010
0100
,
0010
0000
0100
0010
1000
0100
0010
0001
,
1000
0000
0001
0000
1000
0001
0010
0100
,
1000
0000
0001
0100
0001
0010
0100
1000
,
0001
0000
1000
0000
0001
1000
0100
0010
,
0001
0000
0100
0000
0010
0100
0001
0010
,
0200
0000
0000
0000
0310
0001
1000
0100
,
2000
0000
0000
0000
,
3020
0000
2030
0000
,
3020
0000
0000
0000
0000
0000
0130
0001
,
0020
0000
0000
0000
,
0230
0000
0000
0320
,
0032
2003
3020
2030
,
3002
0000
0000
0000
,
0023
0000
0230
2300
,
3002
0103
0002
1003
,
0200
0310
0200
1300
,
0020
1030
0020
0130
,
0002
0013
0002
0103
,
0020
1030
0010
0100
,
0001
0010
0200
0320
,
0032
1003
0010
0100
,
2002
0000
0000
3003
,
0001
0000
0000
0010
0000
0000
0010
0000
0000
0000
0000
0100
0000
0000
0100
0000
,
0000
0000
0000
1000
0000
0000
1000
0000
0000
0000
0000
0010
0000
0000
0010
0000
,
0000
0000
0000
0100
0000
0000
0100
0000
0000
0000
0000
0001
0000
0000
0001
0000
,
0000
0000
0000
0010
0000
0000
0010
0000
0000
0000
0000
0100
0000
0000
0100
0000
,
0010
0000
0000
0010
0000
0000
0001
0000
0000
0000
0000
1000
0000
0000
0100
0000
,
1000
0000
0000
1000
0000
0000
0010
0000
0000
0000
0000
0100
0000
0000
0001
0000
,
0100
0000
0000
0010
0000
0000
0100
0000
0000
0000
0000
0010
0000
0000
1000
0000
,
0001
0000
0000
1000
0000
0000
0100
0000
0010
0000
0000
0100
0000
0000
0010
0000
,
0002
0000
0103
0010
2000
0000
3001
0010
,
0200
0000
0310
0001
2000
0000
3100
1000
,
0020
0000
0130
0001
2000
0000
3001
0010
,
0200
0000
0310
0001
2000
0000
3010
0100
,
0002
0000
0000
1003
0000
0000
0100
0000
0010
0000
0000
0100
0000
0000
1000
0000
,
0010
0000
0000
0100
0000
0000
0001
0000
0020
0000
0000
0000
0230
0000
0000
0000
,
2300
0000
0000
3010
0000
0000
0100
0000
0010
0000
0000
1000
0000
0000
0001
0000
,
0000
0000
0000
1000
0000
0000
0001
0000
0000
1000
0001
0000
0100
0000
0010
0000
,
1000
0101
0001
1100
,
0010
1001
1000
0011
,
0001
1010
1000
0011
,
0001
0010
0100
1000
0100
0010
0100
1000
,
0001
0000
1000
0010
0100
0000
0010
1000
,
0001
0000
0010
0100
1000
0000
0100
0010
,
0001
0010
0100
1000
,
0010
1000
0001
0010
,
0000
0000
0001
0010
0000
0000
0001
0010
0000
0000
0001
0010
0000
0000
0001
0000
,
1000
0010
0100
0001
,
0000
0000
1000
0010
0000
0000
1000
0010
0000
0000
1000
0010
0000
0000
1000
0010
,
1000
0100
0010
0001
,
1000
0010
0100
0001
0010
0100
0010
0001
,
1000
0000
0000
0000
1000
0100
0010
0001
,
1000
0010
0100
0010
1000
0100
0010
0001
,
1001
0000
0000
0000
0001
0010
0100
1000
,
1001
0000
0000
0000
;

//--------------- dance-single - Pandemonium X ----------------
#NOTES:
     dance-single:
     Pandemonium X:
     Hard:
     13:
     0,0,0,0,0:
0000
0000
0000
0000
,
0000
0000
0000
0000
,
0000
0000
0000
0000
,
0000
0000
0000
0000
,
0000
0000
0000
0000
,
0000
0000
0000
0001
0000
0001
0000
0000
,
0000
0000
0000
0000
0000
0010
0000
0010
,
0000
0000
0000
0001
0000
0001
0000
0000
,
0000
0000
0000
0000
0000
0001
0010
0010
,
0001
0000
0010
0001
0000
0100
0000
0010
0000
0000
0100
0010
0000
0100
0000
0001
,
0000
0000
1000
0100
0000
1000
0000
0010
0000
0000
0100
0010
0000
1000
0000
0100
,
0000
0000
0010
0001
0000
0001
0000
1000
0000
0000
0010
0100
0000
0100
0000
0001
,
0000
0000
0010
0100
0000
0100
0000
1000
0000
0000
0010
1000
0000
1000
0000
0001
,
0100
0000
0010
1000
0001
0010
0100
0010
,
0001
0000
1000
0000
0100
0010
0001
1000
,
0100
0000
0010
0100
1000
0010
0100
0001
,
0010
0000
0100
0000
0010
0100
0010
0001
,
0100
0010
1000
0001
0010
1000
0010
0001
,
0100
0001
0010
0001
1000
0100
0001
0100
,
1000
0010
0100
0001
0010
1000
0010
0100
,
1000
0001
0010
0100
1000
0010
0001
0010
,
0100
0000
0001
0010
0000
0100
0000
0010
0000
0000
0100
1000
0000
0001
0000
0100
,
0000
0000
0010
1000
0000
0100
0000
0010
0000
0000
0001
0010
0000
0001
0000
0100
,
0010
0000
1000
0001
0000
0010
0000
0001
0000
0000
1000
0010
0000
1000
0000
0100
,
0020
0000
0000
0000
0130
0010
0110
0000
,
2001
0000
0000
0000
,
3002
0000
2003
0000
,
3002
0000
0000
0000
0000
0000
2003
3200
,
0320
0000
0000
0000
,
0230
0000
0000
2300
,
3200
0320
0032
2003
,
3200
0000
0000
0000
,
2300
0000
3002
0103
,
0001
0000
0000
0010
0000
0000
0001
0000
1000
0000
0000
0100
0000
0000
1000
0000
,
0001
0000
0000
0100
0000
0000
0001
0000
1000
0000
0000
0001
0000
0000
1000
0000
,
0010
0000
0000
0100
0000
0000
0010
0000
1000
0000
0000
0001
0000
0000
0010
0000
,
0100
0000
0000
0010
0000
0000
0100
0000
1000
0000
0000
0010
0000
0000
0100
0000
,
0001
0000
0000
0010
0000
0000
0100
0000
1000
0000
0000
0010
0000
0000
0100
0000
,
0001
0000
0000
1000
0000
0000
0001
0000
0100
0000
0000
0010
0000
0000
0100
0000
,
0010
0000
0000
1000
0000
0000
0100
0000
1000
0000
0000
0001
0000
0000
0010
0000
,
0001
0000
0000
0100
0000
0000
0010
0000
1000
0000
0000
0000
0110
0000
0000
0000
,
0001
0000
0010
0100
0000
0010
0100
0000
1000
0000
0010
1000
0000
0010
1000
0000
,
0001
0000
0010
0100
0000
0010
0100
0000
1000
0000
0001
0100
0000
0001
0100
0000
,
0001
0000
0010
0100
0000
0010
0100
0000
0010
0000
0001
1000
0000
0001
0100
0000
,
0010
0000
0100
0010
0000
0100
0010
0000
1000
0000
0010
1000
0000
0010
1000
0000
,
0100
0000
0010
0001
0000
0010
0100
0000
1000
0000
0001
0100
0000
0001
0010
0000
,
0200
0000
0000
0310
0002
0000
0000
0013
0200
0000
0000
1300
0020
0000
0000
0130
,
0001
0000
1000
0100
0000
0100
0010
0000
0001
0000
0010
0100
0000
0100
1000
0000
,
0001
0000
0100
0010
0000
0100
0001
0000
0010
0000
0100
0010
0000
0001
1000
0000
,
0020
0000
0000
1030
0100
0000
1000
0000
0020
0000
0000
0130
0001
0000
0010
0000
,
0002
0000
0000
0013
0001
0000
1000
0000
0020
0000
0000
0130
0001
0000
0010
0000
,
0200
0000
0000
1300
0001
0000
1000
0000
0002
0000
0000
0013
0100
0000
1000
0000
,
0020
0000
0000
0130
0001
0000
1000
0000
0002
0000
0000
0013
0001
0000
1000
0000
,
0100
0000
0010
0001
0000
1000
0100
0000
1000
0000
0010
0100
0000
0001
0010
0000
,
0100
0000
1000
0100
0000
0010
0001
0000
0010
0000
0001
0100
0000
0010
1000
0000
,
0100
0000
0010
0001
0000
0010
0100
0000
1000
0000
0010
0100
0000
0001
0010
0000
,
0100
0000
0000
1000
0000
0000
1000
0000
0000
0001
0010
0000
0100
0000
1000
0000
,
0001
1000
0000
0000
0010
0100
0000
0000
0001
0010
0000
0000
0100
1000
0000
0000
,
0100
0010
0000
0000
0010
0001
0000
0000
0001
0100
0000
0000
0010
1000
0000
0000
,
0001
0010
0100
0010
0001
1000
0010
0100
,
0001
1000
0001
1000
0001
0010
0001
0010
0100
1000
0100
1000
0010
1000
0010
1000
,
0001
0000
0000
0000
1000
0100
1000
0000
0001
0000
0000
0000
0100
0010
0100
0000
,
0001
0000
0000
0000
0010
0100
0010
0000
0001
0000
0000
0000
0010
0100
0010
0000
,
0100
0010
0001
0100
0010
0100
0001
0010
,
0100
0010
0001
1000
0001
0100
0001
0100
0010
1000
0010
0100
0001
1000
0001
1000
,
0000
0000
0001
0100
0000
0000
0100
0010
0000
0000
0010
1000
0000
0000
1000
0100
,
0010
0000
0001
0000
0100
0000
0001
0000
1000
0000
0100
0000
1000
0000
0001
1000
,
0000
0000
0100
1000
0000
0000
0100
0010
0000
0000
0100
1000
0000
0000
0100
0010
,
0001
0010
0001
0100
0010
1000
0001
0010
,
0100
0010
0100
1000
0100
1000
0010
1000
0010
0100
0010
0100
0001
1000
0100
0010
,
0001
0000
0000
0000
0000
0000
0000
0000
1000
0100
0010
0100
1000
0001
0010
0100
,
1000
0100
1000
0100
0010
0100
0010
0001
1000
0001
1000
0100
0010
0001
1000
0010
,
0100
0000
0000
0000
0000
0000
0000
0000
0100
0001
0010
0100
1000
0100
0010
0001
,
1000
0000
0000
0000
;

//--------------- dance-double - Pandemonium X ----------------
#NOTES:
     dance-double:
     Pandemonium X:
     Easy:
     6:
     0,0,0,0,0:
00000000
00000000
00000000
00000000
,
00000000
00000000
00000000
00000000
,
00000000
00000000
00000000
00000000
,
00000000
00000000
00000000
00000000
,
00000000
00000000
00000000
00000000
,
00000000
00000000
00000000
00000000
,
00000000
00000000
00000000
00000000
,
00000000
00000000
00000000
00000000
,
00000000
00000000
00000000
00000000
,
00001000
00000000
01000000
00000000
,
00010000
00000000
00100000
00000000
,
00010000
00000000
10000000
00000000
,
01000000
00000000
00100000
00000000
,
00001000
00000000
00010000
00000100
,
00001000
00000000
00000010
00000100
,
00000001
00000000
00001000
00000100
,
00010000
00000000
00001000
00100000
,
00010000
00000000
10000000
01000000
,
00100000
00000000
00001000
00010000
,
00001000
00000000
00010000
00000100
,
00001000
00000000
00000010
00000100
,
00000001
00000000
00001000
00000100
,
00000010
00000000
00000001
00000010
,
00000100
00000000
00000010
00001000
,
00002002
00000000
00000000
00003003
,
00002000
00000000
00000000
00000000
,
00003100
00000000
00010000
00000000
,
00002000
00000000
00000000
00000000
00000000
00000000
00013000
00001000
,
00020000
00000000
00000000
00000000
,
00030200
00000000
00000000
00001300
,
00000010
00000100
00000001
00000010
,
00000200
00000000
00000000
00000000
,
00002300
00000000
00003100
00010000
,
00002000
00000000
02003000
00000000
,
03200000
00000000
20300000
00000000
,
32000000
00000000
23000000
00000000
,
30200000
00000000
02300000
00000000
,
03020000
00000000
00000000
00000000
,
00000000
00000000
00130000
00001000
,
00020000
00000000
00000000
00000000
,
00030000
00000000
00000000
00011000
,
00010000
00000000
00000100
00000000
,
00001000
00000000
00000010
00000000
,
00000100
00000000
00000000
00000000
00000001
00000000
00000010
00000100
,
00000010
00000000
00000100
00000000
,
00001000
00000000
00000100
00010000
,
00000100
00010000
00001000
00100000
,
01000000
00000000
10000000
00000000
,
00100000
00000000
01000000
00010000
,
00200000
00000000
00302000
00000000
,
00023000
00000000
00030020
00000000
,
00020030
00000000
00032000
00000000
,
00203000
00000000
00320000
00000000
,
02030000
00000000
00000000
00000000
,
00000000
00000000
03100000
01000000
,
20020000
00000000
00000000
00000000
,
00000000
00000000
30030000
00000000
,
10000000
10000000
00010000
00010000
,
00100000
00100000
00001000
00001000
,
00010000
00000100
00001000
00000010
,
00000100
00000001
00000010
00000100
,
00001000
00000100
00010000
00001000
,
01000000
00010000
00100000
01000000
,
10000000
10000000
00010000
00010000
,
00100000
00001000
00010000
00000010
,
00000000
00001000
00000000
00000010
00000000
00001000
00000000
00000001
,
00000000
00000010
00000000
00000100
00000000
00001000
00000000
00000100
,
00000000
00010000
00000000
00001000
00000000
00010000
00000000
00001000
,
00000000
01000000
00000000
00100000
00000000
10000000
00000000
01000000
,
00100000
01000000
10000000
00010000
,
01010000
00000000
01000000
00001000
,
00010000
00000100
00001000
00000010
,
00000110
00000000
00000100
00000001
,
00001001
00000000
00000000
00000000
;

//--------------- dance-double - Pandemonium X ----------------
#NOTES:
     dance-double:
     Pandemonium X:
     Medium:
     9:
     0,0,0,0,0:
00000000
00000000
00000000
00000000
,
00000000
00000000
00000000
00000000
,
00000000
00000000
00000000
00000000
,
00000000
00000000
00000000
00000000
,
00000000
00000000
00000000
00000000
,
00000000
00000000
00000000
00001000
00000000
00001000
00000000
00000000
,
00000000
00000000
00000000
00000000
00000000
00010000
00000000
00010000
,
00000000
00000000
00000000
00001000
00000000
00001000
00000000
00000000
,
00000000
00000000
00000000
00000000
00000000
00010000
00001000
00001000
,
00100000
00010000
01000000
00100000
,
10000000
00010000
00100000
00001000
,
00010000
00000010
00000100
00000001
,
00000010
00000100
00001000
00000100
,
00011000
00000000
00000000
00000000
00001000
01000000
00001000
00000000
,
01100000
00000000
00000000
00000000
10000000
00100000
10000000
00000000
,
01010000
00000000
00000000
00000000
00010000
00100000
00010000
00000000
,
00011000
00000000
00000000
00000000
00010000
00000100
00010000
00000000
,
00001100
00000000
00000000
00000000
00001000
00000010
00000100
00000000
,
00001001
00000000
00000000
00000000
00000001
00000010
00000100
00000000
,
00001100
00000000
00000000
00000000
00010000
00000100
00001000
00000000
,
00010100
00000000
00000000
00000000
00001000
01000000
00010000
00000000
,
00110000
00000000
00000000
00100000
01000000
10000000
00100000
00000000
,
01010000
00000000
00000000
00000000
01000000
00001000
00010000
00000100
,
00001100
00000000
00000000
00001000
00000010
00000100
00000001
00000000
,
00002001
00000000
00003100
00000011
,
00002001
00000000
00000000
00000000
,
00003200
00000000
00020300
00000000
,
00032000
00000000
00000000
00000000
00000000
00000000
00013000
00000100
,
00002000
00000000
00000000
00000000
,
00003020
00000000
00000000
00020030
,
00032000
00203000
00320000
20030000
,
32000000
00000000
00000000
00000000
,
03200000
00000000
00320000
02030000
,
03002000
00013000
00002000
00103000
,
00020000
01030000
00002000
00013000
,
00000200
00001300
00000020
00000130
,
00000002
00000013
00000200
00001300
,
00000200
00010000
00000000
00010000
,
00000000
00010300
00002000
02003000
,
03020000
00100000
00000000
00100000
,
00000000
00130000
00000000
11000000
,
10010000
00000000
00000000
10000000
00000000
00000000
10000000
00000000
00000000
00000000
00000000
00100000
00000000
00000000
00100000
00000000
,
00000000
00000000
00000000
01000000
00000000
00000000
01000000
00000000
00000000
00000000
00000000
00001000
00000000
00000000
00001000
00000000
,
00000000
00000000
00000000
00010000
00000000
00000000
00010000
00000000
00000000
00000000
00000000
00000100
00000000
00000000
00001000
00000000
,
00000000
00000000
00000000
00000010
00000000
00000000
00000010
00000000
00000000
00000000
00000000
00000010
00000000
00000000
00000010
00000000
,
00000100
00000000
00000000
00000001
00000000
00000000
00000001
00000000
00000000
00000000
00000000
00001000
00000000
00000000
00000100
00000000
,
00000000
00000000
00000000
00010000
00000000
00000000
00001000
00000000
00000000
00000000
00000000
00010000
00000000
00000000
00000100
00000000
,
00000000
00000000
00000000
00010000
00000000
00000000
00010000
00000000
00000000
00000000
00000000
00001000
00000000
00000000
00001000
00000000
,
00000000
00000000
00000000
00100000
00000000
00000000
00100000
00000000
00000000
00000000
00000000
00010000
00000000
00000000
00010000
00000000
,
00200000
01300000
20000000
30100000
,
02000000
03001000
00020000
00030100
,
00002000
00003010
00000200
00000301
,
00000020
00000130
00002000
00003100
,
00020000
00001000
00000000
00001000
,
00000000
00031000
00020000
00032000
,
00023000
00000100
00000000
00000100
,
00000000
00000100
00000000
00031000
,
00011000
00011000
01001000
01001000
,
01100000
01100000
10010000
10010000
,
10000000
01000000
00100000
00010000
,
00001000
00000100
00000010
00000001
,
00001000
00000000
00000001
00000100
00000001
00000000
00000100
00000000
,
00001010
00000000
00001000
00000100
00001000
00000000
00000100
00000000
,
00010100
00010000
00011000
00001000
,
01001000
01010000
00110000
11000000
,
00000000
10000000
00000000
01000000
00000000
00100000
00000000
00010000
,
00001000
00000100
00000010
00000001
,
00000000
00000100
00000000
00001000
00000000
00010000
00000000
00100000
,
10000000
01000000
00010000
01000000
,
10000000
01000000
00100000
00010000
,
00011000
00000000
00010000
00000100
,
00001000
00000010
00000100
00000010
,
00011000
00000000
00001000
01010000
,
00200000
00000000
00000000
00000000
,
00300000
00000000
00000000
00000000
;

//--------------- dance-double - Pandemonium X ----------------
#NOTES:
     dance-double:
     Pandemonium X:
     Hard:
     12:
     0,0,0,0,0:
00000000
00000000
00000000
00000000
,
00000000
00000000
00000000
00000000
,
00000000
00000000
00000000
00000000
,
00000000
00000000
00000000
00000000
,
00000000
00000000
00000000
00000000
,
00000000
00000000
00000000
00100000
00000000
00100000
00000000
00000000
,
00000000
00000000
00000000
00000000
00000000
00001000
00000000
00001000
,
00000000
00000000
00000000
00100000
00000000
00100000
00000000
00000000
,
00000000
00000000
00000000
00000000
00000000
00001000
00010000
00000100
,
00001000
00000000
00000010
00000100
00000000
00000100
00000000
00000001
00000000
00000000
00000010
00000100
00000000
00001000
00000000
00000100
,
00000000
00000000
00010000
00001000
00000000
00001000
00000000
01000000
00000000
00000000
00100000
10000000
00000000
00010000
00000000
00100000
,
00000000
00000000
01000000
10000000
00000000
10000000
00000000
00010000
00000000
00000000
01000000
00010000
00000000
00100000
00000000
00010000
,
00000000
00000000
00100000
00001000
00000000
00001000
00000000
00010000
00000000
00000000
00000100
00001000
00000000
00000010
00000000
00000100
,
00000001
00000000
00000000
00000010
00000100
00001000
00000100
00010000
,
00001000
00000000
00000000
00000000
00010000
00001000
01000000
00100000
,
00010000
00000000
00000000
00100000
01000000
00010000
10000000
01000000
,
00100000
00000000
00000000
00000000
00100000
00001000
00010000
00000100
,
00001001
00000000
00000000
00000001
00000100
00001000
00010000
00100000
,
10000000
00000000
00000000
00000000
10000000
01000000
00010000
00001000
,
00000010
00000000
00000000
00000001
00000100
00001000
00010000
00100000
,
10000000
00000000
00000000
00000000
01000000
00100000
00010000
00001000
,
00000100
00000000
00000000
00000010
00000001
00000010
00000100
00001000
,
00010000
00000000
00000000
00000000
00001000
00010000
00100000
01000000
,
10000000
00000000
00000000
10000000
01000000
00100000
00010000
00001000
,
00000200
00000000
00000010
00000000
00000010
00000000
00000310
00000001
,
00001002
00000000
00000000
00000000
,
00002003
00000000
00003020
00000000
,
00002030
00000000
00000000
00000000
00000000
00000000
00003200
00020300
,
00032000
00000000
00000000
00000000
,
00203000
00000000
00000000
00320000
,
00230000
02300000
23000000
30200000
,
02000000
00000000
00000000
00300000
,
00020000
03000000
00230000
00302000
,
00023000
00030100
00002000
00003010
,
00000200
00000301
00000020
00000130
,
00002000
00003100
00020000
00031000
,
02000000
03010000
20000000
30100000
,
02000000
00010000
00010000
00100000
,
00100000
03010000
00020000
00230000
,
00302000
00010000
00100000
00010000
,
00203000
00000000
01300000
10010000
,
10000000
00000000
10000000
01000000
00000000
01000000
00100000
00000000
00000000
00000000
00100000
00001000
00000000
00001000
00010000
00000000
,
00000000
00000000
00000100
00001000
00000000
00001000
00000010
00000000
00000000
00000000
00000010
00000100
00000000
00000100
00000001
00000000
,
00000000
00000000
00000010
00000100
00000000
00000100
00001000
00000000
00000000
00000000
00000100
00010000
00000000
00010000
00001000
00000000
,
00000000
00000000
00001000
01000000
00000000
01000000
00100000
00000000
00000000
00000000
00100000
10000000
00000000
10000000
01000000
00000000
,
00000000
00000000
00100000
00001000
00000000
00001000
00010000
00000000
00000000
00000000
00010000
00000100
00000000
00000100
00001000
00000000
,
00000000
00000000
00001000
00000010
00000000
00000010
00000100
00000000
00000000
00000000
00000100
00000010
00000000
00000010
00000100
00000000
,
00000000
00000000
00000100
00000001
00000000
00000001
00000010
00000000
00000000
00000000
00000010
00000100
00000000
00000100
00001000
00000000
,
00000000
00000000
00000100
00010000
00000000
00010000
00001000
00000000
00000000
00000000
00001000
01000000
00000000
01000000
00100000
00000000
,
02000000
00000000
03010000
00100000
00002000
00000000
00013000
00000010
,
00000200
00000000
00000301
00000010
00000200
00000000
00000310
00000001
,
00002000
00000000
00003100
00010000
00002000
00000000
01003000
00010000
,
00200000
00000000
01300000
10000000
00020000
00000000
10030000
01000000
,
00100000
00000000
01000000
10000000
00000000
01000000
00100000
00000000
00000000
00000000
00010000
01000000
00000000
00001000
00010000
00000000
,
00000000
00000000
00001000
00010000
00000000
00000100
00001000
00000000
00000000
00000000
00000001
00000010
00000000
00000100
00001000
00000000
,
00000001
00000000
00000100
00000010
00000000
00001000
00000100
00000000
00000000
00000000
00000010
00000001
00000000
00001000
00000100
00000000
,
00000000
00000000
00010000
00000100
00000000
00010000
00001000
00000000
00012000
00000000
00000000
00000000
00010000
00000000
00013000
00000000
,
00001000
00010000
00000000
00000000
00001000
01000000
00000000
00000000
00100000
10000000
00000000
00000000
10000000
01000000
00000000
00000000
,
00100000
00010000
00000000
00000000
00010000
00001000
00000000
00000000
00001000
00000100
00000000
00000000
00000100
00000010
00000000
00000000
,
00000010
00000001
00000000
00000000
00000001
00000100
00000000
00000000
00000100
00000010
00000000
00000000
00000010
00000000
00010000
00000000
,
00001000
00010000
00001000
01000000
00010000
10000000
01000000
00100000
,
00001000
00000000
00000000
00000000
00010000
00000100
00001000
00000000
00000010
00000000
00000000
00000000
00000100
00000001
00001000
00000000
,
00000100
00000000
00000000
00000000
00000010
00000100
00001000
00000000
00000100
00000000
00000000
00000000
00010000
00000010
00000100
00000000
,
00000010
00000000
00000000
00000000
00000100
00000010
00010000
00000000
00001000
00000000
00000000
00000000
00010000
00001000
01000000
00000000
,
00100000
01000000
00010000
00000000
10000000
00000000
00010000
00000000
00100000
01000000
10000000
00000000
00010000
00000000
10000000
00000000
,
00000000
00000000
01000000
00100000
00000000
00000000
00010000
00001000
00000000
00000000
00010000
00000100
00000000
00000000
00001000
00000010
,
00000100
00000001
00000010
00000100
00001000
00000100
00010000
00001000
,
00000000
00000000
00010000
00000100
00000000
00000000
00001000
00000010
00000000
00000000
00000100
00000001
00000000
00000000
00000010
00000100
,
00001000
00000100
00010000
00001000
01000000
00100000
10000000
00010000
,
00100000
10000000
00100000
00010000
00001000
00000100
00000010
00000001
,
00001001
00000000
00000000
00000000
00000001
00001000
00000010
00001000
,
00000001
00000100
00001000
00010000
00100000
10000000
00010000
00100000
,
00101000
00000000
00000000
00000000
00000000
00000000
00000000
00000000
00010000
00000100
00010000
00000100
00010000
00001000
00010000
00001000
,
02000000
00000000
00000000
00000000
,
03000000
00000000
00000000
00000000
;
