#TITLE:CaptivAte ~浄化~;
#SUBTITLE:;
#ARTIST:A/I;
#TITLETRANSLIT:CaptivAte -jouka-;
#SUBTITLETRANSLIT:;
#ARTISTTRANSLIT:;
#GENRE:;
#CREDIT:;
#MUSIC:CaptivAte -jouka-.ogg;
#BANNER:;
#BACKGROUND:CaptivAte -jouka--bg.png;
#CDTITLE:;
#SAMPLESTART:78.149;
#SAMPLELENGTH:12.016;
#SELECTABLE:YES;
#OFFSET:-0.148;
#BPMS:0.000=160.000;
#STOPS:36.000=1.125
,202.000=0.750
;
#BGCHANGES:;
#FGCHANGES:;

//--------------- dance-single - Pandemonium X ----------------
#NOTES:
     dance-single:
     Pandemonium X:
     Beginner:
     3:
     0,0,0,0,0:
0000
0000
0000
0000
,
0000
0000
0000
0000
,
0000
0000
0000
0000
,
0000
0000
0000
0000
,
0000
0000
0000
0000
,
0000
0000
0000
0000
,
0000
0000
0000
0000
,
0000
0000
0000
0000
,
0000
0000
0000
0000
,
0000
0001
0000
0000
,
0000
1000
0000
0000
,
0000
0010
0000
0000
,
0000
1000
0000
0100
,
0000
0010
0000
0000
,
0100
1000
0000
0100
,
0000
1000
0000
0001
,
0000
0100
0000
0000
,
0000
0110
0000
0000
,
0000
0010
0000
0000
,
0000
1000
0000
0000
,
0000
0001
0000
0010
,
0000
0100
0000
0000
,
0010
0100
0000
0010
,
0000
0001
0000
1000
,
0000
0110
0000
0001
,
0000
2000
0000
0000
,
3000
0001
0000
1000
,
0000
0100
0000
0010
,
0000
1001
0000
0000
,
0000
0000
0000
0000
,
0000
0010
0000
0000
,
0000
0100
0000
0000
,
0000
0001
0000
0000
,
0000
1000
0000
0000
,
0000
0001
0000
0000
,
0000
0010
0000
0000
,
0000
0100
0000
0000
,
0000
1000
0000
0001
,
0000
0100
0000
0000
,
0000
0010
0000
0000
,
0000
1000
0000
0000
,
0000
0100
0000
0010
,
0000
0001
0000
0000
,
0000
1000
0000
0000
,
0000
0010
0000
0100
,
0000
1001
0000
0000
,
0000
0001
0000
0000
,
0000
1000
0000
0100
,
0000
0010
0000
0001
,
0000
0110
0000
0000
,
0000
0000
0000
0001
,
0000
0000
0000
1000
,
0000
0000
0000
0100
,
0000
0000
0000
0010
,
0000
0100
0000
0010
,
0000
0000
0000
0001
,
0000
0000
0000
1000
,
0000
0000
0000
0010
,
0000
0100
0000
0001
,
0000
0000
0000
1000
,
0000
0000
0000
0100
,
0000
0000
0000
0010
,
0000
0100
0000
1000
,
0000
0000
0000
0001
,
0000
0000
0000
0100
,
0000
0000
0000
0010
,
0000
0100
0000
1001
,
0000
0000
0000
0010
,
0000
0000
0000
0100
,
0000
0000
0000
0001
,
0000
0000
0000
1000
,
1000
1000
0000
0001
,
0001
0001
0000
0100
,
0000
0010
0000
2002
,
0000
0000
3003
0200
,
0000
0000
0300
0001
,
0000
0000
0000
1000
,
0000
0000
0000
0100
,
0000
0010
0000
0001
,
0000
0000
0000
1000
,
0000
0000
0000
0010
,
0000
0100
0000
0001
,
0000
1000
0000
0110
;

//--------------- dance-single - Pandemonium X ----------------
#NOTES:
     dance-single:
     Pandemonium X:
     Easy:
     6:
     0,0,0,0,0:
0000
0000
0000
0000
,
0000
0000
0000
0000
,
0000
0000
0000
0000
,
0000
0000
0000
0000
,
0000
0000
0000
0000
,
1001
0000
0000
0000
,
1000
0000
0001
0000
,
0100
0000
0000
0000
,
2002
0000
0000
0000
,
3003
1000
0010
0100
,
0000
0010
0100
0001
,
0000
1000
0001
1000
,
0000
0001
0100
1000
,
0100
0101
0000
0000
,
1000
0010
0000
0100
,
0000
0010
0000
1000
,
0000
1001
0000
1000
,
0001
1001
0000
0000
,
0100
1000
0000
0000
,
0010
0100
0000
0000
,
0000
0010
0001
0010
,
1000
0001
0000
0000
,
0010
0100
0000
0010
,
0000
0001
0000
1000
,
0000
0001
0000
0100
,
0010
2000
0000
0000
,
3000
0001
0000
0010
,
0000
0100
0000
1000
,
0000
0110
0000
0000
,
0000
0000
0000
0000
,
0000
0002
0000
0003
,
0000
2000
3000
0200
,
0300
0020
0030
0100
,
0000
0010
0001
1000
,
0100
2000
0000
0000
,
3000
0002
0000
0000
,
0003
0200
0000
0000
,
0300
0020
0000
0130
,
0000
1001
1000
0001
,
0000
0010
0100
0010
,
0000
0010
0000
0001
,
0000
1000
0100
0010
,
0100
2000
0000
0000
,
3000
0020
0000
0000
,
0030
0200
0000
0320
,
0000
0130
0000
0010
,
0000
1001
0000
0000
,
0000
0001
0000
1000
,
0000
0001
0000
0110
,
0000
1001
0000
0000
,
0000
0000
0000
0001
,
1000
0010
1000
0001
,
0010
0001
1000
0010
,
1000
0001
0010
0100
,
1000
0000
0002
0000
0000
0003
0100
0000
,
0001
0010
0001
0100
,
0010
1000
0010
0100
,
0010
1000
0001
0010
,
0100
0000
2000
0000
0000
3000
0001
0000
,
0100
0001
0010
0001
,
1000
0010
0100
0010
,
1000
0001
0010
0100
,
1000
0000
0020
0000
0000
0030
0100
0000
,
0010
1000
0001
0010
,
0100
1000
0100
1000
,
0001
0010
0100
0020
,
0030
0002
0003
1001
,
0000
0000
0000
0110
,
0000
0000
0000
1001
,
0000
0000
0000
0110
,
0000
0001
0000
1001
,
1000
1000
0000
1001
,
0001
0001
0000
0110
,
0000
1001
0000
0220
,
0000
0000
0330
0001
,
0100
0001
0010
0001
,
1000
0010
0100
0010
,
1000
0001
0010
0100
,
1000
1001
0000
0001
,
1000
0010
1000
0100
,
0010
0001
0010
0001
,
0100
0010
1000
1001
,
0000
0110
0000
1001
;

//--------------- dance-single - Pandemonium X ----------------
#NOTES:
     dance-single:
     Pandemonium X:
     Medium:
     10:
     0,0,0,0,0:
0000
0000
0000
0000
,
0000
0000
0000
0000
,
0000
0000
0000
0000
,
0000
0000
0000
0000
,
0000
0000
0000
0000
,
1001
0000
0000
0000
0000
0001
0000
1000
,
1000
0000
0000
0001
0001
0000
0000
1000
,
1000
0000
0000
0000
,
0220
0000
0000
0000
,
0330
0000
0001
0010
0001
1000
0000
0001
,
0000
0000
1000
0010
1000
0100
0000
0010
,
0000
0000
1001
0000
0000
0101
0000
0000
,
0000
1000
0100
0001
0100
0010
0001
0100
,
0010
1000
0001
0000
0000
0000
0000
1000
,
0000
0100
0100
0000
0000
0010
0010
0000
,
0000
0100
0100
0000
0000
0000
0010
0000
,
0000
0000
0000
0000
1001
0000
0000
0000
0000
0000
0000
0000
0001
0000
0000
0001
,
0000
1000
0010
0100
0001
0010
0000
1001
,
0000
0000
1000
0010
0100
0010
0000
1010
,
0000
0000
0101
0000
0000
1000
0000
0000
,
0000
0001
0010
1000
0010
0100
0010
0001
,
1000
0100
0010
0000
0010
0000
0100
0000
,
0100
1100
1000
1010
,
0010
0110
0100
1001
,
1000
0000
0000
0000
0201
0000
0000
0000
0000
0000
0000
0000
0010
0000
0000
0010
,
0000
0310
1001
0000
0000
0000
0000
0001
,
0000
1000
1000
0000
0000
0001
0001
0000
,
0000
0100
0100
0000
0000
0000
0010
0000
,
0000
1001
0000
0000
,
0000
0000
0000
0000
,
0000
0000
0000
0000
1000
0000
0000
1000
0000
0000
0010
0000
1000
0000
0000
0000
,
0000
0000
0001
0000
0100
0000
0000
0100
0000
0000
0001
0000
0010
0000
0000
0010
,
0000
0100
0010
0000
0000
0001
0001
0000
,
0000
1000
0100
0010
0100
1000
0001
0010
,
0100
1000
0002
0000
0000
2003
0000
0000
,
3001
0000
0020
0000
0000
0230
0000
0000
,
1300
0002
0000
0003
,
0000
0000
0000
0000
0110
0000
0000
0000
0000
0000
0000
0000
1000
0000
0000
0001
,
0000
0000
0100
0000
0010
0000
0000
0010
0000
0000
0010
0000
0100
0000
0000
0000
,
0000
0000
0010
0000
1000
0000
0000
1000
0000
0000
1000
0000
0001
0000
0000
0001
,
0000
0001
0010
0000
0000
0100
0100
0000
,
0000
0010
0100
1000
0010
1000
0010
0100
,
0001
0010
0200
0000
0000
2300
0000
0000
,
3100
0000
0020
0000
0000
0032
0000
0000
,
1003
0001
0200
0000
0000
0010
0020
0000
,
0330
0000
0000
0000
1001
0000
0000
0000
0000
0000
0000
0000
0001
0000
0000
0010
,
0000
0100
0010
0000
0000
0000
0000
0001
,
0000
1000
1000
0000
0000
0001
0001
0000
,
0000
1000
1000
0000
0000
0000
0110
0000
,
0000
1001
0000
0000
,
0000
0000
0000
0000
0000
0000
0001
0100
,
0000
0100
0000
0000
0010
0000
0000
1000
0000
0000
0001
0000
0000
0000
1000
0000
,
0000
1000
0000
0000
0100
0000
0000
0010
0000
0000
0100
0000
0000
0000
0010
0000
,
0000
0010
0000
0000
0001
0000
0000
0100
0000
0000
0010
0000
1000
0000
0000
0100
,
0000
0000
0010
0000
0001
0000
0000
1000
0000
0000
0110
0000
0000
0000
1000
0000
,
0000
1000
0000
0000
0001
0000
0000
0010
0000
0000
0100
0000
0000
0000
0010
0000
,
0000
0010
0000
0000
0001
0000
0000
1000
0000
0000
0100
0000
0000
0000
1000
0000
,
0000
1000
0000
0000
0010
0000
0000
0100
0000
0000
0001
0000
0010
0000
0000
0100
,
0000
0000
1000
0000
0001
0000
0000
0100
0000
0000
1010
0000
1000
0000
0100
0000
,
0000
0100
0000
0000
0010
0000
0000
0001
0000
0000
1000
0000
0000
0000
0001
0000
,
0000
0001
0000
0000
0100
0000
0000
0010
0000
0000
1000
0000
0000
0000
0100
0000
,
0000
0100
0000
0000
1000
0000
0000
0010
0000
0000
0100
0000
0001
0000
0000
0010
,
0000
0000
0100
0000
1000
0000
0000
0001
0000
0000
1001
0000
0001
0000
0100
0000
,
0001
0000
0100
0000
0110
0000
0010
1000
,
0010
0000
1000
0000
1001
0000
1000
0100
,
1000
0000
0000
0000
0001
0000
0010
0000
0001
0000
0000
0000
1000
0000
0000
1000
,
0000
0000
1000
0000
0001
0000
0000
0001
0000
0000
0001
0000
1001
0000
0000
0000
,
0000
0000
0000
0001
0100
0010
0010
0000
,
0000
0000
0000
0110
,
0000
0000
0000
0000
0000
0010
1000
0000
,
0000
0000
0000
0000
0001
0000
0000
0010
0000
0000
0100
0000
1000
0000
0000
0000
,
1000
1000
1000
0001
,
0001
0001
0001
0110
,
0001
0000
0000
0000
0110
0000
0000
0000
1000
0000
0000
0000
1001
0000
0000
0100
,
0000
0000
0010
0000
1001
0000
0000
0010
0000
0000
0100
0000
1001
0000
0001
0000
,
0000
0100
0000
0000
1000
0000
0000
0100
0000
0000
0001
0000
0000
0000
1000
0000
,
0000
0100
0000
0000
0001
0000
0000
0100
0000
0000
1000
0000
0000
0000
0001
0000
,
0000
0100
0000
0000
0010
0000
0000
1000
0000
0000
0100
0000
0010
0000
0000
0001
,
0000
0000
0010
0000
0100
0000
0000
1000
0000
0000
1001
0000
0000
0000
1000
0000
,
0000
0100
0000
0000
0001
0000
0000
0100
0000
0000
1000
0000
0000
0000
1000
0000
,
0000
0010
0000
0000
0001
0000
0000
0010
0000
0000
1000
0000
0000
0000
0010
0000
,
0000
0100
0000
0000
0001
0000
0000
0010
0000
0000
0100
0000
1000
0000
0000
0100
,
0000
0000
0010
0000
0001
0000
0000
1000
0000
0000
0010
0000
0100
0000
0000
0000
;

//--------------- dance-single - Pandemonium X ----------------
#NOTES:
     dance-single:
     Pandemonium X:
     Hard:
     13:
     0,0,0,0,0:
0000
0000
0000
0000
,
0000
0000
0000
0000
,
0000
0000
0000
0000
,
0000
0000
0000
0000
,
0000
0000
0000
0000
,
1001
0000
0000
0000
0000
0000
0000
0000
0000
0000
0001
0000
0000
0000
0001
0010
,
0100
0000
0000
0000
0000
0000
0010
0100
1000
0000
0000
0000
0000
0000
1000
0100
,
0010
0000
0000
0000
,
0110
0000
0000
0000
,
0000
0000
0001
0100
0001
0010
0000
1100
,
0000
0000
1000
0001
1000
0000
0001
0000
0100
0000
0010
0000
0000
0000
0100
0000
,
0000
0000
0001
1000
0100
0000
0010
0000
0100
0000
1000
0000
0000
0000
0000
0000
,
0000
0000
1000
0010
0100
0000
1000
0000
0100
0000
0001
0000
0010
0000
0100
0000
,
0010
0001
1000
0100
0010
0100
0000
0011
,
0000
0000
0001
0100
0010
0000
0000
0000
1010
0000
1000
0100
0010
0000
0000
0000
,
0011
0000
0001
1000
0100
0000
0000
0000
0010
0000
0000
0000
1100
0000
0000
0000
,
1000
0000
0000
0000
1020
0000
0000
0000
0000
0000
0000
0000
0130
0000
0000
0101
,
0000
0011
0001
1000
0100
0010
0000
1100
,
0000
0000
1000
0001
0100
0000
0001
0000
1000
0000
0010
0000
0000
0000
1010
0000
,
0000
0000
0101
0001
0100
0001
0000
0000
,
0000
0000
0001
0010
0100
0000
0001
0000
0010
0000
1000
0000
0010
0000
0001
0000
,
0010
0100
1200
0000
1000
0000
0010
0000
,
1300
0201
0010
0001
,
0310
0000
1000
0001
0010
0010
0001
1000
,
0100
0000
0100
0000
2002
0000
0000
0000
3003
0000
0000
0000
0011
0000
0000
0110
,
0000
1100
1001
0000
0000
0000
0000
1000
,
0000
0000
0010
0100
0010
0000
0000
0000
0000
0000
0100
0001
0100
0000
0000
0000
,
0000
0000
0001
0010
0001
0000
0000
0000
0000
0000
0000
0000
1000
0000
0000
0000
,
0000
0110
0000
0000
,
0000
0000
0000
0000
,
0000
0000
0001
0010
0100
0000
0000
0100
0000
0000
0100
0000
1000
0000
0000
0000
,
0000
0000
0010
1000
0010
0000
0000
0010
0000
0000
0100
0000
0001
0000
0000
0001
,
0000
1000
0001
0000
0000
0010
0010
0000
,
0000
0000
0100
0010
0001
0000
0100
0000
0001
0000
1000
0000
0010
0000
1000
0000
,
0100
0010
0200
0000
0000
1300
0000
0000
,
0100
0000
0020
0000
0000
0031
0000
0000
,
2000
0002
0000
0000
,
3003
0000
1000
0001
0200
0000
0000
0000
0000
0000
0010
0000
0000
0000
0000
0000
,
0301
0000
1000
0100
0010
0000
0000
0010
0000
0000
0100
0000
1000
0000
0000
0000
,
0000
0000
1000
0000
0001
0000
0000
0001
0000
0000
0010
0000
0100
0000
0000
0100
,
0000
0010
0001
0000
0000
1000
1000
0000
,
0000
0000
0010
0100
0001
0000
0010
0000
0001
0000
1000
0000
0010
0000
0100
0000
,
0001
0010
0100
0000
0000
1000
0000
0000
,
0100
0000
0010
0000
0000
0100
0000
0000
,
1000
0010
0200
0000
0000
0001
0002
0000
,
0303
0000
0000
0000
1010
0000
0000
0000
0000
0000
0000
0000
0001
0000
0000
0100
,
0000
0010
0110
1000
0001
1000
0000
0100
,
0000
0000
0010
0001
0010
0000
0000
0000
0000
0000
1000
0100
1000
0000
0000
0000
,
0000
0000
0010
1000
0010
0000
0000
0000
0000
0000
0000
0000
0100
0000
0000
0000
,
0000
2002
0000
0000
,
0000
0000
0000
0000
3003
0000
1000
0001
,
0000
0010
0000
0000
0001
0000
0000
0100
0000
0000
0010
0000
0000
0000
1000
0000
,
0000
0010
0000
0000
0100
0000
0000
0010
0000
0000
1000
0000
0000
0000
0001
0000
,
0000
0010
0000
0000
0100
0000
0000
0010
0000
0000
0001
0000
0100
0000
0000
0100
,
0000
0000
0010
0100
0001
0000
0000
0101
0000
0000
1001
0000
1000
0000
0100
0000
,
0000
1000
0000
0000
0010
0000
0000
0100
0000
0000
0010
0000
0000
0000
0100
0000
,
0000
0001
0000
0000
0010
0000
0000
0100
0000
0000
0010
0000
0000
0000
0100
0000
,
0000
0010
0000
0000
0100
0000
0000
1000
0000
0000
0001
0000
0100
0000
0000
0100
,
0000
0000
0010
1000
0100
0000
0000
0110
0000
0000
1100
0000
0100
0000
0001
0000
,
0000
0100
0000
0000
1000
0000
0000
0010
0000
0000
0100
0000
0000
0000
1000
0000
,
0000
0100
0000
0000
0001
0000
0000
1000
0000
0000
0100
0000
0000
0000
0010
0000
,
0000
0100
0000
0000
0010
0000
0000
0100
0000
0000
0010
0000
0001
0000
0000
0001
,
0000
0000
0100
0010
1000
0000
0000
1010
0000
0000
1001
0000
0001
0000
0010
0000
,
0000
1000
0000
0000
0010
0000
0000
0100
0000
0000
1000
0000
0000
0000
0100
0000
,
0000
0001
0000
0000
0100
0000
0000
0010
0000
0000
0001
0000
0000
0000
1000
0000
,
0000
0010
0000
0000
0001
0000
0000
0010
0000
0000
0100
0000
0201
0000
0000
0310
,
0000
0000
1000
0000
1200
0000
0000
0010
0000
0000
1300
0000
0000
0000
0001
0000
,
0000
0001
0000
0000
0010
0000
0100
0000
1000
0000
0010
0000
0100
0000
0010
0000
,
0000
0010
0000
0000
1000
0000
0000
0001
0000
0000
1000
0000
0000
0000
0100
0000
,
0000
0100
0000
0000
1000
0000
0000
1000
0000
0000
0010
0000
0100
0000
0000
0001
,
0000
0000
0010
0000
0100
0000
0000
1000
0000
0000
0001
0000
0102
0000
0000
0000
,
0010
0100
0013
2100
,
0010
0100
3010
0201
,
0310
0000
0000
0000
1200
0000
0000
0000
0310
0000
0000
0000
1002
0000
0000
1000
,
0000
0000
1003
0000
1001
0000
0000
0011
0000
0000
1001
0000
0000
0000
0201
0000
,
0000
0010
0000
0000
0001
0000
0000
0310
0000
0000
1001
0000
0000
0000
1200
0000
,
0000
0010
0000
0000
1000
0000
0000
0310
0000
0000
1100
0000
0000
0000
2100
0000
,
0000
0010
0000
0000
0001
0000
0000
3100
0000
0000
0100
0000
0120
0000
0000
0031
,
0000
0000
0100
0001
0100
0000
0000
1010
0000
0000
1001
0000
0000
0000
1020
0000
,
0000
0100
0000
0000
1000
0000
0000
0130
0000
0000
1010
0000
0000
0000
0210
0000
,
0000
0001
0000
0000
0010
0000
0000
0301
0000
0000
1001
0000
0000
0000
0012
0000
,
0000
0013
0000
0000
1200
0000
0000
1300
0000
0000
0100
0000
1000
0000
0000
0100
,
0000
0000
0001
0000
0010
0000
0000
1000
0000
0000
0001
0000
1001
0000
0000
0000
;

//--------------- dance-double - Pandemonium X ----------------
#NOTES:
     dance-double:
     Pandemonium X:
     Easy:
     6:
     0,0,0,0,0:
00000000
00000000
00000000
00000000
,
00000000
00000000
00000000
00000000
,
00000000
00000000
00000000
00000000
,
00000000
00000000
00000000
00000000
,
00000000
00000000
00000000
00000000
,
00010000
00000000
00000000
00000000
,
00100000
00000000
01000000
00000000
,
10000000
00000000
00000000
00000000
,
01100000
00000000
00000000
00000000
,
00000000
01000000
00000000
00010000
,
00000000
00100000
00000000
00001000
,
00000000
00010000
00000000
00000100
,
00000000
00001000
00000100
00000010
,
00000001
00001001
00000000
00000000
,
00000001
00000101
00000000
00001010
,
00000000
00001100
00000000
00011000
,
00000000
01010000
00000000
00100000
,
00000000
01000000
00010000
00100000
,
00000000
00010000
00100000
00001000
,
00000000
00010000
00000010
00000100
,
00000000
00001000
00000100
00000001
,
00001000
00000100
00000000
00000000
,
00010000
00011000
00000000
01001000
,
00000000
01100000
00000000
10010000
,
00000000
02200000
00000000
00000000
,
03300000
00000000
10000000
00000000
00000000
00000000
00000000
01000000
,
00000000
00100000
00000000
00010000
,
00000000
00001000
00000000
00000100
,
00000000
00000011
00000000
00000000
,
00000000
00000000
00000000
00000000
,
00000000
00000100
00000000
00000000
,
00000000
00000010
00000000
00001000
,
00000000
00000100
00000000
00010000
,
00000000
00001000
01000000
00100000
,
10000000
00000000
01000000
00000000
00000000
01000000
00000000
00000000
,
01000000
00000000
00100000
00000000
00000000
00100000
00000000
00000000
,
00010000
00100000
00000000
00000000
,
00000000
00001000
00000000
00010000
,
00000000
00000100
00000000
00001000
,
00000000
00000010
00000000
00000100
,
00000000
00000001
00000000
00001000
,
00000000
00000100
00010000
00001000
,
01000000
00000000
00100000
00000000
00000000
00100000
00000000
00000000
,
00100000
00000000
10000000
00000000
00000000
00010000
00000000
00000000
,
00100000
01000000
00000000
10000000
,
00000000
00010000
00000000
00100000
,
00000000
01010000
00000000
00000000
,
00000000
00110000
00000000
00011000
,
00000000
00001010
00000000
00001001
,
00000000
00000101
00000000
00000000
,
00000000
00000000
00000000
00000001
,
00000100
00000010
00000000
00000100
,
00000010
00001000
00000000
00000100
,
00010000
00001000
00000000
00010000
,
00001000
01000000
00100000
10000000
,
00010000
00100000
00000000
01000000
,
10000000
00100000
00000000
01000000
,
00010000
00100000
00001000
00010000
,
00000100
00002000
00000000
00003010
,
00000100
00000001
00000000
00000010
,
00000100
00001000
00000000
00000100
,
00010000
00001000
01000000
00100000
,
10000000
00010000
00010000
10000000
,
01000000
00100000
00000000
01000000
,
10000000
00100000
00000000
01000000
,
00010000
00100000
00001000
00010000
,
00001000
02000000
00000000
03100000
,
00000000
00000000
00000000
01000000
,
00000000
00000000
00000000
00010000
,
00000000
00000000
00000000
00100000
,
00000000
00001000
00000000
00011000
,
00010000
00010000
00000000
00011000
,
00001000
00001000
00000000
00011000
,
00000000
00011000
00000000
00011000
,
00011000
00011000
00000000
00010000
,
00000100
00001000
00000010
00000000
,
00000100
00000001
00000010
00000000
,
00000100
00010000
00001000
01000000
,
00100000
00010000
00100000
10000000
,
00010000
00100000
00000000
01000000
,
10000000
00010000
00000000
00100000
,
00001000
00010000
00000100
00001000
,
00000100
00000010
00000001
00001001
;

//--------------- dance-double - Pandemonium X ----------------
#NOTES:
     dance-double:
     Pandemonium X:
     Medium:
     10:
     0,0,0,0,0:
00000000
00000000
00000000
00000000
,
00000000
00000000
00000000
00000000
,
00000000
00000000
00000000
00000000
,
00000000
00000000
00000000
00000000
,
00000000
00000000
00000000
00000000
,
00011000
00010000
00000010
00000100
,
00000101
00000000
00001100
00000000
,
00010100
00000000
00000000
00000000
,
00022000
00000000
00000000
00000000
,
00033000
00000000
00001000
01000000
00100000
00000000
01000000
00000000
,
00010000
00000000
10000000
00010000
00100000
00000000
00001000
00000000
,
00010000
00000000
00010100
00000000
00000100
00001000
00000000
00000000
,
00000000
00001000
00000001
00000010
00000100
00000000
00000010
00000001
,
00001000
00001100
00000100
00010000
,
00001000
01000000
01000000
00000000
00000000
00100000
00100000
00000000
,
00000000
10000000
10000000
00000000
00000000
00000000
10010000
00000000
,
00000000
00000000
00000000
00000000
00110000
00000000
00000000
00000000
00000000
00000000
00000000
00000000
00100000
00000000
00000000
00001000
,
00000000
00010000
00000100
00000000
00001000
00000010
00000000
00000100
,
00000000
00000000
00000001
00000000
00000010
00000100
00000000
00001000
,
00000000
00000000
00010100
00000000
00000000
00011000
00000000
00000000
,
00000000
00001000
01000000
00100000
10000000
00000000
00010000
00100000
,
01000000
00000000
11000000
00000000
10000000
00000000
01000000
10000000
,
00000000
00100000
00100000
00000000
00000000
01000000
01000000
00000000
,
00000000
00001000
00001000
00000000
00000000
00000000
00011000
00000000
,
00000000
00000000
00000000
00000000
00010100
00000000
00000000
00000000
00000000
00000000
00000000
00000000
00000100
00000000
00000000
00001000
,
00000000
00000010
00000100
00000000
00000000
00000000
00000000
00000001
,
00000000
00000010
00000010
00000000
00000000
00000100
00000100
00000000
,
00000000
00010000
00010000
00000000
00000000
00000000
00001000
00000000
,
00000000
00011000
00000000
00000000
,
00000000
00000000
00000000
00000000
,
00000000
00000000
00000000
00000000
00010000
00000000
00000000
00010000
00000000
00000000
00001000
00000000
01000000
00000000
00000000
00000000
,
00000000
00000000
00000000
00000000
00100000
00000000
00000000
00100000
00000000
00000000
00000000
00000000
01000000
00000000
00000000
01000000
,
00000000
00000000
00200000
00000000
00000000
10000000
20000000
00000000
,
30300000
00000000
01000000
00100000
00010000
00000000
00100000
00001000
,
00010000
00000000
00000100
00000000
00000000
00001000
00000000
00000000
,
00000010
00000000
00000100
00000000
00000000
00001000
00000000
00000000
,
00000100
00000001
00000000
00001001
,
00000000
00000000
00000110
00000000
00000000
00000011
00000000
00000000
,
00000010
00000000
00000100
00000000
00001000
00000000
00000000
00000100
00000000
00000000
00010000
00000000
00001000
00000000
00000000
00000000
,
00000000
00000000
00000000
00000000
00010000
00000000
00000000
00001000
00000000
00000000
00000000
00000000
00010000
00000000
00000000
00000100
,
00000000
00000000
00020000
00000000
00000000
00001000
00002000
00000000
,
00033000
00010000
00001000
01000000
00100000
00000000
01000000
00010000
,
00100000
00000000
11000000
00000000
00000000
01000000
00000000
00000000
,
00100000
00000000
01000000
00000000
00000000
00100000
00000000
00000000
,
00001000
00010000
00000100
00000000
00000000
00001000
00002000
00000000
,
00000000
00000000
00000000
00000000
00003010
00000000
00000000
00000000
00000000
00000000
00000000
00000000
00000100
00000000
00000000
00000010
,
00000000
00010000
00001000
00001000
00100000
00010000
00000000
11000000
,
00000000
10000000
10000000
00000000
00000000
00100000
00100000
00000000
,
00000000
01000000
01000000
00000000
00000000
00000000
00010000
00000000
,
00000000
00011000
00000000
00000000
,
00000000
00000000
00000000
00000000
00000000
00000000
00000000
00010000
,
00000000
00001000
00000000
00000000
00100000
00000000
00000000
00001000
00000000
00000000
00010000
00000000
00000000
00000000
00001000
00000000
,
00000000
00010000
00000000
00000000
00000010
00000000
00000000
00010000
00000000
00000000
00001000
00000000
00000000
00000000
00010000
00000000
,
00000000
00001000
00000000
00000000
01000000
00000000
00000000
00001000
00000000
00000000
00010000
00000000
00000100
00000000
00000000
00010000
,
00000000
00000000
00001000
00000000
00010000
00000000
00000000
00001000
00000000
00000000
00011000
00000000
00000000
00000000
00001000
00000000
,
00000000
01000000
00000000
00000000
00100000
00000000
00000000
01000000
00000000
00000000
00001000
00000000
00000000
00000000
00010000
00000000
,
00000000
00000100
00000000
00000000
00001000
00000000
00000000
00000100
00000000
00000000
00010000
00000000
00000000
00000000
00001000
00000000
,
00000000
01000000
00000000
00000000
00001000
00000000
00000000
00010000
00000000
00000000
00000100
00000000
00001000
00000000
00000000
00001000
,
00000000
00000000
00000010
00000000
00000100
00000000
00000000
00000001
00000000
00000000
00001001
00000000
00000000
00000000
00000001
00000000
,
00000000
00000100
00000000
00000000
00000010
00000000
00000000
00001000
00000000
00000000
00000100
00000000
00000000
00000000
00010000
00000000
,
00000000
00001000
00000000
00000000
01000000
00000000
00000000
00100000
00000000
00000000
10000000
00000000
00000000
00000000
00010000
00000000
,
00000000
00100000
00000000
00000000
01000000
00000000
00000000
10000000
00000000
00000000
01000000
00000000
10000000
00000000
00000000
00100000
,
00000000
00000000
01000000
00000000
00010000
00000000
00000000
00100000
00000000
00000000
01100000
00000000
00000000
00000000
01000000
00000000
,
00000000
00100000
00000000
00000000
00010000
00000000
00000000
10000000
00000000
00000000
00100000
00000000
00000000
00000000
01000000
00000000
,
00000000
00010000
00000000
00000000
00100000
00000000
00000000
00001000
00000000
00000000
00010000
00000000
00000000
00000000
00000100
00000000
,
00000000
00001000
00000000
00000000
00000010
00000000
00000000
00000100
00000000
00000000
00000001
00000000
00000010
00000000
00000000
00000100
,
00000000
00000000
00001000
00000000
00000100
00000000
00000000
00010000
00000000
00000000
00011000
00000000
00000000
00000000
00000000
00000000
,
00000000
00000000
00000000
00001000
01000000
00100000
00000000
00000000
,
00000000
00000000
00000000
10000000
,
00000000
00000000
00000000
00000000
00000000
00000000
00000000
00000000
00000000
00000000
00010000
00000000
00100000
00000000
00000000
00100000
,
00000000
00000000
01000000
00000000
10000000
00000000
00000000
10000000
00000000
00000000
10000000
00000000
10010000
00000000
00000000
00000000
,
00010000
00010000
00010000
10010000
,
10000000
10000000
10000000
10010000
,
00100000
10010000
01000000
00220000
,
00000000
00000000
00000000
00000000
00330000
00000000
00000000
01000000
,
00000000
10000000
00000000
00000000
00100000
00000000
00000000
01000000
00000000
00000000
00001000
00000000
00000000
00000000
00010000
00000000
,
00000000
00001000
00000000
00000000
00010000
00000000
00000000
00000100
00000000
00000000
00001000
00000000
00000000
00000000
00000010
00000000
,
00000000
00000100
00000000
00000000
00000001
00000000
00000000
00000010
00000000
00000000
00000100
00000000
00001000
00000000
00000000
00000100
,
00000000
00000000
00010000
00000000
00001000
00000000
00000000
01000000
00000000
00000000
00100000
00000000
00000000
00000000
01000000
00000000
,
00000000
00010000
00000000
00000000
00100000
00000000
00000000
00001000
00000000
00000000
00010000
00000000
00000000
00000000
00000100
00000000
,
00000000
00001000
00000000
00000000
00000010
00000000
00000000
00000100
00000000
00000000
00000001
00000000
00000000
00000000
00000010
00000000
,
00000000
00000100
00000000
00000000
00001000
00000000
00000000
00000100
00000000
00000000
00010000
00000000
00001000
00000000
00000000
01000000
,
00000000
00000000
00100000
00000000
10000000
00000000
00000000
00010000
00000000
00000000
00100000
00000000
02000000
00000000
00000000
00000000
,
00000000
00000000
00000000
00000000
,
03000000
00000000
00000000
00000000
;

//--------------- dance-double - Pandemonium X ----------------
#NOTES:
     dance-double:
     Pandemonium X:
     Hard:
     14:
     0,0,0,0,0:
00000000
00000000
00000000
00000000
,
00000000
00000000
00000000
00000000
,
00000000
00000000
00000000
00000000
,
00000000
00000000
00000000
00000000
,
00000000
00000000
00000000
00000000
,
00001000
00000000
01000000
00000000
00010000
00000000
00100000
00000000
00000000
00000000
01000000
00000000
00000000
00000000
10000000
00010000
,
10000000
00000000
00000000
00000000
00000000
00000000
00010000
01000000
00010000
00000000
00000000
00000000
00000000
00000000
00100000
00001000
,
00100000
00000000
00000000
00000000
,
00022000
00000000
00000000
00000000
,
00033000
00000000
00010000
00000010
00001000
00000100
00000000
00001100
,
00000000
00000000
00000100
00000010
00000100
00000000
00000010
00000000
00000001
00000000
00001000
00000000
00000000
00000000
00000101
00000000
,
00000000
00001000
00000001
00000010
00000001
00001000
00000000
00000000
,
00000000
00000000
00000100
00010000
00001000
00000000
00001000
00000000
01000000
00000000
00100000
00000000
10000000
00000000
10000000
00000000
,
01000000
00100000
00110000
00000000
00100000
00000000
00001000
00011000
,
00000000
00000000
00010000
00000100
00010000
00000000
00000000
00000000
00000000
00000000
00001000
01000000
00001000
00000000
00000000
00000000
,
00000000
00000000
00010000
00001000
00010000
00000000
00000000
00000000
00000000
00000000
00000000
00000000
00010100
00000000
00000000
00000000
,
00000000
00000000
00000000
00000000
00012000
00000000
00000000
00000000
00000000
00000000
00000000
00000000
01003000
00000000
00000000
00100000
,
00000000
10000000
11000000
01000000
10000000
00100000
00000000
01010000
,
00000000
00000000
00010000
00100000
00001000
00000000
00010000
00000000
00000100
00000000
00001000
00000000
00000000
00000000
00000101
00000000
,
00000000
00000000
00000011
00000000
00000000
00001100
00000000
00000000
,
00000000
00000000
00000100
00010000
00001000
00000000
00001000
00000000
00010000
00000000
00001000
00000000
01000000
00000000
01000000
00000000
,
00010000
00100000
01100000
00000000
01000000
00000000
10000000
00100000
,
00000000
00000000
01000000
00010000
00100000
00000000
00000000
00000000
00000000
00000000
00001000
00010000
00000100
00000000
00000000
00000000
,
00000000
00000000
00010000
00000010
00001000
00000000
00000010
00000000
00001000
00000000
00000010
00000000
00000100
00000000
00000001
00000000
,
00000100
00000000
00000001
00000000
00002000
00000000
00000000
00000000
00000000
00000000
00000000
00000000
00000100
00000000
00000000
00000100
,
00000000
00003100
00010000
00010000
00001000
01000000
00000000
01100000
,
00000000
00000000
01000000
00010000
00100000
00000000
00000000
00000000
00000000
00000000
00010000
00100000
00001000
00000000
00000000
00000000
,
00000000
00000000
00010000
00000100
00001000
00000000
00000000
00000000
00000000
00000000
00000000
00000000
00000010
00000000
00000000
00000000
,
00000000
00022000
00000000
00000000
,
00000000
00033000
00000000
00000000
,
00000000
00000000
00001000
01000000
00100000
00000000
00000000
00100000
00000000
00000000
00100000
00000000
01000000
00000000
00000000
00000000
,
00000000
00000000
01000000
00100000
10000000
00000000
00000000
10000000
00000000
00000000
10000000
00000000
00010000
00000000
00000000
00010000
,
00000000
00100000
00002000
00000000
00000000
00010000
00020000
00000000
,
00033000
00000000
00000100
00001000
00000010
00000000
00000001
00000000
00000010
00000000
00001000
00000000
00000100
00000000
00010000
00000000
,
00001000
01000000
00200000
00000000
00000000
10000000
00000000
00000000
,
01300000
00000000
02000000
00000000
00000000
00010000
00000000
00000000
,
03100000
10020000
00000000
01000000
,
00030000
00000000
10000000
01000000
00200000
00000000
00000000
00000000
00000000
00000000
02300000
00000000
00000000
00000000
00000000
00000000
,
13000000
00000000
00010000
00100000
00001000
00000000
00000000
00001000
00000000
00000000
00010000
00000000
00000010
00000000
00000000
00000000
,
00000000
00000000
00000100
00000001
00001000
00000000
00000000
00001000
00000000
00000000
00000100
00000000
00010000
00000000
00000000
00010000
,
00000000
00001000
00200000
00000000
00000000
01000000
02000000
00000000
,
03300000
00000000
01000000
00100000
00010000
00000000
01000000
00000000
10000000
00000000
01000000
00000000
00010000
00000000
01000000
00000000
,
00100000
10000000
00020000
00000000
00000000
00100000
00000000
00000000
,
01030000
00000000
02000000
00000000
00000000
00001000
00000000
00000000
,
03010000
00100000
00002000
00000000
00000000
00010000
00020000
00000000
,
00033000
00000000
00000000
00000000
00011000
00000000
00000000
00000000
00000000
00000000
00000000
00000000
00010000
00000000
00000000
00000100
,
00000000
00001000
00001010
00000010
00000100
00000001
00000000
00000011
,
00000000
00000000
00000100
00010000
00001000
00000000
00000000
00000000
00000000
00000000
00010000
00001000
01000000
00000000
00000000
00000000
,
00000000
00000000
00100000
10000000
01000000
00000000
00000000
00000000
00000000
00000000
00000000
00000000
00100000
00000000
00000000
00000000
,
00000000
00022000
00000000
00000000
,
00000000
00000000
00000000
00000000
00033000
00000000
00001000
01000000
,
00000000
00100000
00000000
00000000
10000000
00000000
00000000
01000000
00000000
00000000
10000000
00000000
00000000
00000000
10000000
00000000
,
00000000
01000000
00000000
00000000
00100000
00000000
00000000
00010000
00000000
00000000
00010000
00000000
00000000
00000000
00100000
00000000
,
00000000
00010000
00000000
00000000
00001000
00000000
00000000
00000100
00000000
00000000
00000010
00000000
00000001
00000000
00000000
00001000
,
00000000
00000000
00000010
00000000
00001010
00000000
00000000
00010100
00000000
00000000
00011000
00000000
00000000
00000000
00010000
00000000
,
00000000
00000100
00000000
00000000
00001000
00000000
00000000
00000010
00000000
00000000
00000100
00000000
00000000
00000000
00000001
00000000
,
00000000
00000100
00000000
00000000
00000010
00000000
00000000
00010000
00000000
00000000
00000100
00000000
00000000
00000000
00010000
00000000
,
00000000
00001000
00000000
00000000
01000000
00000000
00000000
00100000
00000000
00000000
10000000
00000000
01000000
00000000
00000000
00100000
,
00000000
00000000
00010000
00000000
00011000
00000000
00000000
00001100
00000000
00000000
00000011
00000000
00000001
00000000
00000100
00000000
,
00000000
00001000
00000000
00000000
00010000
00000000
00000000
00100000
00000000
00000000
10000000
00000000
00000000
00000000
10000000
00000000
,
00000000
01000000
00000000
00000000
00010000
00000000
00000000
00001000
00000000
00000000
00000010
00000000
00000000
00000000
00000001
00000000
,
00000000
00001000
00000000
00000000
00000010
00000000
00000000
00001000
00000000
00000000
00000001
00000000
00000100
00000000
00000000
00001000
,
00000000
00000000
00010000
00000000
00110000
00000000
00000000
01100000
00000000
00000000
10010000
00000000
00000000
00000000
10000000
00000000
,
00000000
01000000
00000000
00000000
00010000
00000000
00000000
00001000
00000000
00000000
00000010
00000000
00000000
00000000
00000001
00000000
,
00000000
00000010
00000000
00000000
00000100
00000000
00000000
00010000
00000000
00000000
00001000
00000000
00000000
00000000
00010000
00000000
,
00000000
00000010
00000000
00000000
00000100
00000000
00000000
00001000
00000000
00000000
00000100
00000000
00000001
00000000
00000000
00000100
,
00000000
00000000
00001000
00000000
00011000
00000000
00000000
00101000
00000000
00000000
00011000
00000000
00010100
00000000
00000000
00000000
,
00000000
00000000
00000000
00010000
00000010
00000110
00000101
00000000
,
00000000
00000001
00000000
00001100
,
00000000
00000000
00000000
00000000
00000100
00000000
00000000
00000000
00000000
00000000
00011000
00000000
00011000
00000000
00000000
00001000
,
00000000
00000000
01000000
00000000
00100000
00000000
00000000
00100000
00000000
00000000
10000000
00000000
00010000
00000000
01000000
00000000
,
00100000
00000000
10000000
00000000
00010000
10000000
00010000
00000000
10000000
00010000
10000000
00000000
00010000
00000000
00100000
00000000
,
00001000
00000000
00010000
00000000
00000010
00000100
00000010
00000000
00000100
00000010
00000100
00000000
00000010
00000000
00000100
00000000
,
00000002
00000000
00000000
00000000
00001003
00000000
00000100
00000000
00020000
00000000
00000000
00000000
00031000
00000000
00000000
01000000
,
00000000
00000000
00100000
00000000
10100000
00000000
00000000
01010000
00000000
00000000
10010000
00000000
00000000
00000000
10000000
00000000
,
00000000
01000000
00000000
00000000
00010000
00000000
00000000
00001000
00000000
00000000
00000110
00000000
00000000
00000000
00000001
00000000
,
00000000
00000100
00000000
00000000
00001000
00000000
00000000
00010000
00000000
00000000
00011000
00000000
00000000
00000000
00001000
00000000
,
00000000
01000000
00000000
00000000
00100000
00000000
00000000
10000000
00000000
00000000
01000000
00000000
01000000
00000000
00000000
00100000
,
00000000
00000000
00001000
00000000
00011000
00000000
00000000
00010100
00000000
00000000
00001100
00000000
00001000
00000000
00000001
00000000
,
00000000
00000100
00000000
00000000
00001000
00000000
00000000
00010000
00000000
00000000
01100000
00000000
00000000
00000000
10000000
00000000
,
00000000
01000000
00000000
00000000
00010000
00000000
00000000
00001000
00000000
00000000
00011000
00000000
00010000
00000000
00000100
00000000
,
00001000
00000000
00000010
00000000
00000001
00000000
00000010
00000000
00001000
00000000
00000100
00000000
00010000
00000000
00001000
01000000
,
00000000
00100000
10000000
00000000
10010000
00000000
10000000
01000000
00000000
00100000
00001000
00000000
00011000
00000000
00000000
00000000
;
