#TITLE:CONCEPTUAL;
#SUBTITLE:;
#ARTIST:Sota Fujimori 2nd Season;
#TITLETRANSLIT:;
#SUBTITLETRANSLIT:;
#ARTISTTRANSLIT:;
#GENRE:;
#CREDIT:;
#MUSIC:CONCEPTUAL.ogg;
#BANNER:;
#BACKGROUND:CONCEPTUAL-bg.png;
#CDTITLE:;
#SAMPLESTART:57.156;
#SAMPLELENGTH:9.729;
#SELECTABLE:YES;
#OFFSET:-0.186;
#BPMS:0.000=198.000;
#STOPS:68.000=0.909
,181.000=0.909
;
#BGCHANGES:;
#FGCHANGES:;

//--------------- dance-single - Pandemonium X ----------------
#NOTES:
     dance-single:
     Pandemonium X:
     Beginner:
     7:
     0,0,0,0,0:
0000
0000
0000
0000
,
0000
0000
0000
0000
,
0000
0000
0000
0000
,
0000
0000
0000
0000
,
0000
0000
0000
0000
,
0001
0001
0000
0000
,
0000
0000
0000
0000
,
1000
0000
1000
0000
0000
0000
0000
0110
,
0000
0000
0000
0000
,
0010
0000
1000
0000
,
0100
0000
0000
0000
,
1000
0000
0001
0000
,
0010
0000
0000
0000
,
0100
0000
0010
0000
,
0001
0000
0000
0000
,
0000
1001
0000
0000
0000
0000
0000
0110
,
0000
0000
0000
0000
,
0000
0001
0000
0000
,
0000
1000
0000
0100
,
0000
0010
0000
0000
,
0000
0100
0000
1000
,
0000
0010
0000
0000
,
0000
0100
0000
0001
,
0000
0010
0000
0000
,
0000
0100
0000
0000
0000
0000
0000
0000
,
0000
0010
0000
0001
,
0000
1000
0000
0001
,
0000
0100
0000
0010
,
0010
0010
0000
0100
,
0000
0001
0000
1000
,
0000
0100
0000
0010
,
0000
0100
0000
1000
,
0000
0001
0000
1000
,
0000
0220
0000
0000
,
0000
0330
0000
0000
,
0000
2002
0000
0000
,
0000
3003
0000
0000
,
0000
0002
0000
0003
,
0000
2000
0000
3000
,
0000
0020
0000
0030
,
0000
0200
0000
0000
,
0300
0020
0000
0000
,
0000
0000
0000
1030
,
0000
0002
0000
0000
,
0000
2000
0000
0000
0000
0000
0000
0000
,
0000
3003
0001
1000
,
0001
0000
0010
0000
,
0001
0000
1000
0001
,
1000
0000
0100
0000
,
1000
0000
0010
0100
,
0010
0000
1000
0000
,
0001
0000
0010
0100
,
0010
0000
2002
0000
,
0000
3003
0001
1000
,
0100
0000
0010
0000
,
0100
0000
1000
0001
,
0100
0000
0010
0000
,
0000
0000
0100
0001
,
0010
0000
0100
0000
,
1000
0000
0000
0000
0001
0000
0000
0001
,
0000
0000
0000
0000
1000
0000
0000
1000
,
0000
0000
0000
0000
0000
0010
0000
0000
,
0100
0000
0000
0001
0000
0000
0000
0000
,
0000
0000
0000
0000
0000
1000
0000
0000
,
0001
0000
0000
0010
0000
0000
0100
0000
,
1000
0000
0000
0000
0000
0100
0000
0000
,
1000
0000
0000
0010
0000
0000
0100
0000
,
0000
0010
0000
0100
,
0100
0000
0000
0001
0000
0000
1000
0000
,
0001
0010
0200
0000
,
0000
0000
0000
0000
,
0000
0000
0000
0000
,
0000
0000
0000
0000
,
0000
0300
1000
1000
,
1000
1000
0001
0000
,
0100
0000
0001
0001
,
0001
0001
0010
0000
,
0100
0000
0000
0000
0000
1000
0000
0000
,
0000
0001
0000
0000
0000
0100
0000
0000
,
0000
0010
0000
0000
1000
0000
0001
0000
,
0010
0001
1000
0010
,
0100
0001
1001
1000
,
0000
0000
0000
0000
0000
0001
0000
0001
,
0000
0001
0000
0000
0100
0000
0100
0000
,
0000
0000
0000
0000
0000
0010
0000
0010
,
0000
0010
0000
0000
1000
0000
1000
0000
,
0000
0000
0000
0000
0000
0100
0000
0100
,
0000
0100
0000
0000
0010
0000
0010
0000
,
0000
0001
0000
0000
0000
0000
1000
0000
,
0001
0000
0000
0110
0000
0000
0000
0000
;

//--------------- dance-single - Pandemonium X ----------------
#NOTES:
     dance-single:
     Pandemonium X:
     Easy:
     9:
     0,0,0,0,0:
0000
0000
0000
0000
,
0000
0000
0000
0000
,
0000
0000
0000
0000
,
0000
0000
0000
0000
,
0000
0000
0000
0000
,
0001
0000
0001
0000
0000
1000
0000
1000
,
0000
0010
0000
0010
0000
0100
0000
0000
,
0010
0000
0010
0000
0000
0100
0000
1001
,
0000
0000
0000
0000
,
1000
0100
1000
0100
,
0010
0001
0010
0001
,
0100
0001
0100
0001
,
0100
0010
0100
0001
,
1000
0010
1000
0010
,
0100
0001
0100
0001
,
0000
1000
0000
0001
0000
1000
0000
0010
,
0000
0100
0000
0001
0000
1000
0001
0000
,
0110
1000
1000
0100
,
0100
1000
0100
0010
,
0001
0100
0100
0001
,
0001
0001
0010
0100
,
1000
1000
0001
0001
,
0100
0010
1000
0001
,
1000
1000
0001
0001
,
0010
0100
0000
0100
0000
0100
1000
0000
,
0001
2000
3010
0100
,
0100
0010
1000
0001
,
0020
0130
1000
0002
,
0103
0100
0100
0010
,
1000
0100
0010
0200
,
1300
0001
0200
0320
,
1030
0002
2003
3100
,
0010
0002
0000
0000
1000
0000
1000
0000
,
1003
0220
0000
0000
,
0330
0000
1001
0000
0000
0000
0010
0100
,
0010
2002
0000
0000
,
3003
0000
0110
0000
0000
0000
0001
1000
,
0001
2000
0000
3010
,
0000
0200
0000
0301
,
0000
0020
0000
0130
,
0000
2000
0000
3001
,
0000
0102
0000
0000
,
0000
0000
0000
1003
,
0001
2000
0000
0000
,
0000
0200
0000
0000
0000
0000
0000
0000
,
0000
3300
0001
1000
,
0020
0030
0200
0300
,
0002
0003
1000
0100
,
0020
0030
0100
0100
,
1000
0001
0001
1000
,
0020
0030
0200
0300
,
0002
0003
1000
0001
,
0020
0030
0220
0000
,
0000
0330
1001
0001
,
2000
3000
0002
0003
,
0200
0300
0010
0100
,
0002
0000
0003
0000
1000
0000
0000
1000
,
0000
1000
0001
1000
,
0200
0300
0020
0030
,
0200
0000
0300
0000
0010
0000
0000
0010
,
0000
0000
0001
0000
1000
0000
0000
0020
,
0000
0000
0000
0000
0030
1000
0001
0000
,
1000
0001
0000
1000
0001
0000
0000
0000
,
0000
0000
0000
0000
0000
1000
0001
0000
,
1000
0001
0000
1000
0000
0000
0001
0000
,
1000
0001
1000
0000
0000
0001
1000
0000
,
0001
1000
0000
0001
0000
1000
0001
0000
,
0000
0001
1000
0000
0000
0001
1000
0001
,
1000
0001
0000
1000
0000
0000
0001
0000
,
1000
0010
0200
0000
,
0000
0000
0320
0000
,
0000
0000
2030
0000
,
0000
0000
3002
0000
,
2003
0000
3100
0100
,
0010
0010
0001
0010
,
0100
1000
0100
0000
1000
0000
1000
0000
,
0010
0010
0100
0100
,
0001
0010
0001
0000
0000
1000
0001
1000
,
0000
0001
1000
0001
0000
1000
0001
1000
,
0000
0001
1000
0001
1000
0000
0002
0000
,
0103
0020
1030
0002
,
0023
0230
1300
1000
,
0000
0001
0000
1000
0000
0001
0000
0100
,
0000
0001
0000
0000
1000
0000
1000
0000
,
0000
0001
0000
0010
0000
0100
0000
0010
,
0000
0001
0000
0000
1000
0000
1000
0000
,
0000
0001
0000
0100
0000
0001
0000
0010
,
0000
0100
0000
0000
1000
0000
1000
0000
,
0000
0100
0000
1000
0000
0010
0000
0100
,
0000
0000
0001
1000
0000
0000
0000
0000
;

//--------------- dance-single - Pandemonium X ----------------
#NOTES:
     dance-single:
     Pandemonium X:
     Medium:
     13:
     0,0,0,0,0:
0000
0000
0000
0000
,
0000
0000
0000
0000
,
0000
0000
0000
0000
,
0000
0000
0000
0000
,
0000
0000
0000
0000
,
0001
0000
0001
0000
0000
0001
1000
0010
,
0000
0010
1000
0001
0000
0001
1000
0100
,
0010
0000
0010
0000
0000
0010
0100
1001
,
0000
1000
0100
0010
0001
1000
1001
0000
,
0001
0100
1000
0100
,
0010
0000
1000
0000
0001
0010
0100
0000
,
1000
0100
0001
0100
,
0010
0000
0100
0000
1000
0100
0010
0001
,
1000
0001
0100
1000
,
0100
0000
0001
0000
1000
0001
0010
0000
,
0000
0100
0100
0100
0000
0010
0000
0001
,
0000
1000
1000
1000
0000
0001
1000
0000
,
0110
0001
0100
0010
,
1000
0100
0001
0100
,
0010
0001
0100
0001
,
1000
0010
0001
0010
,
1000
0001
1000
0100
,
1000
0001
0010
1000
,
0010
0100
0010
0001
,
0100
0010
0010
0100
,
0100
1001
0001
1000
,
1000
0001
0010
0100
,
0010
0001
1000
0100
,
0010
0010
0010
0100
,
1000
0001
0100
0001
,
1000
0100
0010
0100
,
1000
0001
0100
0010
,
1000
0001
0000
1000
0000
0001
0010
0000
,
0100
1100
0000
0000
,
0000
0000
0000
0000
0001
1000
0000
0001
0000
0000
1000
0000
0001
0000
1000
0000
,
0001
1000
0000
0000
0000
0000
0000
0000
0000
0000
0000
0000
0000
0000
0000
0000
,
0000
0000
0000
0000
1000
0001
0000
1000
0000
0000
0001
0000
1000
0000
0001
0000
,
1000
0001
0000
0000
0100
0000
0000
0100
0000
0000
0100
0000
0000
0000
0010
0000
,
2000
0000
0000
0000
3001
0000
0000
0001
0000
0000
0001
0000
0000
0000
0010
0000
,
0100
0000
0010
0000
0100
0000
0000
0100
0000
0000
0100
0000
0000
0000
0010
0000
,
0100
0000
1000
0000
0010
0000
0000
0010
0000
0000
0010
0000
0000
0000
2000
0000
,
0002
0000
3003
0000
0102
0000
0000
0000
0000
0000
0000
0000
0000
0000
0000
0013
,
0000
0100
0000
2000
0000
0000
0000
0000
0000
0000
0000
0000
3100
0000
0010
0000
,
0001
0010
0200
0000
0000
0000
0000
1300
,
0002
2000
0000
0000
0000
0000
0000
0000
,
0000
0000
3003
0000
0021
0000
0130
1000
,
0002
0000
0000
1003
0020
0000
0000
0130
,
0002
0000
0000
0013
0200
0000
0310
0001
,
2000
0000
0000
3010
0200
0000
0001
0302
,
0000
1000
1003
0000
1200
0000
0310
0100
,
2000
0000
0000
3001
2000
0000
0000
3100
,
0020
0000
0130
1000
0002
0000
0103
0010
,
0200
0000
0000
0000
0000
0000
0000
0000
0310
0000
0000
1001
0000
0000
0100
0000
,
0000
1001
0000
0000
0010
0000
0001
0000
1001
0000
0000
0000
1000
0000
0001
0000
,
0020
0000
0000
0130
2000
0000
0000
3100
,
0020
0000
0000
0130
0020
0000
0031
0100
,
0002
0000
0000
1003
0002
0000
1000
2003
,
0000
0010
3020
0000
0230
0000
0310
0100
,
0002
0000
0000
1003
0200
0000
0000
0310
,
0002
0000
0000
1003
0001
0001
0010
0100
,
0000
0010
0100
0100
0010
0001
2000
0002
,
0000
0000
0000
0000
3003
0001
0001
0000
,
1000
1000
0000
0010
0010
0000
0000
0000
,
0000
0000
0000
0000
0000
1000
1000
0000
,
0001
0001
0000
0100
0000
0000
0100
0000
,
0100
0001
1000
0001
0000
1000
1000
0001
,
0001
0001
0000
0010
0000
0100
0100
0000
,
0000
1000
1000
0000
0000
0100
1000
1000
,
1000
0001
0000
1001
0000
0000
0001
0000
,
1000
0010
0100
0001
1000
0000
1000
0000
,
1000
1000
0001
0001
,
0001
0001
1000
1000
,
0001
0001
2000
3200
,
0320
0000
0000
0000
0032
0000
0000
0000
1003
0000
0000
0100
0000
0000
0010
0000
,
0000
0001
0000
0000
1000
0000
0000
0000
0001
0100
0000
0010
0000
0000
0100
0000
,
0010
0000
1000
0000
0100
0000
0000
0000
0010
0000
0000
0001
0000
0000
1000
0000
,
0000
0100
0000
0000
0010
0000
0000
0000
0100
0000
1000
0001
0000
0000
1000
0000
,
0010
0100
0010
0000
0000
1000
0010
1000
,
0000
0001
0100
0001
0000
1000
0100
1000
,
0000
0001
0010
0001
1002
0000
0103
0000
,
1020
0130
0021
0230
,
0320
0032
1003
1000
,
0000
1000
0100
0010
0000
0010
0000
0010
,
0000
0010
0000
0010
0001
0000
0001
0000
,
0000
0001
0010
0100
0000
0100
0000
0010
,
0000
0100
0000
0010
0100
0000
0100
0000
,
0000
0100
1000
0010
0000
0100
0001
0010
,
0000
0100
1000
0010
0100
0000
0100
0000
,
0000
0100
0010
1000
0000
0001
1000
1000
,
0001
0100
0010
1001
0000
0000
0000
0000
;

//--------------- dance-single - Pandemonium X ----------------
#NOTES:
     dance-single:
     Pandemonium X:
     Hard:
     16:
     0,0,0,0,0:
0000
0000
0000
0000
,
0000
0000
0000
0000
,
0000
0000
0000
0000
,
0000
0000
0000
0000
,
0000
0000
0000
0000
,
0001
0000
0001
0000
0000
0001
0100
1000
,
0000
0100
0001
1000
0000
0001
0010
1000
,
0010
0000
0010
0000
0000
0100
0010
1001
,
0000
0000
0001
0000
1000
0000
0001
0000
0010
0100
1000
0000
0001
0000
1001
0000
,
1000
0001
0101
0000
0001
1000
1100
0000
,
0001
0000
0010
0000
0011
0000
0000
0000
0100
1000
0000
1000
0000
1000
0001
0000
,
1000
0001
0011
0000
0001
1000
1010
0000
,
1000
0000
0001
0000
0101
0000
0000
0000
1000
0001
0000
0001
0000
0001
0010
0000
,
0100
1000
1010
0000
0001
0010
0110
0000
,
1000
0000
0100
0000
0110
0000
0000
0000
0010
0100
0000
0100
0000
0100
0010
0000
,
1001
1000
1000
1000
0000
1001
0000
0110
,
0000
0001
1000
0001
0000
1000
0110
0000
,
1001
0000
0001
0100
1000
0100
0001
0100
,
1000
0100
0001
0001
0010
0010
0100
0100
,
1000
1000
0001
0010
1000
0010
0001
0010
,
1000
0010
0100
0100
0010
0010
0001
0001
,
1000
1000
0010
0100
1000
0100
0001
0010
,
1000
0010
0001
0001
1000
1000
0100
0100
,
0010
0010
0100
1000
0010
0100
0000
0001
,
0100
1001
0000
0001
0010
0100
1000
0100
,
0010
0001
2001
0000
3010
0100
0001
0001
,
0001
0001
1000
0100
0001
0100
1000
0010
,
0200
0000
0310
0001
0010
0100
0001
1000
,
1000
1000
1000
0100
0010
0010
0100
1000
,
0001
0100
0010
0001
0020
0000
0100
0000
,
1030
0100
0002
0000
0103
0000
0010
0001
,
2000
0000
3020
0000
0230
0000
0301
1000
,
0100
1001
0000
1000
0002
0000
0013
0100
,
2000
3020
0000
0000
,
0000
0000
0000
0000
0130
0001
0000
0010
0000
0000
1000
0000
0010
0000
0001
0000
,
1000
0002
0000
0000
0000
0000
0000
0000
0000
0000
0000
0000
0000
0000
0000
0000
,
0000
0000
0000
0000
1003
0100
0000
0001
0000
0000
0100
0000
0010
0000
0001
0000
,
1000
0001
0000
0000
1000
0000
0100
0000
0010
0000
0001
0000
0000
1000
0100
0010
,
0002
0000
0000
0000
1003
0000
0100
0000
0010
0000
0001
0000
1000
0100
0010
0001
,
2000
0000
3001
1000
0001
0000
1000
0000
0100
0000
1000
0000
0000
0100
0010
0001
,
0020
0000
0230
0000
1300
0100
0010
0000
0001
0010
0100
1000
0100
0010
0001
1000
,
0100
0000
0000
0000
0020
0000
0000
0000
0000
0000
0000
0000
0030
0000
0000
0020
,
0000
0032
0000
0023
0000
0000
0000
0000
0000
0000
0000
0000
0230
0000
2300
0000
,
3020
0230
0302
0000
0000
0000
0000
2003
,
3020
0230
0000
0000
0010
0000
0010
0000
,
0010
0000
0310
0000
0000
0000
0000
0000
1001
0000
0000
0000
1000
0010
0100
0010
,
2000
0000
0000
0000
0000
0000
3001
0010
0002
0000
0000
0000
0000
0000
1003
0010
,
2000
0000
0000
0000
0000
0000
3001
0100
0002
0000
0000
0000
0103
0001
0010
0001
,
0200
0000
0000
0000
0000
0000
0000
0000
0000
0000
0000
0000
0301
0000
0010
0000
0002
0000
0000
0000
0000
0000
0000
0000
1003
0000
0000
0000
0200
0300
0000
0000
,
0000
0000
0000
0000
0200
0300
0000
0000
0001
0000
0000
0000
0000
0000
0000
0000
1001
0000
0000
0000
0000
0000
0000
0000
0001
0000
1000
0000
0010
0000
1000
0000
,
0002
0000
0000
0000
0000
0000
1003
0010
0200
0000
0000
0000
0000
0000
0310
1000
,
0200
0000
0000
0000
0310
0000
0100
0010
0002
0000
0000
0000
0013
0001
0100
0010
,
2000
0000
0000
0000
0000
0000
3001
0100
0002
0003
2000
3010
0000
0200
0301
0000
,
0010
0200
0300
0010
0002
0013
0100
1000
0001
0000
0000
0000
1000
0100
0010
0100
,
2000
0000
0000
0000
0000
0000
3001
0010
0200
0000
0000
0000
0000
0000
0310
0100
,
2000
0000
0000
0000
0000
0000
3100
1000
0020
0000
0000
0000
0130
0010
1000
0001
,
2000
0000
0000
0000
0000
3000
0001
1000
0100
0000
0000
0000
0011
0000
1100
0000
,
0000
0000
1010
0000
0101
0000
0000
0000
2001
0000
0000
0000
3001
0010
0001
1000
,
0200
0000
0000
0000
0000
0000
0310
0001
2000
0000
0000
0000
0000
0000
3001
0100
,
0020
0000
0000
0000
0030
0000
0100
0010
1000
0000
1000
0000
0001
0000
0020
0000
,
0000
0130
0001
0100
1000
1000
0001
2000
,
0000
0000
0000
0000
3000
0001
0001
0000
,
0100
0100
0000
1000
1000
0000
0000
0000
,
0000
0000
0000
0000
0000
1000
1000
0000
,
0100
0100
0000
0001
0000
0000
1000
0000
,
0001
0000
0010
0000
0001
0000
1000
0000
0000
0000
0001
0000
0001
0000
0100
0010
,
1000
1000
0000
0100
0000
0010
0100
0000
,
0000
0000
0100
0000
0010
0000
0000
0000
0000
0000
0010
0000
0001
1000
0001
0000
,
1000
0010
0000
0110
0000
0000
1001
0000
,
0001
0010
1000
0010
0002
0000
0100
0000
,
0010
0100
2003
0100
,
0010
3100
0002
0103
,
2000
0000
0000
3100
0000
0000
1000
0100
0010
0001
0010
0100
,
0010
0000
0000
0000
0001
0000
0000
0000
1000
0000
0000
0000
0100
0000
0000
0000
0010
0000
0000
0000
0100
0000
0000
0000
1000
0000
0000
0001
0000
0000
0000
0000
0000
0010
0000
0000
0100
0000
0000
0000
0000
0000
0010
0000
0000
0001
0000
0000
,
0000
1000
0010
0000
0100
0001
0000
1000
0001
0100
0000
0100
0000
0000
0010
0000
,
0100
0000
0001
0000
1000
0100
0000
0000
0010
0100
0000
0010
0001
0000
1000
0010
,
0000
0100
0001
0000
1000
0001
0000
0010
0100
0010
0000
0010
0000
0000
0001
0000
,
1000
0000
0001
0000
1000
0010
0000
0000
0000
0000
0100
0000
0010
0000
1001
0000
,
0000
0010
0100
1001
0000
0100
0010
1001
,
0000
0000
0000
0010
0000
0000
0100
0000
0000
1001
0000
0000
0002
0000
0000
0000
0000
0000
1003
0000
0100
0000
0010
0000
,
0002
0000
0000
0013
0100
1000
0002
0000
0000
1003
0100
0010
,
0001
0010
1000
0010
0001
0100
0010
0000
0000
0101
0000
0000
,
0000
0100
0001
1000
0000
1100
0000
0011
,
0000
1001
0000
1000
1010
0000
0101
0000
,
0000
0001
1000
0010
0000
1010
0000
0101
,
0000
0011
0000
0100
0110
0000
1100
0000
,
0000
1000
0100
0011
0000
0001
0100
1010
,
0000
0100
0010
1000
1001
0000
1001
0000
,
0000
1000
0100
0011
0000
0001
0010
1000
,
0010
0100
1000
0000
1001
0000
0110
0000
0000
0000
0000
0000
0000
0000
0000
0000
;

//--------------- dance-double - Pandemonium X ----------------
#NOTES:
     dance-double:
     Pandemonium X:
     Easy:
     11:
     0,0,0,0,0:
00000000
00000000
00000000
00000000
,
00000000
00000000
00000000
00000000
,
00000000
00000000
00000000
00000000
,
00000000
00000000
00000000
00000000
,
00000000
00000000
00000000
00000000
,
00010000
00000000
00010000
00000000
00000000
00000100
00001000
00000100
,
00000000
00001000
00000010
00001000
00000000
00000001
00000100
00000001
,
00000100
00000000
00000100
00000000
00000000
00000010
00010000
00001000
,
00000000
00010000
00001000
01000000
00100000
10000000
01000000
00000000
,
00100000
01000000
10000000
00100000
,
01000000
00000000
00001000
00000000
00010000
00000100
00010000
00000000
,
00000100
00001000
00000010
00000100
,
00000001
00000000
00001000
00000000
00000100
00010000
00001000
00000000
,
00010000
00001000
01000000
00010000
,
00100000
01000000
10000000
00010000
,
00000000
10000000
00100000
01000000
00000000
00100000
00000000
01000000
,
00000000
00100000
01000000
00010000
00000000
00100000
00100000
00000000
,
00110000
00100000
00001000
00010000
,
00000100
00001000
00000010
00000100
,
00000001
00000010
00000100
00001000
,
00000100
00010000
00001000
01000000
,
00100000
10000000
00010000
00100000
,
00010000
10000000
00100000
01000000
,
00010000
00100000
00001000
00010000
,
00000100
00001000
00000000
00001000
00000000
00001000
00000001
00000000
,
00000110
00001000
00000100
00010000
,
00001000
01000000
00100000
10000000
,
01000000
00100000
00001000
00010000
,
00010000
00010000
00001000
00010000
,
00000010
00000100
00000001
00000000
00001000
00000000
00000100
00000000
,
00010000
00000000
00001000
01000000
00010000
00000000
00100000
00000000
,
00010000
00000000
10000000
01000000
00100000
00000000
01000000
00000000
,
10000000
00010000
00000000
00010000
00000000
00010000
00100000
00000000
,
01000000
11000000
00000000
00000000
,
00000000
00000000
00000000
00000000
01000000
00000000
00000000
00100000
00000000
00000000
00001000
00000000
00010000
00000000
00000100
00000000
,
00001000
00000000
00000000
00000000
,
00000000
00000000
00000000
00000000
00000010
00000000
00000000
00001000
00000000
00000000
00000100
00000000
00010000
00000000
00001000
00000000
,
00010000
00000000
00000100
00000000
00001000
00000000
00000010
00000100
,
00000001
00000000
00000010
00000000
00000100
00000000
00010000
00000100
,
00001000
00000100
00010000
00000000
00001000
00000000
01000000
00100000
,
10000000
00000000
00010000
00000000
00100000
00000000
01000000
10000000
,
00100000
00000000
00000000
00000000
02000000
00000000
00000000
00000000
00000000
00000000
00000000
00000000
00000000
00000000
00000000
03100000
,
00000000
01000000
00000000
00020000
00000000
00000000
00000000
00000000
00000000
00000000
00000000
00000000
10030000
00000000
01000000
00000000
,
00100000
00010000
00200000
00000000
00000000
00000000
00000000
00301000
,
00010000
00002000
00000000
00000000
00000000
00000000
00000000
00000000
,
00000000
00003000
00000000
00000000
00011000
00000000
00010000
00000100
,
00002000
00003000
00000020
00000000
,
00000230
00000000
00000000
00000000
00000301
00000000
00001000
00000100
,
00002000
00000000
00003000
00000000
00000100
00000000
00000000
00010000
,
00000000
00000000
00001000
00000000
01000000
00000000
00100000
10000000
,
00200000
00000000
00000000
00300000
02000000
00000000
03000000
00000000
,
00200000
00000000
10300000
00000000
00010000
00000000
00100000
00001000
,
00020000
00000000
00000000
00000000
00000000
00000000
00030000
00000000
00000100
00000000
00000000
00000100
00000000
00000000
00001000
00000000
,
00000000
00001000
00000000
00000000
00000010
00000000
00000100
00000000
00000001
00000000
00000000
00000000
00001000
00000000
00000100
00000000
,
00000020
00000000
00000000
00000030
00000200
00000000
00000000
00000000
,
00020300
00000000
00000000
00000000
00032000
00000000
00013000
00001000
,
00200000
00000000
00000000
00000000
00310000
00000000
10000000
10000000
,
00000000
00010000
00010000
00000000
01100000
00000000
10000000
00010000
,
02000000
00000000
03200000
00000000
,
20300000
00000000
00000000
00000000
31000000
00000000
00000000
00110000
,
00000000
00000000
00100000
00000000
00001000
00000000
00000000
00022000
,
00000000
00000000
00033000
00000000
00000000
00010000
00000100
00000000
,
00010000
00001000
00000000
00010000
00000100
00000000
00000000
00000000
,
00000000
00000000
00000000
00000000
00000000
00001000
00000010
00000000
,
00000100
00000010
00000000
00000100
00000000
00000000
00000001
00000000
,
00001000
00000100
00010000
00001000
00000000
00010000
00001000
00000000
,
00010000
00000100
00000000
00010000
00000000
00001000
01000000
00000000
,
00000000
00100000
01000000
00000000
00000000
00010000
00100000
00000000
,
01000000
10000000
00000000
10010000
00000000
00000000
00010000
00000000
,
01000000
00100000
10000000
01000000
,
00100000
00010000
00100000
01000000
,
10000000
00010000
00100000
00001000
,
00010000
00000100
00002000
00003020
,
00000230
00000302
00001003
00000100
,
00010000
00001000
01000000
00100000
,
10000000
01000000
00100000
00000000
01000000
00000000
10000000
00000000
,
00010000
00100000
00001000
00010000
,
00000100
00001000
00000010
00000000
00000000
00000100
00000010
00000100
,
00000000
00000010
00000100
00000010
00000000
00000100
00000010
00000100
,
00000000
00000010
00000100
00000010
00000100
00000000
00000102
00000000
,
00000013
00002100
00003010
00001001
,
00000110
00001001
00000010
00000010
,
00000000
00000100
00000010
00001000
00000000
00000100
00000000
00010000
,
00000000
00001000
00000000
01000000
00010000
00000000
00010000
00000000
,
00000000
00100000
01000000
10000000
00000000
01000000
00000000
10000000
,
00000000
00100000
00000000
01000000
00001000
00000000
00001000
00000000
,
00000000
00010000
00000100
00001000
00000000
00001000
00000100
00010000
,
00000000
00010000
00001000
01000000
00010000
00000000
00010000
00000000
,
00000000
00010000
01000000
00100000
00000000
01000000
10000000
01000000
,
00010000
00010000
00100000
01000000
00000000
00000000
00000000
00000000
;

//--------------- dance-double - Pandemonium X ----------------
#NOTES:
     dance-double:
     Pandemonium X:
     Medium:
     14:
     0,0,0,0,0:
00000000
00000000
00000000
00000000
,
00000000
00000000
00000000
00000000
,
00000000
00000000
00000000
00000000
,
00000000
00000000
00000000
00000000
,
00000000
00000000
00000000
00000000
,
00001000
00000000
00001000
00000000
00000000
00010000
00000100
00010000
,
00000000
00001000
00000010
00001000
00000000
00000001
00000100
00000001
,
00000010
00000000
00000010
00000000
00000000
00000010
00000100
00001100
,
00000000
00000100
00010000
00001000
01000000
00100000
10000000
10000000
,
10010000
10000000
01000000
00000000
10000000
00100000
01000000
00000000
,
00010000
00100000
00001000
00000000
00010000
00000000
00011000
00000000
,
00010000
00000100
00001000
00000000
00000100
00001000
00000010
00000000
,
00000100
00000001
00000010
00000000
00000100
00000000
00001100
00000000
,
00000100
00010000
00001000
00000000
00100000
00001000
00010000
00000000
,
00001000
01000000
00100000
00000000
01000000
00010000
00100000
00000000
,
01000000
10000000
10000000
10000000
00000000
10010000
00000000
00110000
,
00000000
00100000
00100000
00100000
00000000
00001000
00010000
00000000
,
00011000
00000000
00010000
00000100
00001000
00000000
00000010
00000100
,
00000001
00000000
00000010
00000100
00000001
00001000
00000100
00010000
,
00001000
01000000
00100000
10000000
01000000
00000000
00100000
00010000
,
01000000
00000000
00010000
00100000
00001000
00010000
00000100
00001000
,
00000010
00000100
00000001
00000010
00000100
00000000
00000010
00000100
,
00001000
00000000
00000100
00010000
00001000
01000000
00100000
10000000
,
00010000
00100000
01000000
10000000
01000000
00100000
01000000
10000000
,
00100000
01100000
00000000
10010000
00010000
00000000
10000000
01000000
,
00100000
00000000
01000000
10000000
00010000
01000000
00010000
00000000
,
00110000
00000000
00100000
00001000
00010000
00000100
00001000
00000010
,
00000200
00000000
00000310
00000100
00000001
00001000
00000100
00001000
,
00000100
00001000
00000100
00001000
00000001
00000100
00000001
00001000
,
00000100
00000000
00010000
00002000
01000000
00000000
00013000
00000000
,
00011000
00000000
00001000
01000000
00100000
00000000
02000000
00000000
,
03010000
00000000
00010000
00100000
01000000
00000000
10000000
00000000
,
00010000
01010000
00000000
10000000
00100000
00000000
01000000
00010000
,
00100000
00001000
00011000
00000000
00000000
00000000
00000000
00000000
,
00000000
00000000
00000000
00000000
00010000
00001000
00000000
00010000
00000000
00000000
00001000
00000000
00010000
00000000
00001000
00000000
,
00010000
00001000
00000000
00000000
00000000
00000000
00000000
00000000
00000000
00000000
00000000
00000000
00000000
00000000
00000000
00000000
,
00000000
00000000
00000000
00000000
00001000
00010000
00000000
00001000
00000000
00000000
00010000
00000000
00001000
00000000
00010000
00000000
,
00001000
00010000
00000000
00000000
00001000
00000000
00000000
01000000
00000000
00000000
00100000
00000000
00000000
00000000
01000000
00000000
,
00010000
00000000
00100000
00000000
01000000
00000000
00000000
10000000
00000000
00000000
00010000
00000000
00000000
00000000
00100000
00000000
,
00001000
00000000
00010000
00000000
00000010
00000000
00000000
00000100
00000000
00000000
00000001
00000000
00000000
00000000
00000010
00000000
,
00000100
00001000
00000100
00000001
00000100
00001000
00000100
00010000
,
00002000
00000000
00000000
00000000
02003000
00000000
00000000
00000000
00000000
00000000
00000000
00000000
00000000
00000000
00000000
03100000
,
00000000
01000000
00000000
00020000
00000000
00000000
00000000
00000000
00000000
00000000
00000000
00000000
00130000
00000000
00001000
00000000
,
00010000
00000010
00002000
00000000
00000000
00000000
00000000
00003001
,
00000100
00000002
00000000
00000000
00000000
00000000
00000000
00000000
,
00000000
00000003
00000000
00000000
00001001
00000000
00000001
00000100
,
00000020
00000000
00000000
00001030
00000200
00000000
00000000
00010300
,
00002000
00000000
00000000
00013000
00001000
00000000
00010000
00001000
,
02000000
00000000
00000000
03100000
10000000
00000000
00010000
01000000
,
00000000
10000000
01000000
00000000
20010000
00000000
30010000
00100000
,
02000000
00000000
00000000
03100000
00002000
00000000
00000000
00013000
,
00000020
00000000
00001030
00000010
00000200
00000000
00000301
00000010
,
00000200
00000000
00000000
00000000
00000000
00000000
00000300
00000000
00000011
00000000
00000000
00000100
00000000
00000000
00001010
00000000
,
00000000
00001000
00000000
00000000
00000100
00000000
00010000
00000000
00011000
00000000
00000000
00000000
00001000
00000000
01000000
00000000
,
00200000
00000000
00000000
01300000
00020000
00000000
00000000
00130000
,
02000000
00000000
00000000
03100000
00020000
00000000
10030000
01000000
,
00020000
00000000
00000000
01030000
10000000
00000000
00100000
10100000
,
00000000
00010000
01010000
00000000
00110000
00000000
00100000
00001000
,
00020000
00000000
00000000
00030100
00002000
00000000
00000000
00003010
,
00000200
00000000
00000000
00001300
00000100
00000001
00001000
00000001
,
00000000
00001000
00000100
00000001
00000100
00001000
00000001
00002000
,
00000000
00000000
00000000
00000000
00003000
00000010
00000010
00000000
,
00010000
00010000
00000000
00001000
00001000
00000000
00000000
00000000
,
00000000
00000000
00000000
00000000
00000000
00010000
00010000
00000000
,
00001000
00001000
00000000
01001000
00000000
00000000
01000000
00000000
,
00100000
10000000
00010000
00100000
00000000
01000000
10000000
10000000
,
00010000
00010000
00000000
00100000
00000000
00100000
01000000
00000000
,
00000000
01000000
10000000
00000000
00000000
10000000
01000000
01000000
,
01000000
00100000
00000000
00101000
00000000
00000000
00001000
00000000
,
00010000
00000100
00001000
00000100
00010000
00000000
00010000
00000000
,
00010000
00010000
00001000
00001000
,
00001000
00001000
00010000
00010000
,
00001000
00001000
00020000
00030020
,
00000230
00000000
00000000
00000000
00000302
00000000
00000000
00000000
00001003
00000000
00000000
00000100
00000000
00000000
00000010
00000000
,
00000000
00000001
00000000
00000000
00001000
00000000
00000100
00000000
00010000
00001000
00000000
01000000
00000000
00000000
00100000
00000000
,
01000000
00000000
00010000
00000000
10000000
01000000
00000000
00000000
00100000
00000000
00000000
01000000
00000000
00000000
10000000
00000000
,
00000000
00100000
00000000
00000000
01000000
00000000
00010000
00000000
10000000
00010000
00000000
00100000
00000000
00000000
00001000
00000000
,
00010000
00000000
00000100
00000000
00001000
00000010
00000000
00000000
00000000
00000000
00000010
00000000
00000100
00000000
00001001
00000000
,
00000000
00000100
00000010
00001001
00000000
00000010
00000100
00001001
,
00000000
00000000
00000000
00000100
00000000
00000000
00000010
00000000
00000000
00001001
00000000
00000000
00000002
00000000
00000000
00000000
00000000
00000000
00000103
00000000
00000010
00000000
00001000
00000000
,
00000200
00000000
00000000
00010300
00001000
00100000
00020000
00000000
00000000
00130000
01000000
10000000
,
01000000
00100000
00010000
00100000
01000000
10000000
00100000
00000000
00000000
00100000
00000000
00000000
,
00000000
00100000
01000000
00010000
00000000
00100000
00000000
00100000
,
00000000
00001000
00000000
00010000
00000100
00000000
00000100
00000000
,
00000000
00000100
00000010
00000001
00000000
00000001
00000000
00001000
,
00000000
00001000
00000000
00000100
00001000
00000000
00001000
00000000
,
00000000
00001000
00000100
00010000
00000000
00010000
00001000
01000000
,
00000000
01000000
00100000
10000000
01000000
00000000
01000000
00000000
,
00000000
01000000
10000000
10010000
00000000
00010000
01000000
00100000
,
10000000
00010000
10000000
00000000
00010000
00000000
10010000
00000000
00000000
00000000
00000000
00000000
00000000
00000000
00000000
00000000
;

//--------------- dance-double - Pandemonium X ----------------
#NOTES:
     dance-double:
     Pandemonium X:
     Hard:
     16:
     0,0,0,0,0:
00000000
00000000
00000000
00000000
,
00000000
00000000
00000000
00000000
,
00000000
00000000
00000000
00000000
,
00000000
00000000
00000000
00000000
,
00000000
00000000
00000000
00000000
,
00010000
00000000
00000100
00000000
00000000
00001000
00000100
00000010
,
00000000
00000001
00000100
00000010
00000000
00000100
00000001
00001000
,
00000100
00000000
00001001
00000000
00000000
00000001
00000100
00001001
,
00000000
00000000
00000001
00000000
00000010
00000000
00000100
00000000
00001000
00000100
00010000
00000000
00011000
00000000
00010000
00001000
,
01000000
00100000
10100000
00000000
10000000
00010000
00110000
00000000
,
00100000
00000000
01000000
00000000
11000000
00000000
00000000
00000000
10000000
00100000
00000000
00100000
00000000
00100000
01000000
00000000
,
00001000
00010000
00011000
00000000
00010000
00000100
00001100
00000000
,
00001000
00000000
00000010
00000000
00000110
00000000
00000000
00000000
00000100
00000001
00000000
00000001
00000000
00000001
00000010
00000000
,
00000100
00010000
00011000
00000000
00001000
01000000
01010000
00000000
,
00010000
00000000
00100000
00000000
01100000
00000000
00000000
00000000
01000000
10000000
00000000
10000000
00000000
10000000
00010000
00000000
,
01000000
00010000
00010000
00010000
00000000
00110000
00000000
00001010
,
00000000
00000010
00010000
00002000
00000000
00010000
00020000
00000000
,
00033000
00000000
00001000
01000000
00010000
01000000
00001000
00010000
,
00001000
01000000
00100000
00100000
10000000
10000000
00010000
00010000
,
00100000
00100000
00001000
00010000
00000100
00010000
00001000
00010000
,
00000100
00010000
00001000
00001000
00010000
00010000
00000010
00000010
,
00000100
00000100
00000001
00000010
00000001
00000100
00000001
00000010
,
00000001
00000100
00000010
00000010
00010000
00010000
00001000
00001000
,
01000000
01000000
00100000
00010000
00100000
10000000
00100000
00010000
,
00100000
01100000
00000000
01000000
00010000
00100000
02000000
00000000
,
23000000
00000000
30010000
00100000
00002000
00000000
00013000
00010000
,
00010000
00010000
00000200
00002300
00003020
00000130
00001000
00000100
,
00000002
00000000
00001003
00000100
00010000
00001000
01000000
00100000
,
00100000
00100000
00100000
01000000
10000000
01000000
00010000
00100000
,
00001000
00000000
00000000
00000000
00000000
00000000
00010000
00000000
00000000
00000100
00000000
00000000
00001000
00000000
00000100
00000000
00001000
00000000
00000100
00000000
00000010
00000000
00000001
00000000
,
00002000
00003020
00000130
00002000
00000100
00000000
00003100
00000000
,
00000102
00000000
00000023
00000000
00000230
00000000
00010300
00001000
,
00100000
00110000
00000000
00100000
02000000
00000000
13000000
00100000
,
02000000
03001000
00000000
00000000
,
00000000
00000000
00000000
00000000
00010000
00000100
00000000
00001000
00000000
00000000
00000010
00000000
00000100
00000000
00000001
00000000
,
00001000
00000001
00000000
00000000
00000000
00000000
00000000
00000000
00000000
00000000
00000000
00000000
00000000
00000000
00000000
00000000
,
00000000
00000000
00000000
00000000
00001000
00000100
00000000
00010000
00000000
00000000
00001000
00000000
01000000
00000000
00100000
00000000
,
10000000
00010000
00000000
00000000
10000000
00000000
00000000
01000000
00000000
00000000
00010000
00000000
00001000
00000000
00000010
00000000
,
00000002
00000000
00000000
00000000
00000103
00000000
00001000
00000000
00000000
00010000
00000000
00000000
00100000
00000000
10000000
00000000
,
00010000
00000000
00100000
00000000
00010000
00000000
00000000
01000000
00000000
00000000
10000000
00000000
01000000
00000000
00100000
00000000
,
10000000
00000000
00010000
00000000
10000000
00000000
00000000
01000000
00000000
00000000
00010000
00000000
00001000
00000000
00000010
00000000
,
00000002
00000000
00000000
00000000
00000203
00000000
00000000
00000000
00000000
00000000
00000000
00000000
00000000
00000000
00000000
00000310
,
00000000
00001000
00000000
00000200
00000000
00000000
00000000
00000000
00000000
00000000
00000000
00000000
00010300
00000000
00000100
00000000
,
00010000
00001000
00200000
00000000
00000000
00000000
00000000
01300000
,
00100000
02000000
00000000
00000000
10000000
00000000
10000000
00000000
,
10000000
00000000
13000000
00000000
00000000
00000000
00000000
00000000
10020000
00000000
00000000
00000000
10030000
00010000
00100000
00010000
,
02000000
00000000
00000000
00000000
00000000
00000000
03010000
00100000
00002000
00000000
00000000
00000000
00000000
00000000
00013000
00000100
,
00002000
00000000
00000000
00000000
00000000
00000000
00003010
00000100
00000020
00000000
00000000
00000000
00001030
00000100
00001000
00000010
,
00000200
00000000
00000000
00000000
00000000
00000000
00000001
00001300
00000100
00000000
00000000
00000000
00010000
00000000
00001000
00000000
,
00000000
00000000
00100000
00000000
00010000
00000000
00000000
00000000
21000000
00000000
00000000
00000000
31000000
10000000
00100000
10000000
,
00020000
00000000
00000000
00000000
00000000
00000000
10030000
00010000
00200000
00000000
00000000
00000000
00000000
00000000
00301000
00010000
,
00000020
00000000
00000000
00000000
00000130
00000000
00000100
00000010
00000200
00000000
00000000
00000000
00000301
00000010
00000001
00001000
,
00000200
00000000
00000000
00000000
00000000
00000000
00000300
00000000
00001100
00000000
00000000
00010100
00000000
00000000
00101000
00000000
,
00000000
01010000
00000000
00000000
01100000
00000000
00100000
10000000
00010000
00000000
00000000
00000000
00100000
01000000
10000000
00010000
,
02000000
00000000
00000000
00000000
00000000
00000000
03001000
00010000
00000020
00000000
00000000
00000000
00000000
00000030
00010000
00001000
,
02000000
00000000
00000000
00000000
00000000
00000000
03001000
00010000
00001000
00000000
00000000
00000000
00010000
00000100
00001000
00000100
,
00020000
00000000
00000000
00000000
00030000
00000000
00001000
01000000
00100000
00000000
00000000
00000000
01000000
00000000
10010000
00000000
,
00000000
00000000
00100000
00000000
10010000
00000000
00000000
00000000
00210000
00000000
00000000
00000000
00301000
00010000
00000100
00001000
,
00000020
00000000
00000000
00000000
00000000
00000000
00000130
00000001
00002000
00000000
00000000
00000000
00000000
00000000
00003100
00010000
,
00002000
00000000
00000000
00000000
00000000
00000000
00013000
00000100
00001000
00000000
00000010
00000000
00000100
00000000
00000002
00000000
,
00000000
00000013
00000001
00000010
00000100
00001000
00020000
00002000
,
00000000
00000000
00000000
00033000
00000000
00001000
00001000
00000000
,
01000000
01000000
00000000
00100000
00100000
00000000
00000000
00000000
,
00000000
00000000
00000000
00000000
00000000
01000000
01000000
00000000
,
00001000
00001000
00000000
00011000
00000000
00000000
00010000
00000000
,
00000100
00000000
00000100
00000000
00001000
00000000
00000010
00000000
00000000
00000000
00000100
00000000
00000100
00000000
00000100
00000010
,
00001000
00000001
00000000
00001000
00000000
00000100
00001000
00000000
,
00000000
00000000
00000100
00000000
00010000
00000000
00000000
00000000
00000000
00000000
00001000
00000000
00010000
00001000
01000000
00000000
,
00100000
10000000
00000000
01010000
00000000
00000000
00110000
00000000
,
00010000
00100000
10000000
00100000
00020000
00000000
00230000
00000000
,
02300000
13000000
20000000
32000000
,
03200000
00310000
00200000
00302000
,
00023000
00000000
00000000
00030100
00000000
00000000
00001000
00000010
00000100
00000001
00000010
00000100
,
00001000
00000000
00000000
00000000
00000100
00000000
00000000
00000000
00010000
00000000
00000000
00000000
00001000
00000000
00000000
00000000
01000000
00000000
00000000
00000000
00010000
00000000
00000000
00000000
00100000
00000000
00000000
00000000
00000000
00000000
01000000
00000000
00000000
10000000
00000000
00000000
00000000
00000000
00000000
10000000
00000000
00000000
00010000
00000000
00000000
00000000
00000000
00000000
,
00010000
01000000
00000000
01000000
00100000
00000000
00000000
00000000
01000000
00010000
00000000
00100000
00000000
00000000
00010000
00000000
,
00100000
00000000
00001000
00000000
00010000
00000010
00000000
00000000
00000100
00000000
00000100
00000010
00000000
00000010
00001000
00000000
,
00001000
00000001
00000000
00000001
00000010
00000000
00000010
00000100
00001000
00000100
00000000
00010000
00000000
00000000
00001000
00000000
,
01000000
00000000
00100000
00000000
10000000
01000000
00000000
00000000
00000000
00000000
10000000
00000000
01000000
00000000
01100000
00000000
,
00000000
00100000
00001000
00011000
00000000
00010000
00000010
00000110
,
00000000
00000000
00000000
00000100
00000000
00000000
00000001
00000000
00000000
00001001
00000000
00000000
00000002
00000000
00000000
00000000
00000000
00000000
00000103
00000000
00001000
00000000
00010000
00000000
,
00001000
00000000
00000000
00001000
01000000
00100000
10000000
00000000
00000000
10000000
01000000
00010000
,
01000000
00100000
00010000
00100000
00001000
00010000
00001000
00000000
00000000
00110000
00000000
00000000
,
00000000
00100000
00001000
00010000
00000000
00001100
00000000
01010000
,
00000000
00010100
00000000
00000100
00001100
00000000
00010100
00000000
,
00000000
00001000
00010000
00010100
00000000
00001100
00000000
01010000
,
00000000
01001000
00000000
00001000
00011000
00000000
00011000
00000000
,
00000000
00010000
00000010
00000110
00000000
00000010
00010000
00011000
,
00000000
00001000
01000000
01100000
01010000
00000000
01010000
00000000
,
00000000
00001000
00100000
00110000
00000000
11000000
00110000
00101000
,
00001000
00010000
00000100
00000000
00001000
00000000
00001001
00000000
00000000
00000000
00000000
00000000
00000000
00000000
00000000
00000000
;
