#TITLE:爆ゼニ☆がってんワーカー;
#SUBTITLE:;
#ARTIST:ARM×狐夢想 feat. ななひら;
#TITLETRANSLIT:Bakuzeni gatten worker;
#SUBTITLETRANSLIT:;
#ARTISTTRANSLIT:;
#GENRE:;
#CREDIT:;
#MUSIC:Bakuzeni gatten worker.ogg;
#BANNER:;
#BACKGROUND:;
#CDTITLE:;
#SAMPLESTART:61.159;
#SAMPLELENGTH:9.859;
#SELECTABLE:YES;
#OFFSET:-0.851;
#BPMS:0.000=97.500
,8.000=390.000
,18.000=195.000
,67.000=390.000
,69.000=195.000
,131.000=97.500
,151.000=48.750
,152.000=195.000
,224.000=48.750
,226.000=195.000
,330.000=390.000
,332.000=195.000
,336.000=97.500
,339.000=390.000
;
#STOPS:18.000=1.846
,67.000=0.462
,68.000=0.462
,69.000=0.154
,69.500=0.154
,70.000=0.154
,70.500=0.154
,330.000=0.462
,331.000=0.462
;
#BGCHANGES:0.000=Bakuzeni gatten worker-bg.png=1.000=0=0=1,
2.000=Bakuzeni gatten worker.mp4=1.000=0=0=1,
99999.000=-nosongbg-=1.000=0=0=0=StretchNoLoop====
;
#FGCHANGES:;

//--------------- dance-single - Pandemonium X ----------------
#NOTES:
     dance-single:
     Pandemonium X:
     Beginner:
     7:
     0,0,0,0,0:
0000
0000
0000
0000
,
0000
0000
0000
0000
,
0000
0000
0000
0000
,
0000
0000
0000
0000
,
0000
0000
0000
0000
0000
0000
0000
0002
,
0000
0000
0003
0000
,
0000
0000
0000
1000
,
0000
0000
0000
0001
,
0000
0000
0000
0200
,
0000
0000
0000
0300
,
0000
0000
0000
0010
,
0000
0010
0000
0010
,
0010
0010
0000
1000
,
0000
0001
0000
0100
,
0001
1000
0000
0100
,
0000
0100
0000
0100
,
0100
0010
0010
0001
,
0000
0000
0000
1000
,
0000
0000
0000
0001
,
0000
0000
0000
0100
,
0000
0010
0000
1000
,
0000
0001
0000
1000
,
0000
0000
0000
0100
,
0000
0000
0000
2000
,
0000
0000
0000
3001
,
0001
0001
0000
0100
,
0000
0010
0000
1000
,
0001
0010
0000
0100
,
0000
0010
0000
0001
,
0000
1000
0000
0010
,
0010
0010
0010
0010
,
0010
0010
0010
0000
,
0000
0000
0000
1001
,
0000
0000
0000
0000
,
0000
0000
0000
0001
,
0000
1000
0000
0000
0010
0000
0000
1000
,
0000
0000
0100
0000
0000
0010
0000
0000
,
0001
0000
0000
1000
0000
0000
0002
0000
,
1003
0000
0001
0000
,
1000
0001
1000
0110
,
0001
0000
0001
0000
,
1000
0000
1000
0000
,
0110
0000
1001
0000
,
0100
0100
0100
0000
,
0010
0000
1000
0000
,
0001
0001
0001
0000
,
0000
0000
0000
0000
,
0000
0000
0000
0000
,
1001
0000
0000
0001
,
0001
0000
1000
0000
,
0010
0000
0100
0000
,
0001
1000
0010
1000
,
0001
0000
1000
0000
,
0100
0100
0100
0000
,
2002
0000
0000
0000
,
0000
0000
0000
3003
,
0110
1001
0010
0010
,
0100
0100
2002
0000
,
3003
0000
0001
0000
,
1000
0000
0010
1000
,
0010
0000
0100
0000
,
0001
0000
0000
0000
1000
0000
0000
1000
,
0000
0000
0001
0000
,
1000
0000
0100
0010
,
0100
0000
0010
0000
,
0001
0000
1000
1001
,
0110
0000
0001
0000
,
1000
0000
0010
0010
,
0010
0000
1000
0000
,
0001
0000
0000
0000
0010
0000
0000
0010
,
0000
0000
0000
0000
0100
0000
0000
0100
,
0000
0000
0000
0000
0010
0000
0000
0010
,
0000
0000
0001
0000
,
1000
0000
0000
0010
,
0010
0000
0100
0000
,
0002
0000
0000
0000
,
0000
1003
0110
0000
,
0110
0000
0100
0010
,
1001
0000
0001
0001
,
1000
1000
0010
0100
,
0010
0000
1001
0000
,
1001
0000
0010
0010
,
0100
0100
1001
1000
,
0001
0001
0001
0000
,
2000
0000
3000
0110
;

//--------------- dance-single - Pandemonium X ----------------
#NOTES:
     dance-single:
     Pandemonium X:
     Easy:
     11:
     0,0,0,0,0:
0000
0000
0000
0000
,
0000
0000
0000
0000
,
0020
0000
0000
0000
,
0000
0000
0000
0000
,
0000
0000
0000
0000
0030
0000
0000
2002
,
0000
0000
3003
0001
,
0001
1000
1000
0002
,
0203
0320
2030
3002
,
0023
0230
2300
0020
,
0000
0000
0000
3030
,
0000
0000
0000
1001
,
0000
0000
1001
0000
0000
0000
0001
0010
,
0100
0000
0010
0100
1000
0000
0100
0000
,
0100
1000
1000
1010
,
0101
1001
0101
1001
,
0000
1001
0000
0001
,
0010
0000
0100
1000
0010
0000
1001
0000
,
0001
0000
1000
0100
0010
0001
1000
0000
,
0010
1000
0001
0010
,
0100
0010
0001
0100
,
0001
0100
0010
1000
,
0001
0010
0100
0010
,
0001
0100
0001
1000
,
0100
0010
0100
2000
,
3200
0320
0032
1003
,
0101
0000
0022
0000
0000
0033
0100
0000
,
0100
1000
1000
0010
,
0010
0100
0100
0001
,
0100
0010
1000
0001
,
0010
0000
0100
0000
1000
0000
0001
1000
,
0001
1000
0001
1000
0001
1000
0001
1000
,
0001
1000
0001
1000
0001
1000
0000
0000
,
0000
0000
0000
0110
,
0000
0000
0000
0000
,
0000
0000
0000
0000
0000
0000
0001
1000
,
1000
0001
0100
0100
0001
1000
1000
0001
,
0010
0010
0001
1000
1000
0001
0100
0100
,
0001
0000
1000
0000
1000
0000
0001
0000
0010
0000
0000
0000
0001
0010
0100
1000
,
1001
0010
1001
0100
,
1001
0110
2002
3003
,
0001
0100
0001
1000
,
0100
0010
0100
1000
,
0001
0001
1000
1000
,
0010
0100
0002
0000
,
1003
0100
1000
0001
,
0100
0100
0001
0010
,
0001
0000
1000
0000
,
0001
1000
0001
0000
,
0100
0001
0010
0001
,
0100
0010
1000
0010
,
0100
0001
0010
0100
,
1000
0100
0100
0100
,
1000
0010
0100
0001
,
0010
0100
1000
0001
,
2000
3200
0320
0032
,
2003
0000
0000
0000
3200
0000
0000
0000
0320
0000
0000
0000
0032
0000
0000
0003
,
2200
0000
0000
3300
0202
0000
0000
0303
1001
0000
0000
0000
0110
0000
0000
0000
,
1001
0000
0000
0110
0000
0000
1001
0000
0000
0001
1000
0001
,
2000
0000
3100
1000
,
0010
0100
0001
0010
,
0100
0010
0001
0100
,
0010
0000
1000
0000
0001
1000
0000
0001
,
1000
0000
0001
1000
,
0100
1000
0010
0100
,
0001
0010
0110
0011
,
0110
0000
0011
0000
0110
0000
0100
0100
,
0100
0000
1001
1000
,
0001
0100
0001
1000
,
0100
0010
0100
1000
,
0010
0000
0100
0000
0001
1000
0000
0001
,
1000
0000
0000
0000
0001
0000
0000
1010
,
0000
0000
1000
0000
0100
0000
0000
0011
,
0000
0000
0010
0000
0100
0000
0000
1000
,
1000
0000
0000
1001
0000
0000
0001
0000
,
0100
0000
0010
0000
1000
0001
1000
0000
,
0001
1000
0001
0000
0001
0100
0010
1000
,
0001
0000
0220
0330
1001
0000
0000
0000
,
1001
0000
0000
0000
1000
0100
0010
0000
,
0100
0010
0001
0000
0010
0000
0001
0000
,
0100
0010
1010
0101
,
0011
1001
0110
0000
,
0110
0000
0000
0000
0001
0100
0010
0000
,
0100
0010
1000
0000
1001
0000
0110
0000
,
0001
0001
0001
0001
,
2000
3200
0320
0032
2000
3003
0220
0000
,
0000
0000
0000
0000
,
0000
0000
0000
0000
,
0000
0330
0000
0000
;

//--------------- dance-single - Pandemonium X ----------------
#NOTES:
     dance-single:
     Pandemonium X:
     Medium:
     15:
     0,0,0,0,0:
0000
0000
0000
0000
,
0000
0000
0000
0000
0000
0000
0000
0000
0000
0000
0000
0000
0001
0000
0000
0100
0010
0000
1000
0000
0001
0000
0010
0000
,
0200
0000
0000
0000
,
0000
0000
0000
0000
,
0000
0000
0300
0020
,
0032
0000
0203
0000
0310
1000
0200
0000
,
0320
0000
0230
0000
0310
0001
1000
0010
,
1000
0010
0100
0001
0100
0001
1000
0001
,
1000
0000
0000
0001
0000
0000
0010
0000
0000
0100
0000
0000
0010
0000
0000
0100
0000
0000
1000
0000
0100
0000
0010
0000
,
0001
1000
0100
0010
0001
1000
0100
0010
0001
1000
0010
0100
,
0001
0000
1000
0000
0010
0000
0200
0000
0000
0000
0000
0000
0300
0000
0000
0000
0000
0000
0001
0000
0000
0001
0000
0000
,
1000
0010
0100
0100
0001
0010
0100
0010
,
0001
0000
1000
0000
0010
0100
0001
0000
1000
0000
0000
0000
0001
0000
0001
0000
,
0010
0000
0100
0000
0010
0000
0001
0000
1000
0000
0000
0000
0002
0000
0000
0103
,
0020
0000
0000
1030
0200
0000
0000
0000
0001
0000
0000
0000
1300
0000
1000
0000
,
0100
0010
0100
0100
0010
0100
1000
1000
,
0001
0100
0010
0010
0100
0000
1001
0000
,
0110
0000
0001
0100
0010
1000
0001
0100
,
0001
1000
0100
0000
0010
0010
0100
0010
,
0001
1000
0010
1000
0001
0100
0001
2000
,
0000
3100
0020
0000
0100
0130
0010
0001
,
0010
1000
0010
0010
0010
0010
0001
0010
,
0001
1000
0010
0000
1001
0000
0010
0001
,
0100
0001
1000
0100
0010
0000
0002
0000
,
0023
0000
0000
0000
0230
0000
0000
0000
2300
0000
0000
0000
3001
0000
0000
0100
,
0000
0000
0010
1000
0002
0000
1000
0000
2003
0000
0000
0000
3200
0000
0000
0000
,
0302
0000
0203
0000
1300
1000
0010
0001
,
0010
1000
0002
0000
2003
0000
3010
0100
,
0101
0000
0010
0100
1100
0000
0100
1000
,
0010
0000
0100
0000
0002
0000
0000
0000
1003
0000
0000
0000
1001
0000
0001
0100
,
0001
0000
0000
0000
0000
0000
0100
0000
0000
0010
0000
0000
0100
0000
0000
0000
0000
0000
0010
0000
0000
1000
0000
0000
0010
0000
0000
0000
0000
0000
1000
0000
0000
0100
0000
0000
1000
0000
0000
0000
0100
0000
0000
0000
1000
0000
0000
0000
,
0010
0100
0010
0100
0001
0100
0001
0010
0100
0020
0000
0000
,
0000
0000
0030
2002
,
0000
0000
0000
3003
0000
0000
0000
2000
0000
0000
0000
0000
,
0000
0000
0000
0000
3001
0000
0000
0000
0010
0000
0000
0000
0100
0000
0000
0010
0000
0000
0001
0000
0000
0100
0000
0000
0010
0000
0000
1000
0000
0000
0001
0000
0000
0010
0000
0000
0001
0000
0000
0000
0000
0000
0100
0000
0000
0000
0000
0000
,
0100
0010
1000
1000
0100
0010
0010
0001
,
0100
0100
1000
0100
0100
0010
1000
1000
,
0001
0000
0000
0000
0000
0000
0000
0000
0000
0000
0000
0000
0000
0000
0000
0000
0000
0000
0000
0000
0000
0000
0000
0000
1000
0000
0000
0000
0000
0000
0000
0000
0000
0000
0000
0000
0000
0000
0000
0000
0000
0000
0000
0000
0000
0000
0000
0000
0100
0000
0000
0000
0000
0000
0000
0000
0000
0000
0010
0000
0000
0000
0000
0000
0000
0000
0000
0100
0000
0000
0000
0000
0000
0000
0000
0000
0000
1000
0000
0000
0000
0000
0000
0000
0000
0000
0001
0000
0000
0000
0000
0000
0000
0000
0000
0000
0100
0000
0000
0000
0000
0000
0000
0000
0000
0000
0000
0000
0000
0000
0000
0000
0000
0000
0000
0000
0000
0000
0000
0000
0000
0000
0000
0000
0000
0000
0000
0000
0000
0000
0000
0000
0000
0000
0000
0000
0000
0000
0000
0000
0000
0000
0000
0000
1002
0000
0000
0000
0000
0000
0000
0000
0000
0000
0000
0000
0010
0000
0000
0000
0000
0000
0000
0000
0000
0000
0000
0000
0100
0000
0000
0000
0000
0000
0000
0000
0000
0000
0000
0000
1003
0000
0000
0000
0000
0000
0000
0000
0000
0000
0000
0000
,
0201
0310
1200
0310
,
0001
0100
1000
0010
0001
0000
1001
0000
,
1000
0100
0001
0100
1000
0010
0001
0010
,
0100
0001
0010
0100
0010
0001
1000
0000
,
0001
0000
0000
0100
0010
0000
0000
0000
1000
0000
0000
0010
0100
0000
0000
0100
,
0010
0000
0000
0010
1000
0000
0000
1000
0001
0000
0000
0000
1001
0000
0000
0000
,
1000
0100
0001
0100
1000
0010
0100
0001
,
0010
1000
0010
0001
0200
0000
0310
1000
,
0001
0000
1000
0010
0000
0000
0010
0000
0010
0100
0000
0100
,
0001
0000
0001
1000
0000
1000
0100
0000
0000
0000
0000
0000
,
0010
0001
0100
0000
0010
1000
0001
0000
,
1000
0100
0010
0000
0100
1000
0001
0000
,
0100
0010
1000
0000
0010
0100
0001
0000
,
1000
0100
0001
0100
0010
0001
0100
0010
,
1000
0010
0100
0000
0001
0010
0100
0000
,
0010
0010
0001
0100
0010
0010
0100
0001
,
1002
0000
0000
1003
0200
0000
0000
0310
0002
0000
0000
0103
0020
0000
0000
0130
,
0002
0000
0000
1003
0200
0000
0000
0310
0002
0000
0000
0013
0200
0000
0000
0300
,
2002
0000
0000
0000
0000
0000
0000
3003
0220
0000
0000
0000
0000
0000
0000
0330
0101
0000
0000
0000
0000
0000
0000
0000
1010
0000
0000
0000
0000
0000
0000
0000
,
0101
0000
0000
1010
0000
0000
1001
0000
0000
1000
0100
0010
,
0002
0000
1003
0100
,
1000
0010
0000
0100
0000
0010
1000
0001
,
0010
1000
0010
0001
0000
1000
1000
0010
,
0100
0000
0100
0000
0010
0000
1000
0000
0001
0010
0100
0000
0000
0000
0010
0100
,
1000
0011
1000
0001
,
0100
0010
0000
0100
0000
0001
0010
0100
,
1000
0000
0000
0010
0000
0000
1001
0000
0000
0000
0000
0000
1000
0000
0000
0000
0001
0000
1000
0000
0000
0000
0010
0000
,
0100
0000
0000
0000
0001
0000
0010
0000
0000
0000
0100
0000
1000
0000
0000
0000
0000
0000
1001
0000
0000
1001
0000
0000
,
1001
0000
1000
0100
,
0010
0100
0000
1000
0000
0010
0100
1000
,
0100
0001
1000
0100
0000
0010
0100
1000
,
0001
0000
0000
0000
0100
0000
0001
0000
1000
0100
0010
0000
0000
0000
0100
0010
,
0001
0000
1010
0000
0101
0100
0001
1000
,
0000
0001
1000
1000
1100
0100
0010
0100
,
0000
0010
0001
1000
1002
0000
0000
1000
,
2003
0000
0000
0000
0000
0000
3001
0000
0000
0000
1000
0010
0200
0000
0000
0000
,
0001
0000
0310
0000
1000
1000
1000
0000
,
0001
0001
0001
0000
0100
0100
0100
0100
,
0100
0000
2002
3003
0001
0100
0010
1000
,
0001
0100
0010
1000
0001
0010
0100
0010
,
0001
0010
0100
0000
1000
0000
0000
0000
0100
0000
0100
0000
1000
0000
0010
0000
,
0100
0100
0002
0000
2003
0000
3020
0000
,
0230
0000
0320
0000
1030
0100
0010
0001
,
1000
0100
0010
0001
1000
0010
0100
0001
,
0010
0100
1000
0000
1001
0000
0110
0000
,
0001
0100
0010
1000
0001
0100
0010
0000
,
1000
0000
0000
0000
0000
0000
0000
0000
0000
0000
0000
0000
0001
0000
0000
0000
0010
0000
0000
0000
0000
0100
0000
0000
1000
0000
0000
0000
0000
0000
0100
0000
0000
0000
0000
0000
0010
0000
0000
0000
0000
0000
0001
0000
0000
0000
0000
0000
1000
0000
0000
0000
0000
0000
0000
0000
0000
0000
0000
0000
0000
0000
0000
0000
0000
0000
0000
0000
0000
0000
0000
0000
0220
0000
0000
0000
0000
0000
0000
0000
0000
0000
0000
0000
0000
0000
0000
0000
0000
0000
0000
0000
0000
0000
0000
0000
,
0000
0000
0000
0000
,
0000
0000
0000
0000
,
0000
0330
0000
0000
;

//--------------- dance-single - Pandemonium X ----------------
#NOTES:
     dance-single:
     Pandemonium X:
     Hard:
     17:
     0,0,0,0,0:
0000
0000
0000
0000
,
0000
0000
0000
0000
0000
0000
0000
0000
0000
0000
0000
0000
2000
0000
0000
3001
0001
0000
0100
0000
0010
0000
0100
0000
,
2002
0000
0000
0000
,
0000
0000
0000
0000
,
0000
0000
0000
0000
0000
0000
0000
0000
3003
0000
0000
0000
0001
0100
0001
0000
,
1000
0010
1000
0000
0001
0100
0001
0000
1000
0000
0001
0000
1000
0100
1000
0000
,
0001
0010
0001
0000
1000
0100
1000
0000
0010
0000
0001
0000
1000
0010
0100
0010
,
1000
0000
1000
0000
0001
0010
0001
0100
0001
0000
0001
0000
1000
0100
1000
0010
,
0100
0000
0000
0001
0000
0000
0010
0000
0000
0001
0000
0000
1000
0000
0000
0100
0000
0000
0010
0000
0000
0001
0000
0000
1000
0000
0000
0001
0000
0000
0010
0000
0000
0100
0000
0000
1000
0000
0000
0000
0100
0000
0000
0000
0010
0000
0000
0000
,
0001
1000
0100
0010
0001
1000
0100
0010
0001
2000
3200
0302
,
0203
0000
0320
0000
0032
0000
0203
0000
0000
0000
0000
0000
0310
0000
0000
0000
0000
0000
1001
0000
0000
0001
0000
0000
,
0100
0001
0010
0001
0100
1000
0100
0001
,
0010
0000
1000
0000
0010
0100
1000
0000
0200
0000
0000
0000
0310
0000
0100
0000
,
1000
0000
0010
0000
0100
0000
0001
0000
0010
0000
0000
0000
0200
0000
0000
0310
,
0002
0000
0000
1003
0020
0000
0000
0000
0130
0000
0000
0000
1001
0000
1000
0000
,
0010
0000
1000
0000
0100
0000
1000
0000
0100
0000
0010
0000
0001
0000
1000
0100
,
0010
0000
0010
0001
0100
0010
0100
0001
1000
0100
0010
0001
1000
0000
0000
0000
,
0110
0000
0101
1010
1100
0011
1001
1000
,
0001
0000
0010
0000
0010
0000
0000
0100
0010
0000
0001
0000
1000
0000
1000
0000
,
0010
0000
0100
0000
0001
0000
0001
0010
0100
0000
0010
0000
0001
0000
1000
0000
,
0000
0000
0010
0000
1000
0100
1000
0000
0100
0010
0100
0000
0010
0000
0010
0001
,
0100
0010
0001
0010
1000
1001
0001
1000
,
0100
0000
1000
0010
0100
0000
0000
0100
0010
0000
0000
0100
0001
0000
0010
0000
,
0100
0000
1000
0000
0010
0000
1000
0000
0001
0000
1000
0000
0001
0100
0010
1000
,
0001
0100
0010
1000
0001
0100
0010
1000
0001
0100
0010
1000
0001
0000
0000
1001
,
0000
0000
0000
0000
1000
0000
0000
0000
0100
0000
0000
0000
0010
0000
0000
0001
0000
0000
0010
0000
0000
0001
0000
0000
1000
0000
0000
0100
0000
0000
1000
0000
0000
0100
0000
0000
0020
0000
0000
0000
0000
0000
0000
0000
0000
0000
0000
0000
,
0032
0000
0203
0000
2300
3200
0302
0023
,
2030
0000
3020
0000
0230
0000
0000
0310
0200
0000
0000
0000
1300
0000
0100
0000
,
0010
0100
1000
0000
0001
0000
0100
0000
0010
0100
0001
0000
1000
0000
0001
0100
,
0010
0000
0100
0001
1000
0000
0010
0000
0110
0000
0000
0000
1001
0000
0001
0100
,
0101
0000
0000
0000
0000
0000
1000
0000
0000
0100
0000
0000
1100
0000
0000
0000
0000
0000
0001
0000
0000
0100
0000
0000
0101
0000
0000
0000
0000
0000
1000
0000
0000
0100
0000
0000
1000
0000
0000
0000
0100
0000
0000
0000
0010
0000
0000
0000
,
0001
0000
0000
0000
1000
0000
0000
0000
0100
0000
0000
0000
0010
0000
0000
0000
0001
0000
0000
0000
1000
0000
0000
0000
0010
0000
0000
0000
0100
0000
0000
0000
0001
0000
0000
0000
0100
0000
0000
0010
0000
0000
0100
0000
0000
0010
0000
0000
,
0100
0010
0100
0010
0100
0010
0100
0010
0100
0010
0100
0010
0200
0000
0000
0000
,
0000
0000
0000
0000
0000
0000
0300
0000
0000
0000
0000
0000
0001
0100
0020
0000
0000
0000
0000
0000
0000
0000
0000
0000
,
0030
1000
0000
0000
0001
0000
1000
0010
1000
0100
0010
0001
1000
0001
1000
0010
1000
0001
0020
0000
0000
0001
0000
0000
,
0130
0200
1000
0310
2000
0010
3100
0002
,
0100
0000
0000
0000
0000
0000
0023
0000
0000
0000
0000
0000
0230
0000
0000
0000
0000
0000
1000
0000
0000
0000
0000
0000
0310
0000
0001
0000
1000
0000
0010
0000
0000
0100
0000
0000
0002
0000
0000
0000
0000
0000
0000
0000
0000
2000
0000
0000
,
0000
0000
0000
0000
0000
0000
0000
0000
0000
0000
0000
0000
3003
0000
0000
0000
0000
0000
0000
0000
0000
0000
0000
0000
0000
0000
0000
0000
0000
1000
0000
0000
0000
0000
0000
0000
0000
0000
0000
0000
0000
0000
0000
0000
0000
0000
0000
0000
0100
0000
0000
0000
0000
0000
0000
0000
0010
0000
0000
0000
0000
0000
0000
0000
0001
0000
0000
0000
0000
0000
0000
0000
0100
0000
0000
0000
0000
0000
0000
0000
0010
0000
0000
0000
0000
0000
0000
0000
1000
0000
0000
0000
0000
0000
0000
0000
0002
0000
0000
0000
0000
0000
0000
0000
0000
0000
0000
0000
0000
0000
0000
0000
0000
0000
0000
0000
0000
0000
0000
0000
0000
0000
0000
0000
0000
0000
0000
0000
0000
0000
0000
0000
0000
0000
0000
0000
0000
0000
0000
0000
0000
0000
0000
0000
2003
0000
0000
0000
3000
0000
0000
0000
0000
0000
0000
0000
0200
0000
0000
0000
0300
0000
0000
0000
0000
0000
0000
0000
0002
0000
0000
0000
0003
0000
0000
0000
0000
0000
0000
0000
0020
0000
0000
0000
0030
0000
0000
0000
0000
0000
0000
0000
,
2001
3100
1002
0013
,
0021
0130
1020
0130
1001
0000
1100
0000
,
0011
0000
0010
0100
1000
0000
0100
1000
0010
0000
0100
0001
0010
0000
0001
0010
,
0100
0000
0010
0001
1000
0000
0001
0000
0100
0010
1000
0010
0100
0000
0001
0000
,
1000
0100
0010
0000
1002
0000
1003
0000
0010
1000
0100
0000
0021
0000
0230
0000
,
1300
0100
0010
0100
0010
0001
0010
0100
1000
0000
0001
1000
1001
0000
0000
0000
,
0001
1000
0010
1000
0001
0000
1000
0000
0001
1000
0100
1000
0001
0000
1000
0000
,
0100
0010
0100
1000
0001
0100
0010
1000
0200
0000
0000
0000
0310
0100
1000
0001
,
0100
0000
0100
0001
0000
0000
0001
0000
0001
1000
0000
1000
,
0100
0000
0100
0010
0000
0010
0001
0000
0000
1100
0000
0000
,
1001
1000
0010
0100
0001
0010
0100
0010
,
0001
0000
1000
0000
0100
0000
0010
0000
0001
0010
0001
0000
1000
0100
1000
0000
,
0010
0100
0001
0010
0001
1000
0010
0100
,
0010
1000
0002
0013
2000
3100
2000
3002
,
0103
0010
1000
0001
0010
0100
1000
0100
,
1000
0001
0100
0010
1000
0001
0010
0100
,
2000
0000
3100
0010
0002
0000
0013
0100
2000
0000
3100
0010
0002
0000
0013
0100
,
2000
0000
3100
0010
0002
0000
0013
0100
2000
0000
3100
0010
0002
0000
1003
0000
,
0220
0000
0000
0000
0000
0000
0000
0000
0000
0000
0000
0000
0000
0000
0000
0000
0000
0000
0000
0330
0000
0000
0000
0000
2002
0000
0000
0000
0000
0000
0000
0000
0000
0000
0000
0000
0000
0000
0000
0000
0000
0000
0000
3003
0000
0000
0000
0000
0201
0000
0000
0000
0000
0000
0000
0000
0000
0000
0000
0000
0000
0000
0000
0000
0000
0000
0000
0000
0000
0000
0000
0000
0310
0000
0000
0000
0000
0000
0000
0000
0000
0000
0000
0000
0000
0000
0000
0000
0000
0000
0000
0000
0000
0000
0000
0000
,
2100
0000
0000
3010
0000
0000
1001
0000
0000
2000
3200
0320
,
0032
0000
1003
0010
,
0001
0010
0000
0100
0000
0100
0001
1000
,
0100
0010
0001
0010
0100
0010
0010
0001
,
1000
0000
0100
0000
0010
0000
0001
0000
1000
0001
1001
0000
0000
0000
0001
1000
,
1001
0000
0000
1000
0020
0000
0000
0000
0130
0000
0000
0000
0101
0000
0000
0000
,
0001
0100
0000
0010
0000
1000
0100
0010
,
0001
0000
0000
0010
0000
0000
0100
0000
0000
0000
0000
0000
1100
0000
0000
0000
0000
0000
0000
0000
0000
0000
0000
0000
1001
0000
0000
0000
0000
0000
0000
0000
1000
0000
0000
0000
0100
0000
0000
0000
0000
0000
0000
0000
0100
0000
0000
0000
,
0010
0000
0001
0000
0010
0000
0001
0000
1000
0000
0001
0000
2002
0000
0000
0000
3003
0000
0101
0000
0000
1010
0000
0000
,
0101
0000
1001
1000
,
0100
0010
0000
0100
0000
0010
0100
1000
,
0001
0200
2300
3200
0300
0010
0010
1000
,
0001
0000
0000
1000
0100
0000
0010
0000
0001
1000
1001
0000
0000
0000
1000
0001
,
1001
0000
0220
0330
0102
0013
0100
2200
,
0300
0100
3100
0010
0210
1300
0010
0202
,
0300
0000
1003
0000
0100
0000
1000
0000
0010
0100
0001
0010
0100
0000
0010
0000
,
0001
1000
0100
1000
0010
0000
1001
0000
0000
0000
0001
1000
2001
0000
0000
0000
,
0010
0000
0100
3200
0010
0010
0010
0000
,
1000
1000
1000
0000
0010
0010
0010
0010
,
0310
0000
0000
0000
0000
0000
0000
0000
2000
3002
0003
0000
0000
0000
0000
0000
1001
0000
0000
0000
1000
0000
0000
0000
0010
0000
0000
0000
1000
0000
0000
0000
,
0100
1000
0010
0001
0010
1000
0100
0001
,
0100
0010
0001
0000
0020
0000
0000
0000
0130
0000
0010
0000
0001
0000
0100
0000
,
0010
0000
1000
0000
0100
0000
0000
0000
0020
0000
0000
0130
2000
0000
0000
3001
,
0200
0000
0000
0000
0310
0000
0000
0000
1001
0000
0001
0100
0000
0100
0001
0000
,
0010
0000
0001
0010
0000
0100
1000
0000
0001
0000
0001
1000
0010
0100
0010
1000
,
0001
0010
0100
1000
0010
0000
0000
0000
0110
0000
0000
0000
1001
0000
0000
0000
,
1000
0000
0001
0010
0100
0000
0010
0100
1000
0000
0100
0010
0002
0000
0000
0000
,
1003
0000
0000
0000
0000
0000
1000
0000
0001
0000
1000
0000
0010
0000
0000
0100
0000
0000
0010
0000
0000
1000
0000
0000
0001
0000
0000
0000
0000
0000
0000
0000
0000
0000
0000
0000
0220
0000
0000
0000
0000
0000
0000
0000
0000
0000
0000
0000
,
0000
0000
0000
0000
,
0000
0000
0000
0000
,
0000
0330
0000
0000
;

//--------------- dance-double - Pandemonium X ----------------
#NOTES:
     dance-double:
     Pandemonium X:
     Easy:
     10:
     0,0,0,0,0:
00000000
00000000
00000000
00000000
,
00000000
00000000
00000000
00000000
,
00022000
00000000
00000000
00000000
,
00000000
00000000
00000000
00000000
,
00000000
00000000
00033000
00001000
,
00010000
00000100
00001000
00000010
,
00001000
00000010
00010000
00001000
,
01000000
00010000
00100000
01000000
,
10000000
00100000
01000000
20020000
,
00000000
00000000
30030000
10000000
,
00100000
01000000
00010000
10000000
,
10000000
10000000
10000000
01000000
,
00100000
00001000
00011000
00010000
,
00010000
00010000
00000100
00001000
,
00000010
00000100
00000001
00000010
,
00000010
00000010
00000010
00000001
,
00001000
00000100
00010000
00001000
,
01000000
00000000
00100000
01000000
00010000
10000000
01000000
00000000
,
10000000
00100000
00100000
01000000
,
00010000
00100000
00001000
00010000
,
00000100
00001000
00001000
00000010
,
00000001
00000010
00001010
00000010
,
00000100
00000001
00000001
00000010
,
00000100
00001000
00000100
00020000
,
00000000
00032000
00000000
01003000
,
00001000
00011000
00000000
00010000
,
00000100
00001000
00000010
00000001
,
00000010
00001000
00000100
00010000
,
00001000
01000000
00010000
00100000
,
01000000
10000000
00000000
10010000
,
01010000
00110000
00101000
00011000
,
00001100
00001010
00001001
00000000
,
00000000
00000000
00000000
00000110
,
00000000
00000000
00000000
00000000
,
00000000
00000000
00000000
00000000
00000000
00000000
00000001
00000100
,
00000100
00000010
00001000
00001000
00000100
00010000
00010000
00001000
,
01000000
01000000
00010000
00100000
00100000
01000000
10000000
10000000
,
01000000
00000000
00100000
00000000
00001000
00000000
00010000
00000000
00001000
00000000
00000000
00000000
00022000
00000000
00000000
00033000
,
00010000
00000100
00001000
00000010
,
00000100
00000010
00001000
00001001
,
00000001
00001000
00000010
00000010
,
00001000
00000100
00020000
00030000
,
00001000
01000000
00010000
00100000
,
01000000
10000000
00020000
00030000
,
10000000
00100000
01000000
00010000
,
00100000
00100000
00100000
00000000
,
00001000
00000000
00010000
00000000
,
00000100
00000100
00000100
00000000
,
00001000
00000010
00000100
00000001
,
00000010
00000100
00001000
00000100
,
00010000
00001000
01000000
00010000
,
00100000
01100000
00110000
01100000
,
00100000
01000000
10000000
00010000
,
01000000
00001000
00010000
00000100
,
00021000
00001000
00001000
00001000
,
00001000
00001000
00001000
00031000
,
00011000
00011000
00001000
00010000
,
00001000
00010000
00022000
00000000
,
00000000
00033000
00100000
00010000
,
01000000
00010000
10000000
01000000
,
00100000
00001000
00010000
00000100
,
00001000
00000000
00000010
00000000
00000100
00000100
00000000
00000100
,
00000100
00000000
00000010
00000100
,
00000001
00000010
00000100
00001000
,
00000100
00010000
00001000
00001000
,
00010000
00000000
00010000
00000000
00011000
00000000
00001000
01000000
,
00001000
00000000
01000000
00010000
,
00100000
01000000
10000000
00010000
,
01000000
00001000
00010000
00000100
,
00010000
00000000
00001000
00000000
01000000
01000000
00000000
01000000
,
01000000
00000000
00000000
00000000
00100000
00000000
00000000
10010000
,
00000000
00000000
10000000
00000000
01000000
00000000
00000000
00110000
,
00000000
00000000
00100000
00000000
00002000
00000000
00000000
00010000
,
00020000
00000000
00000000
00033000
00000000
00010000
00000100
00000000
,
00001000
00000000
00000010
00000000
00000100
00000001
00000100
00000000
,
00000001
00000100
00000001
00000000
00000001
00000100
00000010
00001000
,
00000100
00011000
00010000
00000100
,
00001000
00000010
00000100
00000001
,
00000010
00000010
00000100
00000010
,
00000001
00001000
00001100
00001100
,
00010100
00010100
00010000
00001000
,
01000000
00010000
00100000
10000000
,
00100000
00010000
10010000
01100000
,
10000000
10000000
10000000
10000000
,
00010000
00100000
00001000
00010000
00000100
00000000
00022000
00000000
,
00000000
00000000
00000000
00000000
,
00000000
00000000
00000000
00000000
,
00000000
00033000
00000000
00000000
;

//--------------- dance-double - Pandemonium X ----------------
#NOTES:
     dance-double:
     Pandemonium X:
     Medium:
     14:
     0,0,0,0,0:
00000000
00000000
00000000
00000000
,
00000000
00000000
00000000
00000000
00000000
00000000
00000000
00000000
00000000
00000000
00000000
00000000
00010000
00000000
00000000
00001000
00010000
00000000
00000100
00000000
00010000
00000000
00001000
00000000
,
02000000
00000000
00000000
00000000
,
00000000
00000000
00000000
00000000
,
00000000
00000000
03000000
00200000
,
20300000
00000000
32000000
00000000
03100000
00010000
00002000
00000000
,
00003200
00000000
00000320
00000000
00000031
00000100
00000010
00001000
,
00000010
00001000
00000010
00010000
00000010
00010000
00001000
00010000
,
00001000
00000000
00000000
00010000
00000000
00000000
00001000
00000000
00000000
01000000
00000000
00000000
00001000
00000000
00000000
01000000
00000000
00000000
00100000
00000000
01000000
00000000
00100000
00000000
,
01000000
00100000
01000000
00100000
01000000
00100000
01000000
00100000
01000000
00100000
10000000
00010000
,
00100000
00000000
00001000
00000000
00010000
00000000
00002000
00000000
00000000
00000000
00000000
00000000
00000000
00000000
00000000
00000000
00000000
00000000
00013000
00000000
00000000
00000100
00000000
00000000
,
00010000
00000100
00001000
00000010
00000100
00000001
00000010
00000100
,
00000010
00000100
00000010
00000001
00001000
00000000
00000010
00010000
,
00000010
00010000
00000100
00010000
00001000
00000000
02000000
00000000
,
03020000
00000000
00230000
00000000
02300000
00000000
03100000
01000000
,
00100000
01000000
00100000
00001000
00010000
00000100
00010000
00001000
,
00010000
00001000
01000000
00010000
00100000
00000000
10010000
00000000
,
01100000
00000000
00010000
00100000
00001000
00010000
00000010
00000100
,
00001000
00000100
00000001
00000000
00001000
00000001
00000010
00000100
,
00001000
00000010
00000100
00000010
00010000
00001000
00100000
00020000
,
00000000
10000000
10030000
00000000
00100000
01000000
10000000
01000000
,
00010000
00100000
00001000
00010000
00000010
00001001
00000001
00001000
,
00000100
00000010
00000200
00000000
00020300
00000000
00031000
00100000
,
00010000
01000000
00010000
10000000
00010000
00100000
00001000
00010000
,
00000000
00000100
00001000
00000000
00001001
00000000
00000001
00000100
,
00001000
00000100
00000002
00001000
00002003
00000000
00003200
00000000
,
00020300
00000000
00032000
00000000
01003000
00010000
00100000
01000000
,
10000000
00010000
02000000
00000000
03020000
00000000
10030000
01000000
,
00010000
01000000
10000000
00100000
01000000
00010000
00100000
00001000
,
00010000
00000000
00000100
00000000
00002000
00000000
00000000
00000000
00000000
00000000
00000000
00000000
00003010
00000000
00000100
00000001
,
00000100
00000000
00000000
00000000
00000000
00000000
00000001
00000000
00000000
00000100
00000000
00000000
00000001
00000000
00000000
00000000
00000000
00000000
00000100
00000000
00000000
00000001
00000000
00000000
00000100
00000000
00000000
00000000
00000000
00000000
00000001
00000000
00000000
00000100
00000000
00000000
00000001
00000000
00000000
00000000
00000100
00000000
00000000
00000000
00000010
00000000
00000000
00000000
,
00001000
00000100
00010000
00001000
01000000
00100000
10000000
01000000
00100000
00010000
00000000
00000000
,
00000000
00000000
00000000
00011000
,
00000000
00000000
00000000
00000000
00000000
00000000
00000000
00002000
00000000
00000000
00000000
00000000
,
00000000
00000000
00000000
00000000
00013000
00000000
00000000
00000000
00000100
00000000
00000000
00000000
00001000
00000000
00000000
00000010
00000000
00000000
00000100
00000000
00000000
00000001
00000000
00000000
00000010
00000000
00000000
00000100
00000000
00000000
00001000
00000000
00000000
00000001
00000000
00000000
00001000
00000000
00000000
00000000
00000000
00000000
00000100
00000000
00000000
00000000
00000000
00000000
,
00000100
00010000
00001000
00001000
00100000
00010000
00010000
01000000
,
00100000
00100000
10000000
00010000
00010000
00100000
01000000
01000000
,
10000000
00000000
01000000
00000000
00100000
00000000
00001000
00000000
00010000
00000000
00000000
00000000
00022000
00000000
00000000
00033000
,
00020000
00030100
00002000
00003010
,
00000100
00001000
00000100
00000001
00001000
00000000
00001100
00000000
,
00000010
00000001
00000100
00000010
00001000
00000100
00010000
00000000
,
00001000
01000000
00100000
10000000
02000000
00000000
00000000
00000000
,
03100000
00000000
00000000
00010000
01000000
00000000
00000000
00000000
00100000
00000000
00000000
10000000
00010000
00000000
00000000
00010000
,
00100000
00000000
00000000
00100000
01000000
00000000
00000000
01000000
20000000
00000000
00000000
00000000
00000000
00000000
00000000
00000000
,
30010000
00010000
00100000
00001000
00010000
00010000
00000100
00001000
,
00000010
00000001
00000010
00001000
00000002
00000000
00000013
00000100
,
00001000
00000000
00001000
00000001
00000000
00000000
00000001
00000000
00000001
00000100
00000000
00000100
,
00000010
00000000
00000010
00010000
00000000
00010000
00001000
00000000
00000000
00000000
00000000
00000000
,
00010000
10020000
00000000
10030000
,
00100000
00000000
01000000
00010000
00000000
00000000
00100000
00000000
,
00001000
00000000
00010000
00000000
00000010
00000100
00000000
00000010
,
00000000
00000000
00000100
00001000
00000100
00000001
00000010
00000100
,
00001000
00000000
00000000
00000100
00000000
00010000
00001000
01000000
,
00100000
00100000
01000000
00010000
00100000
01000000
10000000
00010000
,
20000000
00000000
00000000
30010000
00200000
00000000
00000000
00301000
00020000
00000000
00000000
00030100
00002000
00000000
00000000
00003010
,
00000200
00000000
00000000
00000301
00000020
00000000
00000000
00000130
00002000
00000000
00000000
00003100
00010000
00000000
00000000
00000000
,
00022000
00000000
00000000
00033000
00022000
00000000
00000000
00033000
00001000
00000000
00000000
00000000
01000000
00000000
00000000
00000000
,
00001000
00000000
00000000
00100000
00000000
00000000
00001000
00000000
00000000
00100000
00010000
10000000
,
02000000
00000000
03100000
01000000
,
10000000
00100000
00000000
01000000
00000000
01000000
10000000
01000000
,
00010000
00100000
00001000
00010000
00000000
00000100
00001000
00000010
,
00000100
00000000
00000100
00000000
00000010
00000000
00001000
00000000
00000001
00001000
00000001
00000000
00000000
00000000
00001000
00000001
,
00001000
00000110
00000001
00000100
,
00000010
00001000
00000000
00000100
00000000
00010000
00001000
01000000
,
00010000
00100000
00010000
00100000
00000000
00000000
00100000
00000000
00100000
01000000
00000000
01000000
,
10000000
00000000
00000000
00000000
10000000
00000000
00010000
00000000
00000000
00000000
00010000
00000000
02000000
00000000
00000000
00000000
00000000
00000000
00001000
00000000
00000000
00001000
00000000
00000000
,
03001000
00011000
00010000
00000100
,
00001000
00000010
00000000
00000100
00000000
00000010
00001000
00000001
,
00000010
00001000
00000010
00000001
00000000
00001000
00000100
00010000
,
00001000
00000000
01000000
00000000
00010000
00000000
00100000
00000000
01000000
10000000
01000000
00000000
00000000
00000000
10000000
00100000
,
10000000
00000000
01010000
00000000
00010000
00100000
00001000
00010000
,
00000000
00001000
00001000
00010000
00000100
00001000
00000010
00001000
,
00000000
00000010
00010000
00001000
02000000
00000000
00000000
00010000
,
03020000
00000000
00000000
00030000
00000000
01000000
00100000
00000000
,
10000000
00000000
00010000
00000000
00100000
00100000
00100000
00000000
,
00001000
00001000
00001000
00000000
00010000
00000100
00001000
00000010
,
00000100
00000000
00011000
00000000
00001000
01000000
00010000
00100000
,
01000000
10000000
00010000
01000000
00100000
10000000
01000000
00100000
,
00010000
00100000
00010000
00000000
10000000
00000000
00000000
00000000
00010000
00000000
01000000
00000000
00010000
00000000
00100000
00000000
,
00001000
00010000
00001000
00000000
00020000
00000000
00030020
00000000
,
00000230
00000000
00000301
00000000
00001000
00000100
00000001
00000100
,
00001000
00000010
00010000
00001000
01000000
00100000
00010000
00100000
,
10000000
01000000
00100000
00000000
00110000
00000000
00101000
00000000
,
00001000
00001000
00001000
00001000
,
00010000
00000000
00000000
00000000
00000000
00000000
00000100
00000000
00010000
00000000
00001000
00000000
00010000
00000000
00000000
00001000
00000000
00000000
01000000
00000000
00000000
00100000
00000000
00000000
10000000
00000000
00000000
00000000
00000000
00000000
00000000
00000000
00000000
00000000
00000000
00000000
20020000
00000000
00000000
00000000
00000000
00000000
00000000
00000000
00000000
00000000
00000000
00000000
,
00000000
00000000
00000000
00000000
,
00000000
00000000
00000000
00000000
,
00000000
30030000
00000000
00000000
;

//--------------- dance-double - Pandemonium X ----------------
#NOTES:
     dance-double:
     Pandemonium X:
     Hard:
     17:
     0,0,0,0,0:
00000000
00000000
00000000
00000000
,
00000000
00000000
00000000
00000000
00000000
00000000
00000000
00000000
00000000
00000000
00000000
00000000
00002000
00000000
00000000
00010000
00013000
00000000
00100000
00000000
00001000
00000000
00010000
00000000
,
00022000
00000000
00000000
00000000
,
00000000
00000000
00000000
00000000
,
00000000
00000000
00000000
00000000
00000000
00000000
00000000
00000000
00033000
00000000
00000000
00000000
00010000
00000100
00010000
00000000
,
00000100
00001000
00000100
00000000
00001000
00000010
00001000
00000000
00000010
00000000
00000100
00000000
00000001
00000010
00000001
00000000
,
00000010
00000100
00000010
00000000
00000100
00001000
00000100
00000000
00001000
00000000
00000100
00000000
00010000
00001000
00010000
00001000
,
00100000
00010000
00100000
00001000
00010000
00001000
00010000
00001000
01000000
00010000
01000000
00001000
00010000
00001000
00010000
00001000
,
00100000
00010000
01000000
00010000
00100000
00001000
00010000
00000010
00000100
00000010
00010000
00001000
00020000
00000000
00000000
00000000
,
00000000
00000000
00000000
00000000
00000000
00000000
00000000
00000000
00000000
00031000
01000000
00010000
,
00100000
00000000
01000000
00000000
10000000
00000000
00200000
00000000
00000000
00000000
00000000
00000000
00000000
00000000
00000000
00000000
00000000
00000000
01300000
00000000
00000000
01000000
00000000
00000000
,
01000000
01000000
00010000
00100000
00001000
00010000
00000010
00000100
,
00000001
00000000
00001000
00000000
00000100
00000010
00000001
00000000
00000021
00000000
00000000
00000000
00000130
00000000
00000010
00000000
,
00000001
00000000
00001000
00000000
00000010
00000000
00010000
00000000
00001000
00000000
00000000
00000000
00210000
00000000
00000000
00301000
,
02000000
00000000
00000000
03100000
20000000
00000000
00000000
00000000
30010000
00000000
00000000
00000000
10000000
00000000
10000000
00000000
,
10000000
10000000
00010000
00100000
01000000
00100000
00010000
00100000
,
00001000
00000000
00010000
00000000
00000010
00000100
00000001
00001000
00000100
00000010
00000001
00000000
00001100
00000000
00000000
00000000
,
01010000
00000000
10000000
00100000
01000000
01001000
00011000
00010000
,
00001000
01000000
00010000
00000000
10000000
01000000
00100000
01000000
,
10000000
00100000
01000000
00010000
00100000
00010000
00100000
01000000
,
00000000
00000000
00100000
00000000
00001000
00010000
00001000
00000000
00010000
00000100
00010000
00000000
00000100
00000000
00001000
00000010
,
00000100
00000000
00000001
00000000
00000010
00000000
00000100
00000010
00000001
00000000
00001100
00000000
00000001
00000000
00000100
00000000
,
00000010
00000000
00001000
00000000
00000100
00000000
00000000
00000100
00010000
00000000
00000000
00010000
00001000
00000000
01000000
00000000
,
00010000
00000000
00100000
00000000
01000000
00000000
10000000
00010000
01000000
00000000
00010000
00000000
00100000
00001000
00010000
00001000
,
00100000
00001000
00010000
00001000
00100000
00001000
00010000
00001000
00100000
00001000
00010000
00001000
00100000
00000000
00000000
00011000
,
00000000
00000000
00000000
00000000
00010000
00000000
00000000
00000000
00000100
00000000
00000000
00000000
00001000
00000000
00000000
00000010
00000000
00000000
00001000
00000000
00000000
00000010
00000000
00000000
00000100
00000000
00000000
00000010
00000000
00000000
00000100
00000000
00000000
00000001
00000000
00000000
00000200
00000000
00000000
00000000
00000000
00000000
00000000
00000000
00000000
00000000
00000000
00000000
,
00002300
00000000
00023000
00000000
00032000
00203000
02300000
23000000
,
32000000
03200000
02300000
00000000
23000000
00000000
30010000
10000000
,
01000000
00100000
01000000
00000000
00100000
00000000
00001000
00000000
00010000
00000100
00010000
00000000
00000010
00000000
00000100
00000001
,
00000010
00000000
00000100
00001000
00000010
00000000
00001000
00000000
00000200
00000000
00000000
00000000
00010300
00000000
00001000
01000000
,
00100000
00000000
00000000
00000000
00000000
00000000
01000000
00000000
00000000
00001000
00000000
00000000
00010000
00000000
00000000
00000000
00000000
00000000
00000100
00000000
00000000
00001000
00000000
00000000
00000010
00000000
00000000
00000000
00000000
00000000
00000100
00000000
00000000
00000010
00000000
00000000
00010000
00000000
00000000
00000000
00001000
00000000
00000000
00000000
00100000
00000000
00000000
00000000
,
00001000
00000000
00000000
00000000
00010000
00000000
00000000
00000000
00000010
00000000
00000000
00000000
00000100
00000000
00000000
00000000
00000010
00000000
00000000
00000000
00010000
00000000
00000000
00000000
00001000
00000000
00000000
00000000
01000000
00000000
00000000
00000000
00001000
00000000
00000000
00000000
00010000
00000000
00000000
00001000
00000000
00000000
00010000
00000000
00000000
00001000
00000000
00000000
,
00010000
00001000
00010000
00001000
00010000
00001000
00010000
00001000
00010000
00001000
00010000
00001000
00022000
00000000
00000000
00000000
,
00000000
00000000
00000000
00000000
00000000
00000000
00033000
00000000
00000000
00000000
00000000
00000000
00001000
00100000
00020000
00000000
00000000
00000000
00000000
00000000
00000000
00000000
00000000
00000000
,
00030000
00000000
10000000
00000000
01000000
00000000
00100000
00000000
00010000
00100000
10000000
00100000
00010000
01000000
00001000
00010000
00000100
00001000
00000200
00000000
00000000
00001000
00000000
00000000
,
00001300
00001020
00000100
00000130
00000102
00000010
00000013
00002001
,
00000100
00003100
00012000
00010000
00013000
02001000
00010000
03100000
,
10010000
00000000
00000000
00000000
00000000
00000000
10000000
00000000
00000000
00000000
01000000
00000000
00100000
00000000
01000000
00000000
10000000
00000000
00010000
00000000
01000000
00000000
00010000
00000000
00100000
00000000
00000000
00000000
00000000
00000000
00000000
00000000
00000000
00000000
00000000
00000000
01000000
00000000
00000000
00100000
00000000
00000000
00010000
00000000
00000000
00001000
00000000
00000000
,
00021000
00030100
00012000
01003000
,
00011000
00001000
00011000
00010000
00011000
00000000
01010000
00000000
,
00010000
10000000
01000000
00100000
01000000
10000000
00010000
00000000
,
01000000
00010000
00100000
00001000
00020000
00000000
00000000
00000000
,
00030100
00001000
00000010
00000000
00000110
00000000
00000100
00000001
00000010
00000000
00000100
00000000
00001100
00000000
00001000
00000010
,
00000100
00000001
00000010
00000001
00000100
00000010
00001000
00000100
00000010
00000000
00000001
00000100
00000010
00000000
00001000
00000000
,
00000100
00010000
00000100
00010000
00001000
00000000
00100000
00000000
00001000
01000000
00001000
01000000
00010000
00000000
10000000
00000000
,
01000000
10000000
00010000
01000000
00010000
00100000
00001000
00010000
00000010
00000000
00000000
00000100
00001000
00000100
00000001
00001000
,
00000001
00000000
00000001
00001000
00000000
00000000
00011000
00000000
00001000
00010000
00000000
00010000
,
00001000
00000000
00000000
00000000
00000000
00000000
00000000
00000000
00001000
00000000
00000000
00000000
01000000
00000000
00000000
00000000
00000000
00000000
00000000
00000000
01000000
00000000
00000000
00000000
00100000
00000000
00000000
10000000
00000000
00000000
00100000
00000000
00000000
10000000
00000000
00000000
00100000
00000000
00000000
10000000
00000000
00000000
00100000
00000000
00000000
10000000
00000000
00000000
,
00010000
00100000
01000000
10000000
00010000
00100000
00001000
00010000
,
00000010
00000100
00000010
00001000
00000100
00000010
00000001
00001000
,
00000100
00010000
00001000
01000000
00010000
00100000
01000000
10000000
,
21000000
00000000
31000000
00100000
00010000
00001000
00000100
00000010
,
00000001
00000100
00001000
00000100
00000010
00001000
00000001
00001000
,
00000010
00010000
00001000
00100000
00010000
10000000
01000000
00100000
,
00001000
00010000
00000100
00010000
00001000
01000000
00001000
00010000
00000100
00010000
00001000
01000000
00001000
00010000
00000100
00010000
,
00001000
01000000
00001000
00010000
00000100
00010000
00001000
01000000
00001000
00010000
00000100
00010000
00001000
01000000
00001000
00010000
,
00000200
00000000
00000000
00000300
02000000
00000000
00000000
03000000
00021000
00000000
00000000
00000000
00030100
00000000
00000000
00000000
,
00012000
00000000
00000000
01003000
00000000
00000000
00011000
00000000
00000000
00010000
00000010
00000100
,
00002000
00000000
00003100
00000101
,
00000001
00000010
00000000
00001100
00000000
00000100
00010000
00001000
,
01000000
00100000
00010000
00100000
00000000
00100000
01000000
00010000
,
00100000
00000000
01000000
00000000
10000000
00000000
00010000
00000000
00100000
00001000
00011000
00000000
00000000
00000000
00010000
00000100
,
00001100
00001001
00000001
00000100
,
00001000
00000100
00000000
00000010
00000000
00000100
00000001
00000010
,
00000100
00000010
00000001
00001000
00000000
00000000
00001100
00000000
00000100
00010000
00000000
00010000
,
00001000
00000000
00000000
00000000
00001000
00000000
01000000
00000000
00000000
00000000
00000000
00000000
00100010
00000000
00000000
00000000
00000000
00000000
00011000
00000000
00000000
00011000
00000000
00000000
,
00011000
00000000
00001000
01000000
,
00010000
00100000
00000000
10000000
00000000
00100000
00010000
10000000
,
01000000
00010000
01000000
10000000
00100000
01000000
00010000
00100000
,
00001000
00000000
00010000
00000000
00000100
00000000
00001000
00000000
00000010
00001000
00001010
00000000
00000000
00000000
00000010
00000100
,
00000101
00000000
00001001
00000000
00000001
00000100
00001000
00010000
,
00000000
00001000
00010000
00001000
00010000
00001000
00100000
00010000
,
00000000
00100000
01000000
10000000
00020000
00000000
00000000
10000000
,
20000000
00000000
30030000
10010000
00000000
10000000
01000000
00000000
,
00100000
00000000
00001000
00010000
00000100
00000100
00000100
00000000
,
01000000
01000000
01000000
00000000
00000100
00000100
01000000
01000000
,
00000100
00000000
00011000
00000000
00010000
00010000
00010000
00010000
,
00000100
00001000
00000010
00000100
00000001
00000001
00000001
00000001
,
00000001
00000010
00000100
00000000
00001000
00000000
00000000
00000000
00000100
00000000
00010000
00000000
00001000
00000000
01000000
00000000
,
00010000
00000000
00100000
00000000
01000000
00000000
00000000
00000000
11000000
00000000
00000000
10000000
01000000
00000000
00000000
01000000
,
00100000
00000000
00101000
00000000
00001000
00001000
00001000
00001000
,
01000000
00010000
00100000
01000000
10000000
10000000
10000000
10000000
,
01000000
00100000
00010000
00000000
00101000
00000000
00010100
00000000
,
00001000
00000000
00000100
00001000
00000010
00000000
00000100
00000001
00000010
00000000
00000100
00001000
00000010
00000000
00000100
00000000
,
00000010
00000000
00000000
00000000
00000000
00000000
00010000
00000000
00001000
00000000
00100000
00000000
00010000
00000000
00000000
00100000
00000000
00000000
00010000
00000000
00000000
10000000
00000000
00000000
00010000
00000000
00000000
00000000
00000000
00000000
00000000
00000000
00000000
00000000
00000000
00000000
00022000
00000000
00000000
00000000
00000000
00000000
00000000
00000000
00000000
00000000
00000000
00000000
,
00000000
00000000
00000000
00000000
,
00000000
00000000
00000000
00000000
,
00000000
00033000
00000000
00000000
;
