#TITLE:Bad Maniacs;
#SUBTITLE:;
#ARTIST:kors k as teranoid;
#TITLETRANSLIT:;
#SUBTITLETRANSLIT:;
#ARTISTTRANSLIT:;
#GENRE:;
#CREDIT:;
#MUSIC:Bad Maniacs.ogg;
#BANNER:Bad Maniacs.png;
#BACKGROUND:Bad Maniacs-bg.png;
#CDTITLE:;
#SAMPLESTART:55.783;
#SAMPLELENGTH:11.051;
#SELECTABLE:YES;
#OFFSET:-0.396;
#BPMS:0.000=48.750
,12.250=195.000
,76.000=97.500
,89.750=195.000
,118.000=97.500
,120.000=195.000
,151.000=48.750
,155.000=195.000
,194.000=390.000
,196.000=195.000
,208.000=97.500
,210.000=195.000
,258.000=48.750
,267.000=390.000
;
#STOPS:12.250=0.694
,75.000=0.308
,89.750=1.308
,133.000=0.154
,134.500=0.154
,158.750=1.231
,162.750=1.231
;
#BGCHANGES:;
#FGCHANGES:;

//--------------- dance-single - Pandemonium X ----------------
#NOTES:
     dance-single:
     Pandemonium X:
     Beginner:
     7:
     0,0,0,0,0:
0000
0000
0000
0000
,
0000
0000
0000
0000
,
0000
0000
0000
0000
,
0000
0001
0000
1000
,
0000
0100
0000
1000
,
0010
0100
0000
0010
,
0000
1000
0000
0001
,
0010
0100
0000
0010
,
0000
0001
0000
1000
,
0001
0100
0000
0001
,
0000
1000
1000
1000
,
1000
0001
0000
1000
,
0000
0100
0010
0001
,
0000
0010
0000
0001
,
0000
0100
0010
1000
,
0001
0010
0000
0100
,
0000
1000
1000
1000
,
0000
0020
0000
0000
,
0000
0000
0000
0030
,
0100
0000
0010
0000
,
1000
0000
0001
0000
,
0001
1000
0001
1000
,
0001
1000
0010
0000
,
0100
0000
0001
0001
,
0001
0000
1000
0000
,
0100
0000
0010
0010
,
0100
0010
0000
0100
,
1000
0000
0001
0000
,
1000
1000
0001
0000
,
0100
0000
0010
0000
,
0100
0000
0001
0000
,
0010
0100
1000
0000
,
0100
0000
1000
0000
,
0110
0000
0000
1001
0000
0000
0001
0000
,
0000
0010
0010
0100
,
0010
0001
1000
0001
,
0000
1000
0000
0010
,
0100
0001
1000
1001
,
0000
0000
0000
0001
,
0000
0000
1000
0001
,
0000
0000
1000
0010
,
0000
0100
0000
0001
,
0000
1000
0000
0100
,
0000
0010
0000
0001
,
0000
1000
0000
1000
,
0000
0100
0000
0010
,
0000
0001
0000
1000
,
0100
0010
0001
1000
,
0100
0010
0000
0000
,
0100
0000
0000
1000
,
0001
0000
0100
0000
,
1001
0000
0000
0001
,
1000
0001
0101
0000
,
0000
0100
0010
0000
,
1000
0000
1100
0000
,
0000
0100
1000
1000
,
0001
0001
0110
0001
,
1000
0100
0010
0100
,
1000
0001
0100
0010
,
1000
0001
0010
0100
,
0010
0001
1000
0100
,
0010
0100
1000
0010
,
0100
0001
0010
0100
,
1000
0100
1000
1000
,
0001
0001
0110
0000
,
0000
0000
0000
0000
,
0000
0000
0000
0020
,
0000
0000
0000
0000
,
0000
0000
0000
0000
0000
0000
0000
0030
;

//--------------- dance-single - Pandemonium X ----------------
#NOTES:
     dance-single:
     Pandemonium X:
     Easy:
     10:
     0,0,0,0,0:
0000
0000
0000
0000
,
0000
0000
0000
0000
,
0000
0000
0000
0000
,
0000
0101
0000
0001
,
0010
0001
1000
0100
,
0010
1100
0000
0100
,
1000
0001
0100
0001
,
0010
1001
0000
1000
,
0001
0010
0001
0100
,
0010
0101
0000
1000
,
0100
0010
0100
1000
,
0001
0101
0000
0001
,
1000
0010
1000
0100
,
0010
1100
0000
1000
,
0001
0010
0001
0100
,
0001
0011
0000
0010
,
0001
1000
0010
1000
,
0100
0000
0000
0000
0011
0000
0000
0001
0000
0000
0001
0000
0000
1000
0000
0000
,
1000
0000
0000
0010
0000
0000
0100
0000
0000
0001
0000
0000
1000
0000
0000
0000
,
0100
0000
1000
0001
0000
0001
0000
0000
1000
0100
1000
0000
0001
0000
0100
0000
,
0001
0000
0010
0001
0000
0001
0000
0000
0010
0100
0010
0000
0001
0000
1000
0000
,
1001
0011
1100
1010
,
0101
0000
0011
0000
1100
0000
0100
1000
,
0010
0100
0001
0010
,
0200
0000
0300
0010
,
0001
0000
1000
0000
0001
0100
0001
0000
,
1000
0000
0100
0010
0000
0000
0100
0000
,
1000
1000
0001
0100
,
0000
0101
0010
0100
,
1000
1000
1000
0000
0002
0003
0100
1010
,
0001
1000
0100
1000
,
0010
0100
0011
0001
,
0010
0001
1000
0010
,
0100
0000
0101
0001
0000
0011
1100
0000
,
0100
1000
0001
0101
,
0101
0001
1100
0100
,
0010
0001
1000
0001
,
0100
1000
0100
0202
,
0000
0000
0303
1000
,
0000
0000
0000
0001
1000
0100
0011
0000
,
0000
0000
0000
0001
1000
0100
0010
0000
,
0001
0100
0010
1010
,
1000
0100
0010
1100
,
0100
1000
0001
0101
,
0100
0001
1000
1001
,
0010
1001
0100
0101
,
1000
0011
0100
1100
,
0110
0011
0110
1001
,
0110
1001
2000
0000
,
3100
0010
0001
0100
,
0010
1000
0001
0010
,
1000
0010
0001
0100
,
0010
1000
0100
0010
0100
0000
1000
0000
,
0001
0010
0100
0010
,
0001
0100
0010
1000
,
0001
0010
0100
0100
,
0010
0010
1001
0001
,
0100
0010
1010
1000
,
0100
0010
0011
0001
,
0100
0010
0110
0001
,
0101
0001
1001
1000
,
0100
0010
0011
0001
,
0100
0001
1001
1000
,
0100
0000
1000
0000
0001
0010
0100
1000
,
0100
0010
0001
1000
1001
0000
0000
0000
,
0000
0000
0000
0000
,
0000
0000
0000
0001
,
1000
0001
1000
0001
,
1000
0001
1000
0002
,
0000
0000
0003
0000
;

//--------------- dance-single - Pandemonium X ----------------
#NOTES:
     dance-single:
     Pandemonium X:
     Medium:
     15:
     0,0,0,0,0:
0000
0000
0000
0000
,
0000
0000
0000
0000
,
0000
0000
0000
0000
,
0000
0000
1001
0000
0000
1000
0001
0001
,
0010
0100
0010
0010
0100
1000
0001
0100
,
0002
0000
1003
0000
0000
0010
0100
0100
,
0001
0010
0100
0100
1000
0001
0100
1000
,
0200
0000
0301
0000
0000
0010
0100
0100
,
1000
0100
1000
0001
0001
0100
0010
0010
,
2000
0000
3100
0000
0000
0010
0100
0100
,
1000
0001
0100
0100
0001
0001
0010
0100
,
2100
0000
3001
0001
0001
0010
1000
0010
,
0100
1000
0010
0100
1000
0100
0001
1000
,
0020
0000
0130
0100
0100
1000
0100
0001
,
0010
0001
1000
0100
0001
0100
1000
0010
,
0200
0000
0310
0010
0010
1000
0010
0001
,
0010
0100
0001
0010
0100
0010
0001
0000
,
1000
0000
0000
0000
0100
0000
0000
0000
1000
0000
0000
0000
0002
0000
0000
0000
0000
0000
0000
0000
0000
0103
0000
0000
0000
0000
0000
0000
0000
0000
0200
0000
0000
0000
0000
0000
0000
0000
0000
0310
0000
0000
0000
0000
0000
0000
0000
0000
,
0020
0000
0000
1030
0000
0000
2000
0000
0000
3100
0000
0000
0011
0000
0000
0000
,
1000
0000
0001
0100
0000
0100
0000
0000
0100
0010
2000
0000
3002
0000
0023
0000
,
0130
0000
0010
0001
0000
0001
0000
0000
0010
0001
2000
0000
3020
0000
0230
0000
,
0310
0000
0100
0001
0010
0000
0100
1000
0010
0000
0100
0001
0010
0000
0100
1000
,
0010
0000
0100
0001
0010
0000
0100
0100
1001
0000
0000
0000
1000
0000
0100
0000
,
0010
0100
0110
1001
,
0202
0000
0000
0000
0303
1000
0100
0010
,
0100
0100
1000
0001
0100
1000
0100
0001
,
1000
0000
0100
0100
0000
0010
0100
0010
,
0011
0000
0011
0000
0010
1000
0010
0001
,
0100
0001
2000
0000
0000
3200
0000
0310
,
0001
0010
0100
1000
0020
0000
0130
1001
,
1000
0010
1000
0100
0010
0100
1000
0001
,
0100
0001
0010
0100
2100
0000
0010
0000
,
3001
0010
0001
0100
0010
0010
1000
0001
,
0010
0100
1100
0100
0010
0011
0001
0100
,
0001
0010
0110
0000
1001
0000
1000
0100
,
0010
0001
1000
0001
0200
0000
0310
1000
,
0010
1000
0001
0100
0001
0100
0001
1000
,
0100
0010
0001
0010
0100
1000
2002
0000
,
0000
0000
0000
0000
3003
0000
0001
0100
,
0000
0000
0000
0000
0000
0000
0010
0000
1000
0100
1000
0100
0010
0000
0001
0000
,
0000
0000
0000
0000
0000
0000
1000
0000
0001
0100
0001
0100
0010
0000
0100
0001
,
0100
0000
0001
0000
0010
0000
0100
0000
1000
0000
0001
0000
1000
0000
0100
0010
,
0100
0000
0010
0000
0001
0000
0100
0000
1000
0000
0100
0000
0001
0000
1000
0010
,
1000
0000
0100
0000
0010
0000
0100
0000
1000
0000
0001
0000
0100
0000
0001
0010
,
0001
0000
0100
0000
0001
0000
0010
0000
1000
0000
0010
0000
0100
0000
0010
0001
,
0010
0000
0001
0000
0100
0000
0010
1000
0010
0000
1000
0000
0001
0000
0010
0100
,
0010
0000
0100
0000
1000
0000
0001
0100
0001
0000
1000
0000
0100
0000
0100
0000
,
0010
0000
0000
0010
0000
0000
0001
0000
0010
0000
0100
0000
1000
0000
0010
0000
0100
0000
0001
0000
0010
0000
0100
0000
,
0010
0001
0100
0010
1000
0100
0020
0000
0000
0000
0000
0000
,
0130
0000
1000
0000
0000
0000
0000
0000
0000
0000
0010
0000
0100
0001
0100
0000
,
0001
0010
0001
0000
0010
0000
0100
1000
0100
0000
1000
0000
0001
0000
0100
0000
,
0001
0000
1000
0000
0000
0000
0000
0000
0000
0000
0100
0000
0010
0001
0010
0000
,
0100
0000
0000
0000
0100
0000
0000
0100
0010
0000
0001
0000
1000
0000
0010
0000
0100
0000
0000
0000
0001
0000
0000
0000
0000
0000
0000
0000
0000
0000
0000
0000
,
0000
0000
0010
0000
0001
1000
0001
0000
1000
0100
1000
0000
0001
0000
0010
0100
,
0010
0001
1000
0010
1000
0100
0000
0000
,
0000
0000
0010
0000
0100
1000
0100
0000
0010
0000
0010
0000
0001
0000
0001
0000
,
1000
0000
1000
0000
0010
0000
0010
0000
0100
0001
1000
0000
0100
0000
0000
0000
,
0010
0000
0001
0000
1000
0001
1000
0000
0001
0010
0001
0000
0010
0000
0100
1000
,
0100
0000
1000
0000
0010
0100
0010
0000
0100
0001
1000
0000
0001
0000
0000
0000
,
0010
0000
0100
0000
0010
0001
0010
0000
0001
0100
0001
0000
0100
0000
0010
1000
,
0010
0000
1000
0000
0001
0010
0001
0000
1000
0100
0010
0000
0100
0000
0000
0000
,
1000
0000
0010
0000
0100
0001
0100
0000
0001
0010
0001
0000
0010
0000
0100
1000
,
0100
0000
0010
0000
0001
1000
0001
0000
0010
0100
1000
0000
0100
0000
0000
0000
,
0010
0000
0001
0000
0100
0010
0100
0000
1001
0000
0001
0000
1000
0000
0100
0000
,
1001
0001
0100
0010
1001
0000
0000
0000
,
0000
0000
0000
0000
,
0000
0000
0000
0000
0000
0000
1000
0001
,
1000
0001
1000
0001
1000
0001
1000
0001
,
1000
0001
1000
0001
1000
0001
1000
0020
,
0000
0000
0030
0000
;

//--------------- dance-single - Pandemonium X ----------------
#NOTES:
     dance-single:
     Pandemonium X:
     Hard:
     17:
     0,0,0,0,0:
0000
0000
0000
0000
,
0000
0000
0000
0000
,
0000
0000
0000
0000
,
0000
0000
0000
0000
1001
0000
0000
0000
0000
0000
0001
0100
0001
0000
0010
0000
,
0001
0100
0010
1000
0100
0010
0200
0000
,
1300
0010
1000
0001
2000
0000
0000
0000
3000
0000
0100
0010
0100
0000
1000
0000
,
0010
0000
0100
0000
1000
0000
0100
0000
0001
0000
0001
0010
0001
0000
1000
0000
,
0020
0000
0000
0000
0200
0000
0000
0000
0330
0000
0001
0100
0001
0000
1000
0000
,
0100
0010
0100
1000
0010
0100
0020
0000
,
1030
0100
1000
0100
0020
0000
0000
0000
0030
0000
0100
0010
0100
0000
0010
0000
,
0001
1000
1100
1000
0001
0100
0101
0001
,
0020
0000
0000
0000
0230
0000
1000
0000
1300
0000
0100
0010
0001
0000
0100
0000
,
0010
1000
0010
0001
0010
0100
0001
1000
,
0200
0000
0000
0000
0320
0000
0001
0000
0031
0000
0100
0010
1000
0000
0100
0000
,
0010
0001
0100
1000
0100
0010
1000
0001
,
0020
0000
0000
0000
0230
0000
0010
0000
0310
0000
0100
1000
0001
0000
0100
0000
,
1000
0100
0001
0010
0100
1000
0001
0010
,
0110
0000
0000
0000
2001
0000
0000
0010
0000
0000
3100
0000
0000
1002
0000
0000
,
0100
0000
0000
0013
0000
0000
0201
0000
0000
0010
0000
0000
0301
0000
0000
0000
,
1000
0100
1000
0000
0001
0000
0100
0000
0010
0100
0010
0000
0100
0000
0001
0000
0010
0000
0010
0000
0020
0000
0000
0000
0230
0000
0000
0000
2300
0000
0000
0000
,
3001
0100
0001
0000
1000
0000
0100
1000
0100
0000
0010
0000
0001
0000
1000
0000
0100
0000
0100
0000
0200
0000
0000
0000
2300
0000
0000
0000
3001
0000
0000
0000
,
0011
0001
0101
0100
0110
0010
1010
1000
,
1001
0000
0001
0000
0011
0000
0010
0010
1001
0000
0000
0000
0001
0000
0100
0000
,
0020
0001
1030
1100
,
0120
0000
0001
0000
0130
1000
0010
0100
,
0100
0010
1000
0100
0001
0100
0010
0001
,
0201
0000
0010
0310
1000
0010
0100
1000
,
0200
0301
0011
2100
,
0010
0000
0000
0000
3001
0000
0000
0000
0000
0000
1000
0010
1000
0000
0100
0000
,
0010
0000
0001
0000
0010
0000
0000
0000
0100
0000
0000
0000
1000
0000
0000
0000
0001
1000
0001
1000
0001
0000
0000
0000
0110
0000
0000
0000
2001
0000
0000
0000
,
3001
0100
0001
0010
0001
1000
0010
0100
,
0010
1000
0100
0010
0021
0000
0100
0000
,
0031
0010
0100
1000
0010
0100
0010
1000
,
0100
0010
0011
0010
0100
1100
1001
1000
,
0010
1000
0100
0010
0100
1000
0010
0100
,
0010
1000
0001
0010
0001
1000
0100
0100
,
1000
1000
0010
0010
0100
0100
1000
0100
,
0001
0010
1000
0010
0001
0010
2200
0000
,
0000
0000
0000
0000
0000
0000
0000
0000
3300
0000
0000
0000
0001
0100
0010
0000
,
0000
0000
0000
0000
0000
0000
1000
0000
0100
0010
0001
1000
1000
0010
0100
0000
,
0000
0000
0000
0000
0000
0010
0100
0010
0100
0001
1000
0001
1000
0100
1000
0000
,
0001
0000
0100
0001
0100
0000
0001
0000
1000
0001
1000
0000
0001
0010
0001
0000
,
1000
0000
0010
1000
0010
0000
1000
0000
0001
1000
0001
0000
1000
0100
1000
0000
,
0100
0000
0010
0001
0010
0000
0001
0000
1000
0001
1000
0000
0001
0100
0001
0000
,
0100
0000
0010
1000
0010
0000
1000
0000
0001
1000
0001
0000
0010
0001
0100
0000
,
0010
0000
1000
0100
0010
0000
0001
0000
0010
0100
1000
0000
1000
0010
0100
0000
,
0010
0000
1000
0001
0010
0000
0100
0000
0010
0001
1000
0000
0001
0000
0001
0000
,
1000
0000
0000
0000
0000
0000
1000
0000
0000
0000
0000
0000
0010
0000
0000
0000
0100
0000
0000
0000
0001
0000
0000
0000
1000
0000
0000
0000
0100
0000
0000
0000
1000
0000
0000
0000
0010
0000
0000
0100
0000
0000
0010
0000
0000
0100
0000
0000
,
0010
0100
0010
0100
0010
0100
0010
0100
0010
0000
0000
0000
0000
0000
0000
0000
,
1000
0001
1000
0000
0100
0000
1000
0000
0010
0000
0100
0000
0010
1000
0010
1000
,
0010
0100
0010
0000
0100
0000
0001
1000
0001
0000
1000
0000
0100
0010
0100
0010
,
0001
1000
0001
0000
1000
0000
0001
0000
0010
0000
0100
0000
0010
0001
0010
0000
,
0001
0000
0000
0000
1010
0000
0100
0010
1000
0000
0010
0000
1000
0001
1000
0001
1000
0000
0010
0000
1000
0000
0000
0000
0100
0000
0000
0000
1000
0000
0000
0000
,
0010
0000
0100
0000
0001
0010
0001
0010
0100
0010
0100
0000
1000
0000
0001
1000
,
0001
0000
0010
0000
0100
1000
0100
1000
0010
0100
0001
0000
0010
0000
0001
0000
,
1000
0000
0100
0000
0010
0100
0010
0000
1100
0000
1000
0000
1010
0000
0010
0000
,
0110
0000
0100
0000
0101
0000
0001
0000
1000
0001
0010
0000
0110
0000
0100
0000
,
1100
0000
1000
0000
0010
0100
0001
0000
0010
0100
0010
0100
1000
0000
0100
0010
,
0001
0000
1000
0000
0100
0010
0100
1000
0001
1000
0010
0000
1010
0000
0010
0000
,
0110
0000
0100
0000
0010
1000
0001
0000
0010
0100
0010
0100
0010
0000
0001
0100
,
0001
0000
0100
0000
0010
1000
0100
1000
0001
1000
0010
0000
0110
0000
0010
0000
,
1010
0000
0010
0000
0100
1000
0001
0000
0100
0001
0100
0000
0010
0000
1000
0100
,
0010
0000
0100
0000
1000
0001
1000
0010
0100
0010
1000
0000
1100
0000
0100
0000
,
0110
0000
0010
0000
0100
1000
0001
0000
0101
0000
0110
0000
1010
0000
1001
0000
,
1010
0000
1100
0000
1000
0100
0010
0001
2000
3000
0000
0000
0000
0000
0000
0000
,
0000
0000
0000
0000
,
0000
0000
0000
0000
0000
0000
0001
0100
,
0010
1000
0001
0100
0010
1000
0001
0100
,
0010
1000
0001
0100
0010
1000
0002
0000
,
0000
0003
0000
0000
;

//--------------- dance-single - Pandemonium X ----------------
#NOTES:
     dance-single:
     Pandemonium X:
     Challenge:
     18:
     0,0,0,0,0:
0000
0000
0000
0000
,
0000
0000
0000
0000
0000
0000
0000
0000
0000
0000
0000
0000
0000
0000
0000
0000
0000
0000
0000
0000
0000
0000
0000
0000
0000
0000
0000
0000
0000
0000
0000
0000
0000
0000
0000
0000
0000
0000
0000
0000
0000
0000
0000
0000
0000
0000
0000
0000
0000
0000
0000
0000
0000
0000
0000
0000
0000
0001
0000
0000
0000
0000
0000
0000
0000
0000
0010
0000
0000
0000
0000
0000
0000
0000
0000
0100
0000
0000
0000
0000
0000
0000
0000
0000
0000
0000
0000
1000
0000
0000
0000
0000
0000
1001
0000
0000
0000
0000
0000
0000
0000
0000
0000
0000
0002
0000
0003
0000
0000
0000
0000
0000
0000
0000
0000
0000
0002
0000
0000
0000
0003
0000
0000
0000
0000
0000
0100
0000
0000
0000
0000
0000
0000
0000
0000
0000
0000
0000
0010
0000
0000
0000
0000
0000
0000
0000
0000
0000
0000
0000
0100
0000
0000
0000
0000
0000
0001
0000
0000
0000
0000
0000
0000
0010
0000
0000
0000
0000
0000
0100
0000
0000
0000
0000
0000
0000
1000
0000
0000
0000
0000
0000
0000
0000
0000
0000
0000
0000
0000
0000
0000
0000
,
0000
0000
0000
0000
0000
0000
0000
0000
0000
0000
0000
0000
0001
0000
0000
0000
0000
0000
0000
0000
0000
0100
0000
0000
0000
0000
0000
0000
0000
0000
0000
0010
0000
0000
0000
0000
1000
0000
0000
0000
0000
0000
0000
0000
0200
0000
0000
0000
0000
0000
0000
0000
0000
0000
0000
0000
0000
0000
0000
0000
0000
0000
0000
0000
0000
0000
0000
0000
0000
0000
0000
0000
0000
0000
0000
0000
0000
0000
0000
0000
0000
0000
0000
0000
0300
0000
0000
0000
0000
0000
0000
0000
0000
0000
0000
0000
0000
0000
0000
0000
0000
0000
0000
0000
0000
0000
0000
0000
0000
0000
0000
0000
0000
0000
0000
0000
0000
0000
0000
0000
0000
0000
0000
0000
0000
0000
0000
0000
0000
0000
0000
0000
0000
0000
0000
0000
0000
0000
0000
0000
0000
0000
0000
0000
0010
0000
0000
0000
0000
0000
0001
0000
0000
0000
0000
0000
0000
0000
0000
0000
0000
0000
0000
0000
0000
0000
0000
0000
0000
0000
0000
0000
0000
0000
0000
0000
0000
0000
0000
0000
0000
0000
0000
0000
0000
0000
0000
0000
0000
0000
0000
0000
,
1000
0001
1000
0001
0100
0000
0000
0000
0000
0000
0000
0000
0000
0000
0000
0000
2001
0000
0000
0000
0000
0000
0000
0000
0000
0000
0000
0000
0000
0000
0000
0000
0000
0000
0000
0000
0000
0000
0000
0000
3010
0000
0000
0000
0100
0000
0000
0000
0001
0000
0000
0000
0000
0000
0000
0000
0010
0000
0000
0000
0000
0000
0000
0000
,
0100
0010
0001
1000
0010
0100
0001
0010
,
0100
0010
0001
1000
0020
0000
0000
0000
0030
0000
0100
0010
1000
0000
0001
0000
,
0010
0010
0100
1000
0010
0100
1000
0100
,
0001
0100
0001
0100
0020
0000
0000
0000
0030
0000
1000
0100
0010
0000
0100
0000
,
1000
1000
0001
0100
0001
1000
0100
0010
,
0100
1000
0100
1000
0002
0000
0000
0000
0003
0000
0100
0001
0010
0000
0010
0000
,
0100
1000
0200
0010
1300
0010
0200
1000
,
0301
0000
0000
0000
0101
0000
1010
0000
0101
0000
0001
1000
0100
0000
0001
0000
,
0100
1000
0010
0100
0001
0010
0001
1000
,
0010
1000
0010
1000
0100
0000
0011
0000
1001
0000
0001
0010
0100
0000
0001
0000
,
0100
1000
1001
0001
0100
0001
0011
0010
,
0200
0000
0000
0000
0310
0000
0110
0000
1001
0000
1000
0001
0100
0000
0001
0000
,
0100
1000
0100
0010
1000
0001
0020
0000
,
0130
0000
0000
0000
0010
0000
0000
0000
0001
0000
0000
0000
1001
0000
0000
0000
0000
0000
0000
0000
0000
1100
0000
0000
0000
0000
0000
0000
0000
0000
0110
0000
0000
0000
0000
0000
0000
0000
0000
0011
0000
0000
0000
0000
0000
0000
0000
0000
,
0110
0000
0000
1100
0000
0000
1010
0000
0000
0110
0000
0000
0101
0000
0000
0000
,
1000
0100
1000
0100
1000
0000
0001
0000
0100
0010
0100
0000
0100
0010
0100
0000
0010
0000
1000
0000
1200
0000
0000
0000
0302
0000
0000
0000
0203
0000
0000
0000
,
0310
0001
0010
0001
0010
0000
0100
0000
1000
0001
1000
0000
1000
0001
1000
0000
0001
0000
0100
0000
0020
0000
0000
0000
0032
0000
0000
0000
0023
0000
0000
0000
,
1030
0001
0010
0001
1000
0000
0001
1000
0001
0000
1000
0001
1000
0000
0001
0000
0010
0000
0100
0000
2100
0000
0000
0000
3020
0000
0000
0000
0230
0000
0000
0000
,
0310
1000
0010
0100
0010
0000
0100
0000
0001
1000
0001
0000
1000
0100
0010
0000
0011
0000
0000
0000
0100
0000
1000
0000
0010
0000
0000
0000
0100
0000
0000
0000
,
1000
0000
0100
0000
0002
0000
0000
0000
0013
0000
0100
0010
0001
0000
1000
0000
,
1020
0000
0000
0000
0100
0000
0000
0000
1030
0000
0100
0010
0001
0000
0010
0000
,
0100
0100
0100
0010
0001
0100
1000
0100
,
0102
0000
0000
0000
0010
0000
0013
0000
1100
0000
0001
0010
0100
0000
1000
0000
,
1010
0000
0000
0000
1010
0000
0000
0000
0210
0000
0000
0000
0301
0010
0001
0010
,
0100
0000
1000
0000
0110
0000
0000
0000
0000
0001
1000
0100
1000
0000
0100
0000
,
0010
0000
0001
0000
0010
0000
0001
0000
0010
0000
0000
0000
0100
0000
0000
0000
1000
0100
0010
0001
2000
0000
0000
3000
1001
0000
0000
0000
0220
0000
0330
0000
,
1001
0001
0100
0010
1010
1000
1100
0100
,
0021
0130
2100
3010
1002
0000
0010
0000
,
0103
0010
1000
0100
0110
0110
0001
0110
,
0100
0000
0000
0000
0000
0000
0000
0000
1000
0000
0000
0000
0000
0000
0000
0000
0202
0303
0000
0000
0000
0000
0000
0000
0001
0000
0000
0000
0000
0000
0000
0000
1000
0000
0000
0000
0000
0000
0000
0000
0220
0330
0000
0000
0000
0000
0000
0000
1001
0000
0000
0000
0000
0000
0000
0000
0001
0000
0000
0000
0000
0000
0000
0000
,
0010
0001
0110
0010
1001
1000
0010
1000
,
0001
0010
0100
0010
0021
0000
0130
0100
,
1000
1000
0010
0010
0100
0100
1100
0100
,
0001
0010
1010
0010
0001
1000
2002
0000
,
0000
0000
0000
0000
0000
0000
0000
0000
0000
0000
0000
0000
0000
0000
0000
0000
3003
0000
0000
0000
0000
0000
0000
0000
0000
0000
0000
0000
0000
0000
0000
0000
0000
0001
0100
0010
1000
0010
0200
0000
0000
0000
0300
0000
0020
0000
0000
0000
1030
0000
0000
0000
0100
0000
0000
0000
0001
0000
0000
0000
0000
0000
0000
0000
,
0000
0000
0000
0000
0000
0001
0100
1000
0010
0001
0010
0100
1000
0100
0001
0000
,
0000
0000
0000
0000
0000
0001
0010
1000
0100
1000
0001
1000
1010
0010
0100
0001
,
0010
0000
0100
0010
0001
0000
0010
0001
0100
0010
1000
0000
0100
1000
0010
1000
,
0001
0000
1000
0100
0010
0000
0100
0000
0010
0000
0001
0000
0010
0001
1000
0010
,
1000
0000
0010
0100
0001
0000
0010
0100
0010
0100
1000
0010
0100
0010
1000
0001
,
0010
0000
0100
0010
0001
1000
0001
1000
0001
0000
0001
0000
0010
0001
0010
0001
,
0100
0000
0010
1000
0100
0000
0010
0100
1000
0010
0100
0001
1000
0010
1000
0010
,
1000
0010
1000
0010
0100
0000
0010
0100
0010
1000
0001
0000
1000
0000
1000
0000
,
0100
0000
0000
0000
0000
0000
0100
0000
0000
0000
0000
0000
0010
0000
0000
0000
0010
0000
0000
0000
0001
0000
0000
0000
0100
0000
0000
0000
0100
0000
0000
0000
0010
0000
0000
0000
1000
0000
0000
0010
0000
0000
0100
0000
0000
0001
0000
0000
,
0010
0100
0010
0001
1000
0010
0100
0001
0020
0000
0000
0000
0000
0000
0000
0000
,
0130
0010
0001
0000
1000
0000
0010
0000
0100
0000
0001
0000
0010
0100
1000
0100
,
1000
0100
0010
0001
0100
0010
1000
0010
0100
0000
0100
0000
0100
0001
0010
0100
,
1000
0010
0100
0000
0001
0000
0010
0000
0100
0000
0010
0000
0001
0100
0001
0010
,
0100
0010
0001
0100
0001
0000
1000
0001
0100
0001
1000
0000
1000
0100
0010
0001
1000
0000
0010
0000
0100
0000
0000
0000
0010
0000
0000
0000
1000
0000
0000
0000
,
0001
0000
1000
0000
0100
0010
0001
0010
0001
0100
0010
0100
0010
1000
0001
0010
,
0001
0000
1000
0000
0001
0010
0100
1000
0010
0100
0001
0000
0010
0000
0100
0000
,
0010
0000
0001
0000
1000
0010
1000
0010
1010
0000
0101
0000
0011
0000
1100
0000
,
1001
0000
0110
0000
1001
0000
1100
0000
1001
0001
0010
0000
0110
0000
0010
0000
,
0011
0000
0001
0000
0101
0001
0010
0100
1000
0100
1000
0010
0100
0001
0010
0100
,
0010
0000
0011
0000
0001
0010
0100
1000
0001
0100
0010
0000
1010
0000
0010
0000
,
0110
0000
1000
0000
1010
1000
0100
0010
0100
1000
0010
0100
0001
0010
0001
1000
,
0010
0000
1001
0000
1000
0100
0010
0001
1000
0001
0010
0000
0110
0000
0010
0000
,
0011
0000
0001
0000
0101
0100
0010
0100
0010
1000
0100
1000
0001
0100
0001
0010
,
0100
0000
1001
0000
0001
1000
0010
0100
0001
0010
0100
0000
0110
0000
0100
0000
,
1100
0000
1000
0000
1001
0001
0010
0100
1100
0000
0011
0000
0101
0000
1010
0000
,
1001
0000
0000
0000
0000
0000
0000
0000
0101
0000
0000
0000
0000
0000
0000
0000
1001
0000
0000
0000
0000
0000
0000
0000
1100
0000
0000
0000
0000
0000
0000
0000
2002
0000
0000
0000
3003
0000
0000
0000
0000
0000
0000
0000
0000
0000
0000
0000
0000
1000
0000
0000
0100
0000
0000
0010
0000
0001
0000
0100
0000
0000
0010
0000
,
0000
0100
0000
0000
0000
0000
0000
0000
0000
0000
0000
0000
0000
0000
0000
0000
0000
0000
0000
0000
0000
0000
0000
0000
0000
0000
0010
0000
0000
0000
1000
0000
0000
0000
0000
0100
0000
0000
0010
0000
0000
0100
0000
0000
0000
0000
0000
0000
0000
0000
0000
0000
0000
0000
0000
0000
0000
0000
0000
0000
0000
0000
0000
0000
0000
0000
0000
0000
0000
1000
0000
0000
0000
0000
0000
0000
0002
0000
0000
0000
0003
0000
0000
0100
0000
0000
0000
0000
0000
0000
0000
0000
0000
0000
0000
0000
,
0000
0000
0000
0000
0000
0000
0000
0000
0000
0000
0000
0000
0000
0000
0000
0010
0000
0000
0000
0000
0000
0000
0000
0000
0000
0000
0000
0000
0100
0000
0000
0000
0000
0000
0000
0000
0001
0000
0000
0000
0000
0000
0000
0000
0000
0000
0000
0000
0000
0000
0010
0000
0000
0000
0000
0000
0000
0000
0000
0000
0000
0000
0000
0000
0200
0000
0000
0000
0000
0000
0000
0000
0000
0000
0000
0000
0300
0000
0000
0000
0000
0000
0000
0000
0000
0000
1000
0000
0000
0000
0000
0000
0000
0000
0000
0000
0000
0000
0000
0000
0000
0000
0000
0000
0000
0000
0000
0000
2002
0000
0000
0000
0000
0000
0000
0000
0000
0000
0000
0000
0000
0000
0000
0000
0000
0000
0000
0000
0000
0000
0000
0000
3003
0000
0000
0000
0000
0000
0000
0000
0000
0000
0000
0000
0001
0000
0000
0000
0000
0000
0000
0000
0000
0000
0000
0000
0000
0000
0000
0000
0000
0000
0000
0000
0000
0000
0000
0000
0100
0000
0000
0000
0000
0000
0000
0000
0000
0000
0000
0000
0000
0000
0000
0000
0000
0000
0000
0000
0000
0000
0000
0000
,
0010
1000
0100
0001
0100
1000
0010
0001
,
0010
0100
0001
1000
0100
0010
0001
0200
,
0000
0300
0000
0000
;

//--------------- dance-double - Pandemonium X ----------------
#NOTES:
     dance-double:
     Pandemonium X:
     Easy:
     9:
     0,0,0,0,0:
00000000
00000000
00000000
00000000
,
00000000
00000000
00000000
00000000
,
00000000
00000000
00000000
00000000
,
00000000
00011000
00000000
00001000
,
01000000
00100000
10000000
01000000
,
00100000
00101000
00000000
00010000
,
00000100
00001000
00000010
00001000
,
00000100
00011000
00000000
00001000
,
00010000
00000100
00001000
00000010
,
00000100
00001001
00000000
00000001
,
00000010
00000100
00001000
00000100
,
00010000
00011000
00000000
00001000
,
01000000
00100000
10000000
01000000
,
00100000
00101000
00000000
00001000
,
00010000
00000100
00001000
00000010
,
00000100
00001001
00000000
00000001
,
00000010
00000100
00001000
00000100
,
00010000
00000000
00000000
00000000
00001000
00000000
00000000
00001000
00000000
00000000
00010000
00000000
00000000
00010000
00000000
00000000
,
00000100
00000000
00000000
00000100
00000000
00000000
00001000
00000000
00000000
00001000
00000000
00000000
00000010
00000000
00000000
00000000
,
00000100
00000000
00000000
00000010
00000000
00000010
00000000
00000000
00000100
00000001
00001000
00000000
00000100
00000000
00010000
00000000
,
00001000
00000000
00000000
01000000
00000000
01000000
00000000
00000000
00100000
01000000
00010000
00000000
00100000
00000000
01000000
00000000
,
10000000
00010000
00100000
00001000
,
00010000
00000010
00000100
00000010
,
00001000
00000100
00010100
00011000
,
02001000
00000000
03000000
00100000
,
10000000
00000000
00010000
00000000
00100000
00010000
00100000
00000000
,
00010000
00000000
01000000
00100000
00000000
00000000
01000000
00000000
,
00001000
00001000
00010000
00000100
,
00001000
00001020
00000130
00000010
,
00000100
00000000
00000001
00000000
00002000
00000000
00003100
00000011
,
00000001
00000100
00001000
00000100
,
00000010
00010000
00012000
00010000
,
00103000
00010000
01000000
00100000
,
10000000
00000000
10010000
00010000
00000000
00110000
00100000
00000000
,
00001000
00010000
00010000
00011000
,
00010100
00001100
00001010
00000010
,
00000100
00000001
00000010
00000100
,
00001000
00000100
00010000
00011000
,
00000000
00000000
00000000
00101000
,
00000000
00000000
00010000
10100000
,
00000000
00000000
00001000
00010000
,
00000100
00001000
00000010
00000100
,
00000001
00000010
00000100
00001000
,
00000100
00010000
00001000
01000000
,
00010000
00100000
01000000
10000000
,
10000000
00010000
00010000
00100000
,
00100000
00001000
00001000
00010000
,
00000100
00001000
00000010
00000100
,
00000001
00000010
00000200
00000000
,
00010300
00000000
00000000
00001000
,
01000000
00100000
10000000
00010000
,
00200000
00300000
00000000
01000000
,
00001000
00010000
00000100
00001000
00000020
00000000
00000030
00000000
,
00000000
00000100
00000001
00001000
,
00000100
00010000
00002000
00003000
,
00000000
00010000
00001000
01000000
,
00100000
10000000
10010000
10000000
,
01000000
00100000
00101000
00001000
,
00010000
00000100
00001100
00001000
,
00000010
00000100
00000101
00000001
,
00000011
00000010
00000110
00000100
,
00001000
00000100
00010100
00010000
,
00001000
01000000
01001000
01000000
,
00100000
10000000
10010000
00100000
,
10010000
01000000
10010000
00000000
,
00000000
00000000
00000000
00000000
,
00000000
00000000
00000000
10010000
,
00000000
10010000
00000000
10010000
,
00000000
10010000
00000000
02200000
,
00000000
03300000
00000000
00000000
;

//--------------- dance-double - Pandemonium X ----------------
#NOTES:
     dance-double:
     Pandemonium X:
     Medium:
     14:
     0,0,0,0,0:
00000000
00000000
00000000
00000000
,
00000000
00000000
00000000
00000000
,
00000000
00000000
00000000
00000000
,
00000000
00000000
00012000
00000000
00000000
01003000
00100000
10000000
,
00010000
00100000
01000000
10000000
00010000
00100000
00001000
00010000
,
00000020
00000000
00000230
00000000
00000000
00000310
00000100
00000001
,
00000010
00000001
00001000
00000100
00000001
00000100
00001000
00000010
,
00010000
00000000
00002000
00000000
00000000
01003000
00100000
00010000
,
00100000
10000000
00010000
00100000
00001000
00010000
00000100
00010000
,
00002000
00000000
00203000
00000000
00000000
01300000
00100000
00001000
,
00010000
00000100
00001000
00001000
00000001
00000001
00000100
00000010
,
00002001
00000000
00003100
00000100
00000100
00010000
00001000
01000000
,
00100000
10000000
00010000
00100000
01000000
10000000
00010000
00100000
,
00002000
00000000
00013000
00010000
00010000
00000100
00001000
00000010
,
00000100
00000001
00000010
00001000
00000010
00000001
00000100
00001000
,
00000200
00000000
00000310
00000010
00000010
00000100
00000001
00000100
,
00000010
00010000
00001000
00100000
00010000
10000000
02000000
00000000
,
03002000
00000000
00000000
00000000
00013000
00000000
00000000
00000100
00000000
00000000
00001000
00000000
00000000
00000010
00000000
00000000
,
00010000
00000000
00000000
00001000
00000000
00000000
00100000
00000000
00000000
01000000
00000000
00000000
11000000
00000000
00000000
00000000
,
01000000
00000000
10000000
00100000
00000000
00100000
00000000
00000000
00100000
01000000
00010000
00000000
00100000
00000000
00001000
00000000
,
00010000
00000000
00000100
00001000
00000000
00001000
00000000
00000000
00001000
00000010
00000100
00000000
00000001
00000000
00000010
00000000
,
00000011
00001100
00010100
00011000
,
01001000
00000000
00000000
00000000
01100000
00000000
00010000
00010000
11000000
00000000
00000000
00000000
01000000
00000000
00100000
00000000
,
00010000
00011000
00001100
00001010
,
00002002
00000000
00000000
00000000
00003003
00000001
00000100
00000010
,
00001000
00001000
00000100
00001000
00000100
00010000
00001000
01000000
,
00200000
00000000
01300000
10000000
00000000
00010000
00100000
10000000
,
00100000
00110000
00011000
00002100
,
00000010
00000000
00003002
00000000
00000003
00000100
00000010
00001000
,
00001000
00000100
00010000
00001000
02000000
00000000
03100000
10010000
,
00010000
00100000
01000000
00100000
,
00101000
00011000
00001100
00001000
,
00000010
00000100
00001000
00000100
00000001
00000010
00000100
00001000
,
00000001
00001000
00001010
00001000
00000001
00000011
00001001
00000000
,
00000001
00001000
00001100
00000000
00001100
00000000
00000100
00000000
,
00020000
00000000
00001000
00000000
00030100
00000000
00010000
00001000
,
01000000
00100000
10000000
00010000
00100000
01000000
10000000
01000000
,
00100000
00001000
00010000
00000100
00001000
00000010
00001001
00000000
,
00000000
00000000
00000000
00000000
00000000
00000000
00000001
00000100
,
00000000
00000000
00000000
00000010
00001000
00000100
00001000
00000100
,
00000000
00000000
00000000
00001000
00000100
00010000
00001000
01000000
,
00100000
10000000
00010000
00100000
01000000
10000000
00010000
00100000
,
00001000
00010000
00000100
00000100
00001000
00001000
00000010
00000100
,
00000010
00001000
00000001
00000010
00000100
00001000
00000100
00010000
,
00001000
01000000
00100000
00100000
01000000
00010000
10000000
01000000
,
00100000
00001000
00010000
00000100
00001000
00000010
00000100
00000001
,
00000010
00000100
00001000
00000100
00010000
00001000
01000000
01000000
,
00100000
00000000
00000000
00100000
00000000
00000000
10000000
00000000
00100000
00000000
10000000
00000000
00010000
00000000
01000000
00000000
00010000
00000000
00100000
00000000
00000000
00010000
00000000
00000000
,
00100000
00001000
00010000
00000100
00002000
00000000
00000000
00000000
,
00003010
00000100
00000000
00000000
00000000
00000010
00000100
00000001
,
00001000
00000100
00010000
00001000
01000000
00100000
10000000
00010000
,
00100000
00100000
00000000
00000000
00000000
01000000
10000000
00010000
,
00110000
00000000
00100000
00000000
00001000
00010000
00000100
00001000
00000010
00000000
00001000
00000000
00000000
00000000
00000000
00000000
,
00000000
00000010
00000100
00000001
00000010
00001000
00000010
00000001
,
00001000
00000100
00010000
00001000
01000000
00010000
00000000
00000000
,
00000000
00100000
10000000
00100000
00010000
00010000
01000000
01000000
,
00100000
00100000
10000000
10000000
10010000
00010000
00100000
00000000
,
00110000
00000000
00101000
00001000
00010000
00000100
00001000
00000010
,
00000100
00000001
00000010
00000100
00001100
00001000
00001001
00000000
,
00001010
00000000
00001100
00000100
00010000
00001000
01000000
00100000
,
10000000
00010000
00100000
01000000
11000000
01000000
01100000
00000000
,
00110000
00010000
01000000
00001000
00010000
00000100
00001000
00000010
,
00000100
00000001
00000010
00000100
00001100
00000100
00010100
00000000
,
00011000
00000000
01001000
00000000
01100000
00100000
10000000
00010000
,
00110000
00100000
00001000
00010000
00011000
00000000
00000000
00000000
,
00000000
00000000
00000000
00000000
,
00000000
00000000
00000000
00001000
,
00001000
00001000
00001000
00001000
,
00001000
00000000
00001000
00000000
00001000
00000000
00001000
00020000
,
00000000
00030000
00000000
00000000
;

//--------------- dance-double - Pandemonium X ----------------
#NOTES:
     dance-double:
     Pandemonium X:
     Hard:
     17:
     0,0,0,0,0:
00000000
00000000
00000000
00000000
,
00000000
00000000
00000000
00000000
,
00000000
00000000
00000000
00000000
,
00000000
00000000
00000000
00000000
00021000
00000000
00000000
00000000
00000000
00000000
00030100
00001000
00000100
00000000
00001000
00000000
,
00000010
00000100
00000001
00000010
00000100
00010000
00001000
01000000
,
00020000
00000000
00000000
00000000
00130000
00000000
00000000
00000000
00000000
00000000
01000000
00100000
01000000
00000000
10000000
00000000
,
00100000
01000000
00001000
00010000
00000100
00001000
00000010
00010000
,
00002000
00000000
00000000
00000000
01003000
00000000
00000000
00000000
00000000
00000000
00010000
01000000
00010000
00000000
00100000
00000000
,
00001000
00010000
00000010
00000100
00000001
00000010
00000100
00001000
,
00000001
00001000
00000001
00001000
00000200
00000000
00000000
00000000
00000300
00000000
00000010
00000001
00000010
00000000
00000001
00000000
,
00000100
00000010
00001000
00001000
00000100
00000100
00010000
00001000
,
00012000
00000000
00000000
00000000
02003000
00000000
00100000
00000000
03100000
00000000
01000000
00010000
00100000
00000000
10000000
00000000
,
00100000
00010000
01000000
00001000
00010000
00000100
00002000
00000000
,
00003020
00000000
00000000
00000000
00000230
00000000
00000001
00000000
00000301
00000000
00000010
00000100
00001000
00000000
00000100
00000000
,
00010000
00000010
00010000
00001000
01000000
00010000
00200000
00000000
,
00302000
00000000
00000000
00000000
00023000
00000000
00000100
00000000
00030100
00000000
00001000
00000010
00000100
00000000
00000001
00000000
,
00000010
00000001
00001000
00000010
00010000
00001000
01000000
00100000
,
10000000
01000000
10000000
01000000
10000000
00000000
00000000
00110000
00000000
00000000
00100000
00000000
00000000
00101000
00000000
00000000
,
00010000
00000000
00000000
00010100
00000000
00000000
00001000
00000000
00000000
00000011
00000000
00000000
00001100
00000000
00000000
00000000
,
00000011
00000000
00000001
00001000
00000000
00001000
00000000
00000000
00000100
00010000
00001000
00000000
00010000
00000000
00001000
00000000
,
01000000
00000000
00010000
00100000
00000000
00100000
00000000
00000000
00001000
00010000
00000100
00000000
00010000
00000000
00001000
00000000
,
00011000
00010000
00010100
00000100
00001100
00000010
00001010
00000001
,
00001001
00000000
00000100
00000000
00001001
00000000
00001000
00001000
00010100
00000000
00000000
00000000
00000100
00000000
00010000
00000000
,
00001000
00011000
00110000
11000000
,
20020000
00000000
00000000
00000000
00000000
00000000
00000000
00000000
30030000
00000000
10000000
00100000
10000000
00000000
00100000
00000000
,
01000000
01000000
01000000
00010000
00100000
00001000
00010000
00000010
,
00000200
00000000
00000001
00000310
00001001
00001000
00000100
00010000
,
00011000
00011000
00010100
00002000
,
00003010
00000000
00000000
00000000
00000101
00000000
00000000
00000000
00000000
00000000
00000001
00000100
00000020
00000000
00001030
00000000
,
00000100
00010000
00000100
00000000
00010000
00000000
00001000
00000000
02001000
00000000
00000000
00000000
00100000
00000000
03001000
00000000
,
00011000
00010000
00000100
00001000
00000010
00000100
00000001
00000010
,
00000100
00001000
00000100
00010000
00021000
00000000
00000100
00000000
,
00031000
00010000
00001000
01000000
00100000
10000000
00010000
00100000
,
01000000
00100000
10010000
01000000
00100000
10010000
00010000
00100000
,
00001000
00010000
00000010
00000100
00000001
00000010
00000100
00000100
,
00010000
00001000
00100000
00100000
00210000
00000000
01300000
01000000
,
10000000
10000000
00100000
00100000
01000000
01000000
00001000
00010000
,
00000010
00010000
00001000
00100000
00001000
00010000
00011000
00000000
,
00000000
00000000
00000000
00000000
00000000
00000000
00000000
00000000
00000000
00000000
00000000
00000000
00010000
00000010
00000100
00000000
,
00000000
00000000
00000000
00000000
00000000
00000100
00000010
00000100
00000010
00001000
00000001
00001000
00000010
00010000
00001000
00000000
,
00000000
00000000
00000000
00000000
00000000
01000000
00001000
01000000
00001000
01000000
00100000
01000000
00010000
00000000
10000000
01000000
,
10000000
00000000
01000000
00000000
00100000
00010000
00100000
00000000
00001000
00000000
00000010
00000000
00000100
00000000
00000001
00000100
,
00000001
00000000
00000010
00000100
00000010
00000000
00000010
00000000
00000001
00000000
00000001
00000000
00001000
00000100
00001000
00000000
,
00000100
00000000
00010000
00001000
00010000
00000000
00001000
00000000
01000000
00000000
00100000
00000000
10000000
01000000
10000000
00000000
,
01000000
00000000
00100000
00010000
00100000
00000000
00010000
00000000
01000000
00100000
01000000
00100000
10000000
01000000
10000000
01000000
,
10000000
00000000
00010000
00100000
00010000
00000000
00100000
00001000
00100000
00001000
00100000
00000000
00010000
00001000
00010000
00001000
,
00010000
00001000
00010000
00001000
00010000
00000000
00000100
00010000
00000100
00010000
00000100
00000000
00001000
00000000
00001000
00000000
,
00000010
00000000
00000000
00000010
00000000
00000000
00010000
00000000
00001000
00000000
00010000
00000000
00001000
00000000
01000000
00000000
00100000
00000000
10000000
00000000
00010000
00000000
00100000
00000000
,
10000000
00100000
00001000
00010000
00000100
00001000
00000020
00000000
00000000
00000000
00000000
00000000
,
00000130
00000001
00001000
00000000
00000100
00000000
00000000
00000000
00010000
00000000
00001000
00000000
01000000
00001000
01000000
00100000
,
01000000
00100000
01000000
00000000
00010000
00000000
00100000
00010000
00100000
00000000
01000000
00000000
10000000
01000000
10000000
01000000
,
10000000
00010000
00100000
00000000
01000000
00000000
00000000
00000000
10000000
00000000
00010000
00000000
00100000
00001000
00100000
00000000
,
00001000
00000000
00000000
00000000
00001001
00000000
00000000
00000001
00000100
00000000
00000010
00000000
00001000
00000001
00001000
00000001
00000100
00000000
00000010
00000000
00001000
00000000
00000000
00000000
00000100
00000000
00000000
00000000
00000000
00000000
00000000
00000000
,
00010000
00000000
00001000
00000000
01000000
00010000
01000000
00010000
01000000
00010000
00100000
00000000
00001000
00000000
00010000
00000100
,
00001000
00000000
00000010
00000000
00000100
00000001
00000100
00000001
00000010
00000100
00001000
00000000
00000100
00000000
00000000
00000000
,
00010000
00000000
00001000
00000000
01000000
00100000
01000000
00100000
10000000
00000000
10000000
00000000
01000000
00000000
01000000
00000000
,
00100000
00000000
00010000
00000000
00001000
00000000
00000100
00000000
00000010
00000001
00001000
00000000
00000010
00000000
00000001
00000000
,
00000010
00000000
00000100
00000000
00000001
00001000
00000100
00000010
00000100
00001000
00000100
00010000
00001000
00100000
00010000
01000000
,
00100000
00000000
01000000
00000000
00100000
10000000
00010000
00100000
01000000
00100000
00010000
00000000
10000000
00000000
00100000
00000000
,
00010000
00000000
00100000
00000000
01000000
00010000
00100000
00001000
00010000
00001000
00010000
00001000
00000010
00000100
00000001
00000010
,
00000100
00000000
00001000
00000000
00000100
00000010
00000001
00001000
00000010
00000100
00000001
00000000
00000010
00000000
00001000
00000000
,
00000010
00000000
00000001
00000000
00001000
00000100
00010000
00001000
00100000
00010000
00100000
00010000
10000000
01000000
00100000
01000000
,
10000000
00000000
00100000
00000000
01000000
00010000
00100000
00001000
00010000
00000000
00100000
00000000
10000000
00000000
00100000
00000000
,
00001000
00000000
00010000
00000000
00000100
00001000
00000010
00000000
00000100
00000001
00000010
00000100
00001000
00000100
00010000
00001000
,
01000000
00100000
10000000
00010000
00100000
01000000
10000000
00000000
20020000
30030000
00000000
00000000
00000000
00000000
00000000
00000000
,
00000000
00000000
00000000
00000000
,
00000000
00000000
00000000
00000000
00000000
00000000
00001000
00010000
,
00001000
00010000
00001000
00010000
00001000
00010000
00001000
00010000
,
00001000
00010000
00001000
00010000
00001000
00010000
00001000
00020000
,
00000000
00000000
00030000
00000000
;

//--------------- dance-double - Pandemonium X ----------------
#NOTES:
     dance-double:
     Pandemonium X:
     Challenge:
     18:
     0,0,0,0,0:
00000000
00000000
00000000
00000000
,
00000000
00000000
00000000
00000000
00000000
00000000
00000000
00000000
00000000
00000000
00000000
00000000
00000000
00000000
00000000
00000000
00000000
00000000
00000000
00000000
00000000
00000000
00000000
00000000
00000000
00000000
00000000
00000000
00000000
00000000
00000000
00000000
00000000
00000000
00000000
00000000
00000000
00000000
00000000
00000000
00000000
00000000
00000000
00000000
00000000
00000000
00000000
00000000
00000000
00000000
00000000
00000000
00000000
00000000
00000000
00000000
00010000
00000000
00000000
00000000
00000000
00000000
00000000
00000000
00000000
00000000
00100000
00000000
00000000
00000000
00000000
00000000
00000000
00000000
00000000
01000000
00000000
00000000
00000000
00000000
00000000
00000000
00000000
00000000
00000000
00000000
00000000
10000000
00000000
00000000
00000000
00000000
00000000
10010000
00000000
00000000
00000000
00000000
00000000
00000000
00000000
00000000
00000000
00000000
00020000
00000000
00030000
00000000
00000000
00000000
00000000
00000000
00000000
00000000
00000000
00000000
00020000
00000000
00000000
00000000
00030000
00000000
00000000
00000000
00000000
00000000
01000000
00000000
00000000
00000000
00000000
00000000
00000000
00000000
00000000
00000000
00000000
00000000
00001000
00000000
00000000
00000000
00000000
00000000
00000000
00000000
00000000
00000000
00000000
00000000
01000000
00000000
00000000
00000000
00000000
00000000
00001000
00000000
00000000
00000000
00000000
00000000
00000000
00100000
00000000
00000000
00000000
00000000
00000000
00010000
00000000
00000000
00000000
00000000
00000000
00000000
00100000
00000000
00000000
00000000
00000000
00000000
00000000
00000000
00000000
00000000
00000000
00000000
00000000
00000000
00000000
00000000
,
00000000
00000000
00000000
00000000
00000000
00000000
00000000
00000000
00000000
00000000
00000000
00000000
00010000
00000000
00000000
00000000
00000000
00000000
00000000
00000000
00000000
01000000
00000000
00000000
00000000
00000000
00000000
00000000
00000000
00000000
00000000
00100000
00000000
00000000
00000000
00000000
10000000
00000000
00000000
00000000
00000000
00000000
00000000
00000000
00020000
00000000
00000000
00000000
00000000
00000000
00000000
00000000
00000000
00000000
00000000
00000000
00000000
00000000
00000000
00000000
00000000
00000000
00000000
00000000
00000000
00000000
00000000
00000000
00000000
00000000
00000000
00000000
00000000
00000000
00000000
00000000
00000000
00000000
00000000
00000000
00000000
00000000
00000000
00000000
00000000
00030000
00000000
00000000
00000000
00000000
00000000
00000000
00000000
00000000
00000000
00000000
00000000
00000000
00000000
00000000
00000000
00000000
00000000
00000000
00000000
00000000
00000000
00000000
00000000
00000000
00000000
00000000
00000000
00000000
00000000
00000000
00000000
00000000
00000000
00000000
00000000
00000000
00000000
00000000
00000000
00000000
00000000
00000000
00000000
00000000
00000000
00000000
00000000
00000000
00000000
00000000
00000000
00000000
00000000
00000000
00000000
00000000
00000000
00000000
00100000
00000000
00000000
00000000
00000000
00000000
00010000
00000000
00000000
00000000
00000000
00000000
00000000
00000000
00000000
00000000
00000000
00000000
00000000
00000000
00000000
00000000
00000000
00000000
00000000
00000000
00000000
00000000
00000000
00000000
00000000
00000000
00000000
00000000
00000000
00000000
00000000
00000000
00000000
00000000
00000000
00000000
00000000
00000000
00000000
00000000
00000000
00000000
,
00001000
00010000
00001000
00010000
00000000
00000000
00000000
00000000
00000000
00000000
00000000
00000000
00000000
00000000
00000000
00000000
00001100
00000000
00000000
00000000
00000000
00000000
00000000
00000000
00000000
00000000
00000000
00000000
00000000
00000000
00000000
00000000
00000000
00000000
00000000
00000000
00000000
00000000
00000000
00000000
00001000
00000000
00000000
00000000
00000010
00000000
00000000
00000000
00000100
00000000
00000000
00000000
00000000
00000000
00000000
00000000
00001000
00000000
00000000
00000000
00000000
00000000
00000000
00000000
,
00000100
00000000
00000001
00000000
00001000
00000000
00000100
00000000
00000010
00000000
00000100
00001000
00000100
00000000
00000100
00000000
,
00010000
00001000
00010000
00001000
00200000
00000000
00000000
00000000
00000000
00000000
00310000
00100000
01000000
00100000
00010000
00000000
,
01000000
00010000
10000000
01000000
00100000
01000000
00100000
00010000
,
00002000
00000000
00000000
00000000
00023000
00000000
00000000
00000000
00000000
00000000
00030100
00001000
00000010
00000000
00000001
00000000
,
00000010
00001000
00000100
00000010
00000021
00000000
00000130
00000000
,
00001200
00000000
00000000
00000000
00010300
00000000
00000000
00000000
00000000
00000000
00001000
01000000
00100000
00000000
10000000
00000000
,
01000000
00100000
00110000
00101000
00011000
00001100
00000110
00001001
,
00000201
00000000
00000000
00000000
00000310
00000000
00001010
00000000
00001100
00000000
00000100
00010000
00001000
00000000
00010000
00000000
,
00001000
01000000
00100000
10000000
01000000
00100000
00001000
00010000
,
00000200
00000000
00000000
00000000
00001300
00000000
00000011
00000000
00001100
00000000
00000001
00000100
00000010
00000000
00000100
00000000
,
00000001
00001000
00000100
00010000
00001000
01000000
00010000
00100000
,
02100000
00000000
00000000
00000000
13000000
00000000
11000000
00000000
00110000
00000000
00100000
00001000
00010000
00000000
00000100
00000000
,
00001000
00000010
00000100
00000001
00000010
00000100
00020000
00000000
,
00031000
01000000
00001000
01000000
01001000
00000000
00000000
00011000
00000000
00000000
00010100
00000000
00000000
00011000
00000000
00000000
,
00110000
00000000
00000000
00011000
00000000
00000000
00001010
00000000
00000000
00000110
00000000
00000000
00001001
00000000
00000000
00000000
,
00000001
00000100
00000001
00000100
00000001
00000000
00001000
00000000
00000100
00010000
00000100
00000000
00010000
00001000
00010000
00001000
00010000
00000000
00000100
00000000
00020000
00000000
00000000
00000000
00032000
00000000
00000000
00000000
02003000
00000000
00000000
00000000
,
03100000
10000000
00100000
10000000
00100000
00000000
10000000
00000000
10000000
01000000
10000000
00000000
01000000
00100000
01000000
00000000
00100000
00000000
00001000
00000000
00020000
00000000
00000000
00000000
00030020
00000000
00000000
00000000
00000230
00000000
00000000
00000000
,
00000301
00000010
00000001
00000100
00000001
00000000
00001000
00000000
00000100
00010000
00001000
00000000
00010000
00001000
01000000
00000000
00100000
10000000
00010000
00100000
02000000
00000000
00000000
00000000
23000000
00000000
00000000
00000000
30200000
00000000
00000000
00000000
,
01300000
00100000
10000000
00000000
00010000
00000000
00100000
00000000
00001000
00010000
00000100
00000000
00001000
00000010
00000100
00000000
00001001
00000000
00000000
00000000
00000001
00000000
00001000
00000000
00000100
00000000
00000000
00000000
00000010
00000000
00000000
00000000
,
00000100
00001000
00000100
00010000
00001000
01000000
00010000
00100000
,
21000000
00000000
00000000
00000000
00010000
00000000
00000000
00000000
30100000
00000000
01000000
00100000
01000000
00000000
00010000
00000000
,
10000000
10000000
01000000
00100000
01000000
00100000
00010000
00001000
,
00000200
00000000
00000000
00000000
00010000
00000000
00010300
00000000
00011000
00000000
00010000
00000100
00001000
00000000
00000010
00000000
,
00000110
00000000
00000000
00000000
00001001
00000000
00000000
00000000
00000001
00000010
00000001
00000010
00000100
00001000
00000100
00001000
,
00000100
00010000
00001000
00010000
00001000
00000000
00000000
00000000
00000000
00000000
01000000
00001000
00010000
00000100
00001000
00000001
,
00001000
00000000
00000010
00000000
00000001
00000000
00000010
00000000
00001000
00000000
00000000
00000000
00000100
00000000
00000000
00000000
00010000
00001000
01000000
00100000
20000000
00000000
00000000
00000000
30010000
00000000
00000000
00000000
00011000
00000000
00000000
00000000
,
00010100
00010000
00000100
00001000
00000001
00000100
00000001
00001000
,
00000100
00010000
00001000
01000000
00100000
10000000
01000000
00100000
,
00010000
00100000
00010000
01000000
00001000
00001000
00001000
00010000
,
00001000
00010000
00000020
00000130
00001000
00020000
00031000
01000000
,
00100000
10000000
10010000
00000000
10010000
00000000
10000000
01000000
,
00100000
00010000
00100000
00010000
00100000
00000000
01000000
00000000
10000000
00000000
00000000
00000000
10100000
00000000
00100000
00000000
,
01000000
00001000
00011000
00010000
00000100
00001000
00001100
00000100
,
00000110
00000010
00000011
00000010
00000110
00001000
00022000
00000000
,
00000000
00000000
00000000
00000000
00000000
00000000
00000000
00000000
00000000
00000000
00000000
00000000
00000000
00000000
00000000
00000000
00000000
00000000
00000000
00000000
00000000
00000000
00000000
00000000
00000000
00000000
00000000
00000000
00033000
00000000
00000000
00000000
00001000
00010000
00001000
00010000
00001000
00010000
00002000
00000000
00000000
00000000
00003000
00000000
00020000
00000000
00000000
00000000
00031000
00000000
00000000
00000000
01000000
00000000
00000000
00000000
00010000
00000000
00000000
00000000
00000000
00000000
00000000
00000000
,
00000000
00000000
00000000
00000000
00000000
00100000
00010000
00100000
01000000
10000000
00010000
01000000
00010000
00100000
00001000
00000000
,
00000000
00000000
00000000
00000000
00000000
00010000
00000100
00001000
00000010
00001000
00000100
00000010
00000001
00000010
00000100
00000010
,
00000001
00000000
00001000
00000100
00010000
00001000
00010000
00000000
00001000
01000000
00100000
10000000
00010000
00100000
00010000
00100000
,
01000000
00000000
10000000
01000000
10000000
00010000
10000000
00000000
00100000
01000000
00100000
00000000
01000000
00010000
00100000
01000000
,
00100000
00000000
01000000
10000000
00010000
01000000
00010000
00000000
00100000
00001000
00010000
00000010
00001000
00000100
00000010
00000100
,
00001000
00000000
00000100
00000010
00000001
00000010
00000100
00000000
00001000
00000010
00000100
00000001
00001000
00000100
00001000
00000100
,
00010000
00000000
00001000
00010000
00001000
00000000
00010000
00001000
01000000
00001000
01000000
00000000
00100000
01000000
00100000
01000000
,
00100000
01000000
00100000
01000000
00010000
00000000
10000000
01000000
10000000
01000000
00100000
00000000
01000000
00000000
00100000
00000000
,
00010000
00000000
00000000
00001000
00000000
00000000
00000100
00000000
00000010
00000000
00000001
00000000
00000100
00000000
00001000
00000000
00010000
00000000
00100000
00000000
10000000
00000000
01000000
00000000
,
00100000
00010000
00001000
00000100
00000010
00000001
00002000
00000000
00000000
00000000
00000000
00000000
,
00003010
00000100
00000001
00000000
00000010
00000000
00000100
00000000
00000010
00000000
00000001
00000000
00001000
00000100
00001000
00000100
,
00010000
00001000
00010000
00001000
00010000
00000000
00001000
01000000
00001000
00000000
01000000
00000000
00100000
10000000
00100000
10000000
,
00100000
01000000
00010000
00000000
00100000
00000000
01000000
00000000
00100000
00000000
00010000
00000000
10000000
00100000
01000000
00100000
,
10000000
01000000
10000000
01000000
10000000
00000000
00010000
00100000
00010000
00000000
00100000
00000000
00001000
00010000
00001000
00010000
00000100
00000000
00001000
00000000
00000010
00000000
00000000
00000000
00000100
00000000
00000000
00000000
00000001
00000000
00000000
00000000
,
00000010
00000000
00000100
00000000
00000010
00000001
00000100
00000010
00001000
00000010
00001000
00000010
00000100
00000000
00000010
00001000
,
00000100
00001000
00000001
00000000
00001000
00000100
00010000
00001000
01000000
00010000
00100000
00000000
01000000
00000000
00100000
00000000
,
00001000
00000000
00010000
00000000
00000100
00010000
00001000
01000000
00010000
00000000
00110000
00000000
11000000
00000000
10010000
00000000
,
01010000
00000000
10100000
00000000
11000000
00000000
10010000
00000000
00100000
00001000
00010000
00000000
00001000
00010000
00000100
00000000
,
00001000
00000010
00000100
00000000
00000010
00000100
00000001
00000010
00000100
00000010
00000001
00001000
00000010
00000100
00000001
00001000
,
00000100
00000000
00001100
00000000
00000100
00010000
00001000
01000000
00001000
00010000
00000100
00000000
00001000
00000010
00000100
00000000
,
00000010
00001000
00000001
00000000
00000010
00000100
00000010
00000001
00001000
00000100
00010000
00001000
01000000
00000000
00010000
00100000
,
01000000
00000000
11000000
00000000
01000000
00100000
00001000
00010000
00000100
00001000
00000010
00000000
00000100
00000001
00000010
00000000
,
00000100
00001000
00000001
00000000
00000100
00000010
00001000
00000100
00010000
00001000
01000000
00010000
00100000
00000000
01000000
10000000
,
00100000
00000000
10010000
00000000
10000000
01000000
00100000
00010000
00100000
00001000
00010000
00000000
00000100
00001000
00000010
00000000
,
00000100
00000001
00000010
00000000
00000100
00000010
00000001
00001000
00000010
00000000
00001010
00000000
00010100
00000000
00011000
00000000
,
01001000
00000000
00000000
00000000
00000000
00000000
00000000
00000000
01100000
00000000
00000000
00000000
00000000
00000000
00000000
00000000
10100000
00000000
00000000
00000000
00000000
00000000
00000000
00000000
01010000
00000000
00000000
00000000
00000000
00000000
00000000
00000000
02002000
00000000
00000000
00000000
03003000
00000000
00000000
00000000
00000000
00000000
00000000
00000000
00000000
00000000
00000000
00000000
00000000
00010000
00000000
00000000
01000000
00000000
00000000
00001000
00000000
00010000
00000000
00000100
00000000
00000000
00001000
00000000
,
00000000
00000000
00000000
00000010
00000000
00000000
00000000
00000000
00000000
00000000
00000000
00000000
00000000
00000000
00000000
00000000
00000000
00000000
00000000
00000000
00000000
00000000
00000000
00000000
00000000
00000000
00000000
00000000
00000000
00000000
00000000
00000000
00000000
00000000
00000000
00000000
00000000
00000000
00000000
00000000
00000000
00000000
00000000
00000000
00000000
00000000
00000000
00000000
00000000
00000000
00000000
00000000
00000000
00000000
00000100
00000000
00000000
00000000
00000000
00000000
00000000
00000000
00000000
00000010
00000000
00000000
00000000
00000000
00000000
00010000
00000000
00000000
00000000
00000000
00000000
00001000
00000000
00000000
00000000
00000000
00000000
00100000
00000000
00000000
00000000
00000000
00000000
00000000
00000000
00000000
00000000
00000000
00000000
00000000
00000000
00000000
00000000
00000000
00000000
00000000
00000000
00000000
00000000
00000000
00000000
00000000
00000000
00000000
00000000
00000000
00000000
00000000
00000000
00000000
00000000
00000000
00000000
00000000
00000000
00000000
00000000
00000000
00000000
00000000
00000000
00000000
00000000
00000000
00000000
00000000
00000000
00000000
00000000
00000000
00000000
00000000
00000000
00000000
00100000
00000000
00000000
00000000
00000000
00000000
00000000
00000000
00000000
00000000
00000000
00000000
00000000
00000000
00022000
00000000
00000000
00000000
00000000
00000000
00000000
00000000
00000000
00000000
00000000
00000000
00033000
00000000
00000000
00000000
00010000
00000000
00000000
00000000
00000000
00000000
00000000
00000000
00000000
00000000
00000000
00000000
00000000
00000000
00000000
00000000
00000000
00000000
00000000
00000000
00000000
00000000
00000000
00000000
,
00000000
00000000
00000000
00000000
00000000
00000010
00000000
00000000
00000000
00001000
00000000
00000000
00000010
00000000
00000000
00000000
00010000
00000000
00000000
00000000
00000000
00000200
00000000
00000000
00000000
00000000
00000000
00000300
00020000
00000000
00000000
00000000
00000000
00000000
00000000
00000000
00002000
00000000
00000000
00000000
00000000
00000000
00000000
00000000
00000000
00003000
00000000
00000000
00030100
00000000
00000000
00000000
00000000
00000000
00000000
00000000
00001000
00000000
00000000
00000000
00000000
00000000
00000000
00000000
,
00000010
00000100
00000001
00000100
00000010
00001000
00000100
00010000
,
00001000
01000000
00100000
10000000
00010000
00100000
00002000
00020000
,
00000000
00000000
00033000
00000000
;
