#TITLE:Back to the oldschool;
#SUBTITLE:;
#ARTIST:Blosso;
#TITLETRANSLIT:;
#SUBTITLETRANSLIT:;
#ARTISTTRANSLIT:;
#GENRE:;
#CREDIT:;
#MUSIC:Back to the oldschool.ogg;
#BANNER:;
#BACKGROUND:;
#CDTITLE:;
#SAMPLESTART:43.194;
#SAMPLELENGTH:10.653;
#SELECTABLE:YES;
#OFFSET:-0.527;
#BPMS:0.000=180.000;
#STOPS:;
#BGCHANGES:0.000=Back to the oldschool-bg.png=1.000=0=0=1,
0.000=Back to the oldschool.mp4=1.000=0=0=1,
99999.000=-nosongbg-=1.000=0=0=0=StretchNoLoop====
;
#FGCHANGES:;

//--------------- dance-single - Pandemonium X ----------------
#NOTES:
     dance-single:
     Pandemonium X:
     Beginner:
     5:
     0,0,0,0,0:
0000
0000
0000
0000
,
0000
0000
0000
0000
,
0000
0000
0000
0000
,
0000
0000
0000
0000
,
0000
0000
0000
0000
,
0000
0000
0000
0000
,
0000
0000
0000
0000
,
0000
0000
0000
0000
,
0001
0000
0000
0000
,
0001
0000
0000
0000
,
1000
0000
0000
0000
,
1000
0000
0000
0000
,
0010
0000
0000
0000
,
0010
0000
0000
0000
,
0100
0000
0000
0000
,
0100
0100
0100
0000
,
1001
0000
0000
0000
,
0100
0000
0000
0000
,
0001
0000
0000
0000
,
0010
0000
0000
0000
,
0100
0000
0000
0000
,
1000
0000
0000
0000
,
0010
0000
0000
0000
,
0100
0100
0100
0100
,
1001
0000
0001
0000
,
1000
0000
0010
0000
,
1000
0000
0100
0000
,
1000
0000
0001
0000
,
0100
0000
0001
0000
,
0010
0000
0001
0000
,
1000
0000
0100
0000
,
1000
0000
0000
0000
,
0001
0000
1000
0000
,
0010
0010
0010
0000
,
1000
0000
0001
0000
,
0100
0100
0100
0000
,
0001
0000
0010
0000
,
0001
0001
0001
0000
,
0010
0000
0100
0000
,
1000
0000
0000
0000
,
0001
0000
0000
0000
,
0001
0000
1000
0001
,
1000
0000
0000
0000
,
1000
0000
0001
1000
,
0010
0000
0000
0000
,
0100
0000
0010
0100
,
0010
0000
0000
0000
,
0100
0000
0010
0000
,
2000
0000
0000
0000
,
0000
0000
3001
1000
,
0020
0000
0000
0000
,
0000
0000
1030
0001
,
0020
0000
0000
0000
,
0000
0000
0130
0010
,
0002
0000
1003
0000
,
0010
0010
0010
0010
,
1001
0000
0000
0000
,
0000
0000
0000
0000
,
0000
0000
0000
0000
,
0000
0000
0000
0000
,
0110
0000
0000
0000
,
0000
0000
0000
0000
,
1001
0000
0000
0000
,
0001
0001
0001
0000
,
1000
0000
0001
0000
,
1000
1000
1000
0000
,
0001
0000
1000
0000
,
0001
0001
0001
0000
,
0100
0000
0010
0000
,
0100
0100
0100
0000
,
0010
0000
0100
0000
,
1001
0000
0000
0000
,
0001
0000
0001
0000
,
1000
0000
1000
0000
,
0010
0000
0010
0000
,
0100
0000
0100
0100
,
0010
0000
1000
0000
,
0001
0000
0010
0000
,
0100
0000
1000
0000
,
0001
0001
0001
0000
,
2000
0000
0000
0000
,
0000
0000
0000
3000
,
0110
0000
0010
0000
,
0100
0000
0001
0001
,
0001
0000
1000
0000
,
0100
0000
1000
1000
,
1000
0000
0001
0000
,
0100
0100
0010
0010
,
1001
0000
0000
0000
;

//--------------- dance-single - Pandemonium X ----------------
#NOTES:
     dance-single:
     Pandemonium X:
     Easy:
     8:
     0,0,0,0,0:
0000
0000
0000
0000
,
0000
0000
0000
0000
,
0000
0000
0000
0000
,
0000
0000
0000
0000
,
0000
0000
0000
0000
,
0000
0000
0000
0000
,
0000
0000
0000
0000
,
0000
0000
0000
0000
,
0001
0000
0001
0000
,
0001
0000
1000
0001
,
1000
0000
1000
0000
,
1000
0000
0001
1000
,
0010
0000
0010
0000
,
0010
0000
0100
0010
,
0100
0000
0100
0000
,
0100
0000
0100
0010
,
1001
0000
0001
0000
,
1001
0000
1000
0000
,
1001
0000
0001
0000
,
1001
0000
1000
0000
,
0110
0000
0001
0000
,
0110
0000
1000
0000
,
1001
0000
0001
0000
,
0110
0100
0100
0000
,
1001
0000
0001
1000
,
0010
0000
1000
0100
,
0010
0000
0100
1000
,
0010
0000
0100
0001
,
0010
0000
0100
0010
,
0001
0000
0010
0001
,
1000
0000
0001
0100
,
0010
0100
0001
0000
,
0001
1000
0100
0001
,
0000
0100
1000
0010
,
1000
0001
0010
1000
,
0000
0010
0100
1000
,
0100
0100
1000
0010
,
0001
0010
0100
0100
,
0010
1000
0001
0001
,
1001
0000
0110
0000
,
0001
0100
0010
1000
,
0001
0100
0110
1001
,
1000
0100
0010
0001
,
1000
0100
0110
1001
,
1000
0010
0100
0001
,
1000
0010
0110
1001
,
0001
0010
0100
1000
,
0001
0010
0110
1001
,
0001
0100
0010
0100
,
0001
0010
0011
1100
,
0100
1000
0010
1000
,
0100
1000
1010
0101
,
0001
1000
0010
1000
,
0001
0010
0011
1100
,
0001
1000
0100
1000
,
0010
0100
0001
1000
,
1001
0000
0000
0000
,
0000
0000
0000
0000
,
0000
0000
0000
0000
,
0000
0000
0000
0000
,
0001
0000
0000
0000
,
1000
0000
0000
0000
,
0100
0000
0000
0000
,
0010
0010
0010
0000
,
0100
0000
1000
0000
,
0010
0000
0100
0000
,
0001
0000
1000
0000
,
0001
0000
0100
0000
,
0010
0010
0010
0000
,
0100
0100
0100
0000
,
0001
1000
0001
1000
,
1001
0110
2002
3003
,
0001
1000
0001
1000
,
0010
0100
0010
0100
,
0001
0100
0001
0100
,
0010
1000
0010
1000
,
0001
1000
0001
1000
,
0001
0010
0001
0010
,
0100
1000
0100
1000
,
0100
0100
0100
0000
,
2002
0000
0000
0000
,
0000
0000
0000
3003
,
0110
1000
0001
0010
,
0100
1000
0010
0100
,
0001
0100
0010
1000
,
0001
0010
0100
0010
,
0001
0100
0010
1000
,
1001
0010
1001
0110
,
1001
0000
0000
0000
;

//--------------- dance-single - Pandemonium X ----------------
#NOTES:
     dance-single:
     Pandemonium X:
     Medium:
     11:
     0,0,0,0,0:
0000
0000
0000
0000
,
0000
0000
0000
0000
,
0000
0000
0000
0000
,
0000
0000
0000
0000
,
0000
0000
0000
0000
,
0000
0000
0000
0000
,
0000
0000
0000
0000
,
0000
0000
0000
0000
,
1000
0001
0010
0001
,
1000
0010
1010
0101
,
0001
0100
0001
1000
,
0100
1000
1100
0011
,
1001
0001
0100
0010
,
0001
0010
0110
0101
,
0110
1000
0010
0100
,
1000
0100
0010
1000
,
1001
0000
0010
0000
,
1001
0000
0100
0000
,
1001
0000
0010
0000
,
1001
0000
0100
0000
,
1001
0001
1000
0010
,
0110
0100
0010
1000
,
1001
0001
0010
0100
,
1000
0000
0100
0010
0001
0000
0100
0000
,
0101
0001
0100
1000
,
1100
1000
0100
0001
,
1001
0001
0010
1000
,
1010
0000
0010
0000
0001
0100
0010
0000
,
0100
0001
1000
0010
,
1010
0010
0100
0001
,
1100
0100
1000
0010
,
0110
0000
0100
0000
0010
0100
0001
0000
,
1001
0000
0001
0100
0010
0000
1001
0000
,
0000
1000
0100
0010
0001
0000
0011
0000
,
0001
0000
0001
0010
0100
0000
0010
0000
,
0000
0010
0100
1000
0010
0000
0100
0000
,
0110
0010
0110
0100
,
0101
0001
1001
1000
,
1100
0011
1100
0011
,
0001
0001
0001
0000
1000
1000
1000
0000
,
0001
0100
0010
1000
,
0001
0010
0110
1100
,
0100
1000
0010
0100
,
0001
0010
0011
0101
,
0001
1000
0010
1000
,
0100
1000
1010
0110
,
0100
0001
1000
0100
,
0110
0000
1001
0000
1000
0001
1000
0000
,
1001
0000
0001
0000
0010
0001
0100
0000
,
0010
0000
1000
0000
0010
1000
0100
0000
,
0010
0000
0001
0000
0010
0100
1000
0000
,
0100
0000
0001
0000
0100
0010
0001
0000
,
0100
0000
1000
0000
0100
0010
1000
0000
,
0010
0000
0001
0000
0010
0100
0001
0000
,
1000
0001
0010
0100
,
1000
0000
0100
1000
0010
0000
0100
0000
,
1001
0000
0000
0000
,
0000
0000
0000
0000
,
0000
0000
0000
0000
,
0000
0000
0000
0000
0000
0000
0000
0001
,
0001
1000
0000
0001
,
0000
0000
0100
0000
0000
0000
0010
1000
,
0100
0010
0000
0010
,
0100
0100
0100
0100
,
1001
0000
0001
0100
0001
0000
1000
0000
,
0000
0001
0010
0001
0010
0000
0001
0000
,
1000
0000
0010
1000
0010
0000
1000
0000
,
0000
0100
1000
0100
1000
0000
0100
0000
,
1100
0000
0100
0010
0001
0000
0011
0000
,
0000
0001
0010
0100
1000
0000
1001
0000
,
0101
0000
0001
0100
0010
0000
1000
0000
,
0001
0001
1000
1000
0001
0000
0110
0000
,
1000
0001
0010
0100
,
0010
0000
0001
0000
0100
0000
0010
0100
,
0001
0100
0010
1000
,
0001
0000
0010
0000
0100
0010
0100
1000
,
0001
0100
0001
1000
,
0100
0000
0010
0000
0100
0000
0010
0001
,
0100
0010
1000
0001
,
0110
0000
1001
0000
1000
0001
0110
0000
,
1000
1000
1000
1000
,
1000
1000
1010
0101
,
1001
0001
0010
0001
,
0100
0010
1010
0101
,
0001
0010
0100
0010
,
0001
0100
1010
0101
,
0001
1000
0100
0010
,
0011
0000
0001
0010
0100
0000
1100
0000
,
1001
0000
0000
0000
;

//--------------- dance-single - Pandemonium X ----------------
#NOTES:
     dance-single:
     Pandemonium X:
     Hard:
     15:
     0,0,0,0,0:
0000
0000
0000
0000
,
0000
0000
0000
0000
,
0000
0000
0000
0000
,
0000
0000
0000
0000
,
0000
0000
0000
0000
,
0000
0000
0000
0000
,
0000
0000
0000
0000
,
0000
0000
0000
0000
,
0001
0100
0001
0010
0001
0100
0001
0010
,
0001
0100
0001
0010
0001
0000
0001
0000
,
1000
0010
0100
0010
1000
0010
0100
0010
,
1000
0010
0100
0010
1000
0000
1000
0000
,
0001
1000
0001
0010
0001
1000
0010
1000
,
0001
0010
0001
1000
0001
0000
0001
0000
,
1000
0001
0100
0001
1000
0100
1000
0001
,
0100
0000
0000
0000
0100
0000
0000
0000
0100
0000
0100
0000
0100
0010
0100
0000
,
1001
0000
0001
1000
,
1010
0000
1000
0001
,
0011
0000
0001
1000
,
1010
0000
1000
0001
,
0101
0001
1000
0001
,
0101
0001
0100
0010
,
1001
1000
0100
0010
0001
0010
0100
1000
,
0010
0000
0001
0010
1000
0000
0001
0000
,
1001
0000
0000
0000
0000
0000
1000
0000
1000
0000
0001
0010
0000
0001
0100
0000
,
0020
0000
0000
0000
0030
0000
0100
0000
0100
0000
0010
1000
0000
0100
0010
0000
,
0200
0000
0000
0000
0300
0000
0010
0000
0010
0000
0100
1000
0000
0001
0100
0000
,
0020
0000
0000
0000
0030
0000
0100
0000
0100
0000
0001
1000
0000
0001
0010
0000
,
0002
0000
0000
0000
0003
0000
1000
0000
1000
0000
0001
0010
0000
0100
0010
0000
,
0200
0000
0000
0000
0300
0000
0010
0000
0010
0000
0100
0010
0000
0010
0001
0000
,
2000
0000
0000
0000
3000
0000
0100
0000
0100
0000
0010
0001
0000
1000
0100
0000
,
1100
0000
0000
0000
1001
0000
0000
0000
0001
0100
0001
0100
0000
0000
0000
0000
,
1001
0000
1000
0010
0100
0000
1001
0000
,
0000
1000
0100
0010
0100
0000
1001
0000
,
0110
0000
0001
0010
0100
0000
1000
0000
,
0000
0010
0100
0010
0001
0000
1001
0000
,
0101
0000
1000
0001
0011
0000
1100
0000
,
0001
0010
0100
1000
1001
0000
0110
0000
,
1010
0000
0100
0001
0101
0000
0011
0000
,
1000
0010
1000
0010
0100
0000
0000
0000
0002
0000
0000
0000
0000
0000
0000
0000
,
1003
1000
0001
0010
0010
0100
1000
1000
,
0001
0100
0100
0010
0110
0000
1001
0000
,
0001
0001
1000
0100
0100
0010
0001
0001
,
0100
0000
0010
0000
0010
0000
0100
0000
0001
1000
0001
1000
0001
0000
1000
0000
,
0001
0001
0010
0100
0100
1000
0010
0010
,
0100
0001
0001
0100
0110
0000
1010
0000
,
1000
1000
0001
0010
0010
0100
0010
0010
,
0011
0000
0001
0000
0101
0000
0100
0000
0010
1000
0010
1000
0000
0000
0000
0000
,
0001
0000
1000
0000
0010
0000
1000
0001
1000
0000
0100
0000
0010
0000
0100
0000
,
1000
0000
0010
0000
0100
0000
0001
0010
0001
0000
0010
0000
0100
0000
0010
0000
,
0001
0000
1000
0000
0010
0000
0100
0001
0100
0000
0001
0000
0010
0000
0001
0000
,
1000
0000
0010
0000
0100
0000
0010
1000
0010
0100
0010
0100
0010
0000
0010
0000
,
1000
0000
0100
0000
1000
0000
0001
0010
0001
0000
1000
0000
0001
0000
0100
0000
,
0010
0000
1000
0000
0001
0000
1000
0100
1000
0000
0100
0000
0010
0000
0001
0000
,
1000
1000
0100
0100
0010
0010
0001
0001
,
0100
0000
1000
0100
0001
0000
1001
0000
,
0110
0000
0000
0000
,
0000
0000
0000
0000
,
0000
0000
0000
0000
,
0000
0000
0000
0000
0000
0000
0000
1000
,
1001
0001
0100
1000
,
0100
0000
0000
0000
0001
0000
0000
0000
0010
0000
0000
0000
0100
0010
0100
0010
,
0001
0000
0100
0000
0010
0000
1000
0001
,
1001
0000
0000
0000
0110
0000
0000
0000
1001
0000
1000
0000
0001
0010
0001
0010
,
0001
0000
0001
0100
0100
0000
1001
0000
,
0000
1000
0100
0100
0010
0000
0011
0000
,
1001
0000
0001
0010
0010
0000
1001
0000
,
0000
1000
0001
0001
0100
0000
1001
0000
,
1100
0000
0001
0010
0011
0000
0101
0000
,
0000
0001
0010
0100
1100
0000
1001
0000
,
0001
0001
0100
0100
0010
0010
1000
1000
,
0001
0000
0002
0000
2000
0003
3200
0000
0310
0000
0000
0000
1001
0000
0000
0000
,
0001
0000
0100
0001
0000
0001
0010
0000
0100
0000
1000
0000
0001
0010
0100
0010
,
0100
0000
0010
0100
0000
0100
0010
0000
0100
0000
1000
0000
0001
1000
0001
1000
,
0001
0000
0010
0001
0000
0001
1000
0000
0100
0000
1000
0000
0010
0100
0010
0100
,
0010
0000
0100
0010
0000
0010
1000
0000
0001
0000
1000
0000
0010
0100
0010
0100
,
0010
0000
0100
0001
0000
0001
1000
0000
0001
0000
0010
0000
0100
1000
0100
1000
,
0100
0000
0010
0100
0000
0100
1000
0000
0001
0000
1000
0000
0010
0100
0010
0100
,
0010
0000
0100
0010
0000
0010
1000
0000
0100
0000
0010
0000
0001
1000
0001
1000
,
0001
0000
0010
0100
0000
0100
1000
0000
0001
1000
0010
0000
0101
0000
0000
0000
,
0001
0100
1000
0100
0001
0010
1000
0010
,
0001
0100
1000
0100
0010
0000
0100
0002
,
1003
0001
0100
0000
0001
0000
1000
0010
0100
0000
0001
0000
0010
0100
1000
0000
,
0100
0000
1000
0010
0100
0000
0010
0000
1000
0000
0010
1000
0000
0001
0010
0000
,
0100
0010
0001
0000
0010
0000
0001
1000
0010
0000
0100
0000
0010
1000
0100
0000
,
0010
0000
0100
1000
0001
0000
0100
0000
0110
0000
0000
0000
1001
0000
0000
0000
,
0001
0000
0100
0001
0000
0010
0100
0000
1000
0000
0100
0000
1000
0010
1000
0010
,
0100
0000
0100
0000
0010
0000
0010
0000
1000
0001
1000
0000
0001
0000
0000
0000
,
0110
0000
0000
0000
;

//--------------- dance-double - Pandemonium X ----------------
#NOTES:
     dance-double:
     Pandemonium X:
     Easy:
     7:
     0,0,0,0,0:
00000000
00000000
00000000
00000000
,
00000000
00000000
00000000
00000000
,
00000000
00000000
00000000
00000000
,
00000000
00000000
00000000
00000000
,
00000000
00000000
00000000
00000000
,
00000000
00000000
00000000
00000000
,
00000000
00000000
00000000
00000000
,
00000000
00000000
00000000
00000000
,
00010000
00000000
00000100
00000000
,
00001000
00000000
00000010
00000100
,
00000001
00000000
00000010
00000000
,
00000100
00000000
00010000
00001000
,
00011000
00000000
00001000
00000000
,
01000000
00000000
00100000
01000000
,
01010000
00000000
00010000
00000000
,
10010000
10010000
01100000
01100000
,
10000000
00000000
00010000
00000000
,
00100000
00000000
00001000
00000000
,
00010000
00000000
00000100
00000000
,
00001000
00000000
00000010
00000000
,
00000100
00000100
00000010
00001000
,
00000001
00000001
00000010
00000100
,
00001000
00001000
00000100
00000100
,
00022000
00000000
00030000
00003000
,
00200000
00300000
00010000
01000000
,
00020000
00030000
01000000
00100000
,
20000000
30000000
01000000
10000000
,
00020000
00030000
00100000
00001000
,
00020000
00030000
00000100
00001000
,
00000020
00000030
00000100
00000001
,
00002000
00003000
00000100
00000010
,
00000002
00000013
00000100
00001100
,
00010000
00001000
00010000
00010000
,
00000000
00001000
00010000
00010000
,
00011000
00010000
00001000
00001000
,
00000000
00010000
00001000
00001000
,
00011000
00010000
00001000
00010000
,
00011000
00001000
00010000
00001000
,
00011000
00001000
00011000
00010000
,
00000000
00000000
00000000
00000000
,
00001000
01000000
00001000
01000000
,
00001000
01000000
00100000
01100000
,
00100000
10000000
00100000
10000000
,
00100000
10000000
00010000
10010000
,
00010000
00100000
00010000
00100000
,
00010000
00100000
00001000
00011000
,
00010000
00000100
00010000
00000100
,
00010100
00010100
00001100
00000000
,
00001000
00000010
00000100
00000001
,
00000010
00000100
00001000
00000001
,
00001001
00000001
00000100
00000010
,
00010000
00001000
00010000
00000100
,
00010100
00000100
00010000
00001000
,
01000000
00100000
10000000
01000000
,
00110000
00010000
00100000
01000000
,
10000000
01000000
00010000
01000000
,
11000000
00000000
00000000
00000000
,
00000000
00000000
00000000
00000000
,
00000000
00000000
00000000
00000000
,
00000000
00000000
00000000
00000000
,
00010000
00100000
00000000
00001000
,
00000000
00010000
00000000
00000100
,
00001000
00000010
00000000
00000100
,
00000001
00000001
00000001
00000001
,
00001000
00000000
00000100
00000000
,
00010000
00010000
00010000
00000000
,
00001000
00000000
01000000
00000000
,
00100000
00100000
00100000
00000000
,
01000000
00010000
01000000
00010000
,
00000000
00100000
00001000
00100000
,
00001000
00010000
00001000
00010000
,
00000100
00002000
00003010
00000010
,
00001001
00000001
00000001
00000001
,
00001000
00001000
00001000
00001000
,
00000100
00000100
00000100
00000100
,
00010000
00010000
00010000
00010000
,
00001000
00001000
00001000
00001000
,
01000000
01000000
01000000
01000000
,
00100000
00100000
00100000
00100000
,
10000000
10000000
10000000
00000000
,
02000000
00000000
00000000
00000000
,
00000000
00000000
00000000
03100000
,
10010000
00010000
00100000
00001000
,
00010000
00000010
00000100
00000001
,
00000010
00000100
00001000
00000100
,
00010000
00001000
01000000
00100000
,
10000000
01000000
00010000
01000000
,
00100000
00001000
00010000
00000100
,
00011000
00000000
00000000
00000000
;

//--------------- dance-double - Pandemonium X ----------------
#NOTES:
     dance-double:
     Pandemonium X:
     Medium:
     12:
     0,0,0,0,0:
00000000
00000000
00000000
00000000
,
00000000
00000000
00000000
00000000
,
00000000
00000000
00000000
00000000
,
00000000
00000000
00000000
00000000
,
00000000
00000000
00000000
00000000
,
00000000
00000000
00000000
00000000
,
00000000
00000000
00000000
00000000
,
00000000
00000000
00000000
00000000
,
00001000
01000000
00000000
01000000
00100000
00000000
00100000
10000000
,
00000000
10000000
00010000
00000000
00110000
00000000
11000000
00000000
,
10000000
00010000
00000000
00010000
00100000
00000000
00100000
00001000
,
00000000
00001000
00010000
00000000
00011000
00000000
00001100
00000000
,
00001010
00000010
00000000
00000100
00000010
00000000
00000010
00001000
,
00000000
00001000
00000001
00000000
00000011
00000000
00001100
00000000
,
00000100
00010000
00000000
00010000
00001000
00000000
00001000
01000000
,
00100000
00000000
00100000
00000000
00100000
00000000
00100000
01000000
,
10010000
00000000
10000000
01000000
,
00010000
00000000
00001000
00000010
,
00000001
00000000
00000001
00000100
,
00001000
00000000
00010000
00100000
,
10000000
00000000
10010000
00110000
,
00101000
00000000
00011000
00010100
,
00001100
00000000
00001001
00001010
,
00000010
00000000
00000010
00000100
00000001
00000000
00001000
00000000
,
00010200
00010300
00001000
01000000
,
02010000
03100000
01000000
00010000
,
00102000
00013000
00100000
00001000
,
00020100
00000000
00000000
00000000
00031000
00000000
00000000
00000000
00010000
00000000
00000000
00000010
00000000
00000000
00000100
00000000
,
00000002
00000013
00000100
00010000
,
00012000
01003000
00100000
10000000
,
21000000
30100000
01000000
00010000
,
00210000
00000000
00301000
00000000
00010000
00001000
00011000
00000000
,
00010000
00000000
00000100
00001000
00000100
00000000
00001000
00000000
,
00000000
00000010
00000100
00000001
00001000
00000000
00000100
00000000
,
00010000
00000000
00001000
01000000
00001000
00000000
01000000
00000000
,
00000000
00100000
01000000
00010000
10000000
00000000
00010000
00000000
,
11000000
11000000
00110000
00110000
,
00101000
00101000
00011000
00011000
,
00001100
00001100
00000011
00000011
,
00000001
00000100
00001000
00000000
00001000
00000100
00000001
00000000
,
00001000
00000010
00010000
00001000
,
01000000
00100000
10010000
01100000
,
10000000
00010000
00100000
00001000
,
00010000
00000100
00001100
00000011
,
00000001
00000100
00000010
00000100
,
00000001
00001000
00001100
00011000
,
00001000
00001000
01000000
01000000
,
01100000
00000000
10010000
00000000
00100000
01000000
10010000
00000000
,
10000000
01000000
00010000
01000000
,
10000000
01000000
01100000
00110000
,
00100000
00001000
00010000
00000010
,
00001000
00000010
00000110
00000101
,
00000001
00000100
00001000
00000100
,
00000001
00000010
00000110
00001100
,
00000100
00010000
00001000
01000000
,
01100000
00000000
01000000
00001000
00010000
00000000
00001000
00000000
,
00011000
00000000
00000000
00000000
,
00000000
00000000
00000000
00000000
,
00000000
00000000
00000000
00000000
,
00000000
00000000
00000000
00000000
00000000
00000000
00000000
00010000
,
00001000
00010000
00000000
00000100
,
00000000
00000000
00001000
00000000
00000000
00000000
00000010
00000100
,
00000001
00000010
00000000
00000100
,
00001100
00001100
00010100
00010100
,
00001000
01000000
00100000
00100000
,
00000000
01000000
00001000
00010000
,
00000100
00001000
00000010
00000010
,
00000000
00000100
00000010
00010000
,
00001000
00001000
01000000
01000000
,
00100000
00100000
10000000
10000000
,
10010000
00110000
00011000
00010100
,
00000100
00001000
00000010
00000010
00000200
00000000
00000302
00000000
,
00000013
00000000
00000010
00000000
00000010
00000000
00000010
00000100
,
00001000
00000000
00001000
00000000
00001000
00000000
00001000
00000100
,
00010000
00000000
00010000
00000000
00010000
00000000
00010000
00001000
,
01000000
00000000
01000000
00000000
01000000
00200000
01300000
00010000
,
10000000
00000000
10000000
00000000
00010000
00000000
00100000
00001000
,
00010000
00000000
00000100
00000000
00001000
00000000
00000010
00000100
,
00000001
00000000
00000010
00000000
00000100
00000000
00010000
00000100
,
00010100
00011000
01001000
00011000
,
00000020
00000000
00000000
00000000
,
00000000
00000000
00000000
00000000
00000000
00000000
00000130
00000010
,
00001001
00000100
00001000
00000100
,
00010000
00001000
01001000
01100000
,
01000000
00010000
00100000
10000000
,
00100000
00001000
00011000
00010100
,
00000100
00001000
00000010
00000001
,
00000110
00000000
00000010
00000100
00001000
00000000
00010000
00000000
,
00011000
00000000
00000000
00000000
;

//--------------- dance-double - Pandemonium X ----------------
#NOTES:
     dance-double:
     Pandemonium X:
     Hard:
     15:
     0,0,0,0,0:
00000000
00000000
00000000
00000000
,
00000000
00000000
00000000
00000000
,
00000000
00000000
00000000
00000000
,
00000000
00000000
00000000
00000000
,
00000000
00000000
00000000
00000000
,
00000000
00000000
00000000
00000000
,
00000000
00000000
00000000
00000000
,
00000000
00000000
00000000
00000000
,
00010000
00000010
00000100
00000010
00010000
00001000
01000000
00001000
,
00010000
00001000
00100000
00001000
00010000
00000010
00010000
00000000
,
00001000
01000000
00100000
01000000
00001000
00010000
00000010
00010000
,
00001000
00010000
00000100
00010000
00001000
00100000
00001000
00000000
,
00110000
00100000
01000000
10000000
00010000
00100000
00001000
00010000
,
00000100
00001000
00000010
00000100
00000001
00000000
00001001
00000000
,
00000001
00000010
00000100
00001000
00000100
00010000
00001000
01000000
,
00100000
00000000
00000000
00000000
00100000
00000000
00000000
00000000
00100000
00000000
00000000
00000000
00100000
00000000
01000000
00001000
,
00020000
00000000
00000000
00000000
00030000
00000000
00000100
00000000
00001000
00000000
00000000
00000010
00000000
00000000
00000100
00000000
,
00001001
00000000
00000000
00000000
00000000
00000000
00000001
00000000
00000010
00000000
00000000
00000100
00000000
00000000
00010000
00000000
,
00011000
00000000
00000000
00000000
00000000
00000000
00001000
00000000
01000000
00000000
00000000
00010000
00000000
00000000
00100000
00000000
,
01100000
00000000
00000000
00000000
00000000
00000000
01000000
00000000
10000000
00000000
00000000
00010000
00000000
00000000
00100000
00000000
,
01100000
00000000
00000000
00000000
00000000
00000000
01000000
00000000
00100000
00000000
00000000
00001000
00000000
00000000
00010000
00000000
,
00011000
00000000
00000000
00000000
00000000
00000000
00010000
00000000
00000100
00000000
00000000
00001000
00000000
00000000
00000001
00000000
,
00001001
00000001
00000100
00000010
00001000
00000100
00010000
00001000
,
01000000
00000000
00000000
00000000
,
00020000
00000000
00000000
00000000
00030000
00000000
01000000
00000000
01000000
00000000
01000000
00010000
00000000
00010000
00100000
00000000
,
00002000
00000000
00000000
00000000
00003000
00000000
00010000
00000000
00010000
00000000
00001000
00010000
00000000
00010000
00000100
00000000
,
00002000
00000000
00000000
00000000
00003000
00000000
00000010
00000000
00000010
00000000
00000100
00000010
00000000
00000010
00001000
00000000
,
00000002
00000000
00000000
00000000
00000003
00000000
00000010
00000000
00000010
00000000
00000100
00001000
00000000
00000100
00010000
00000000
,
00002000
00000000
00000000
00000000
00003000
00000000
01000000
00000000
01000000
00000000
00100000
10000000
00000000
10000000
01000000
00000000
,
00200000
00000000
00000000
00000000
00300000
00000000
01000000
00000000
01000000
00000000
00100000
00010000
00000000
00010000
01000000
00000000
,
00002000
00000000
00000000
00000000
00003000
00000000
00100000
00000000
00100000
00000000
00001000
00010000
00000000
00010000
00000100
00000000
,
00002000
00000000
00000000
00000000
00003010
00000000
00000000
00000000
00000100
00000010
00000100
00000000
00001001
00000000
00000000
00000000
,
00001000
00000000
00000001
00000100
00001000
00000000
00010000
00000000
,
00000000
00001000
01000000
00100000
10000000
00000000
10010000
00000000
,
01100000
00000000
10000000
01000000
00010000
00000000
00001000
00000000
,
00000000
00010000
00001000
00000010
00000001
00000000
00001001
00000000
,
00000110
00000000
00000001
00000100
00001000
00000000
00011000
00000000
,
00000000
01010000
01000000
00100000
10010000
00000000
01100000
00000000
,
10000000
00000000
01000000
00000000
00100000
00000000
00001000
00000000
00010000
00001000
00010000
00001000
00010000
00001000
00010000
00001000
,
00010000
00000000
00000000
00000000
,
00100000
00100000
00001000
00010000
00010000
00000100
00001000
00001000
,
00000010
00000100
00000100
00000010
00001010
00000000
00001100
00000000
,
00000100
00000100
00010000
00001000
00001000
00010000
00001000
00001000
,
01000000
00100000
00100000
10000000
10100000
00000000
11000000
00000000
,
00010000
00010000
10000000
00100000
00100000
01000000
00001000
00001000
,
00010000
00000100
00000100
00001000
00001010
00000000
00000101
00000000
,
00000001
00000001
00000010
00000100
00000100
00010000
00001000
00001000
,
00011000
00000000
00001000
00000000
01001000
00000000
01000000
00000000
00100000
01000000
00010000
00000000
10010000
00000000
00000000
00000000
,
11000000
00000000
00000000
00000000
00110000
00000000
00000000
00100000
00001000
00000000
00000000
00000000
00011000
00000000
00000000
00000000
,
00010100
00000000
00000000
00000000
00001100
00000000
00000000
00000001
00000010
00000000
00000000
00000010
00000100
00000000
00001000
00000000
,
00001100
00000000
00000000
00000000
00001010
00000000
00000000
00000001
00000100
00000000
00000000
00000000
00000011
00000000
00000000
00000010
,
00000100
00000000
00000000
00000000
00001100
00000000
00000000
00000100
00010000
00001000
00010000
00000000
00001000
00000000
01000000
00000000
,
01010000
00000000
00000000
00000000
00110000
00000000
00000000
00100000
01000000
00000000
00000000
00000000
10010000
00000000
00000000
10000000
,
00100000
00000000
00000000
00000000
01010000
00000000
00000000
00010000
00100000
00000000
00001000
00000000
00011000
00000000
00000000
00000000
,
00010000
00010000
00000010
00000010
00000100
00000100
00000001
00000001
,
00000101
00000000
00000001
00000100
00001000
00000000
00010000
00000000
,
00011000
00000000
00000000
00000000
,
00000000
00000000
00000000
00000000
,
00000000
00000000
00000000
00000000
,
00000000
00000000
00000000
00000000
00000000
00000000
00000000
00001000
,
00011000
00010000
00001000
01000000
,
00100000
00000000
10000000
00000000
01000000
00000000
00100000
00001000
,
00011000
00010000
00000100
00001000
,
00001100
00000000
00000000
00000000
00001100
00000000
00000000
00000000
00010000
00000000
00001000
00000000
01000000
00010000
01000000
00010000
,
10000000
00000000
01000000
00100000
00010000
00000000
00011000
00000000
,
00000000
00010000
00001000
00000010
00000001
00000000
00001001
00000000
,
00000110
00000000
00000001
00000100
00001000
00000000
00011000
00000000
,
00000000
00001000
01000000
00100000
10000000
00000000
10010000
00000000
,
00101000
00101000
00011000
00011000
,
00010100
00010100
00001100
00001100
,
00001000
00000010
00000100
00000001
00000010
00000100
00010000
00001000
,
01000000
00000000
01000000
00000000
00001000
00010000
00000100
00010000
00001000
00000000
00000000
00000000
00011000
00000000
00000000
00000000
,
00001000
00000000
01000000
00100000
00000000
00100000
10000000
00000000
00010000
00000000
00100000
00000000
01000000
10000000
01000000
10000000
,
01000000
00000000
10000000
00010000
00000000
00010000
00100000
00000000
00001000
00000000
00010000
00000000
00000100
00001000
00000100
00001000
,
00000100
00000000
00001000
00000010
00000000
00000010
00000100
00000000
00000010
00000000
00001000
00000000
00000001
00000010
00000001
00000010
,
00000001
00000000
00001000
00000001
00000000
00000001
00000100
00000000
00000010
00000000
00020000
00000000
00031000
00100000
00010000
00100000
,
00001000
00000000
00010000
00000100
00000000
00000100
00001000
00000000
00000010
00000000
00000100
00000000
00000001
00000010
00000001
00000010
,
00000001
00000000
00001000
00000100
00000000
00000100
00010000
00000000
00001000
00000000
01000000
00000000
00100000
10000000
00100000
10000000
,
00100000
00000000
01000000
00010000
00000000
00010000
00100000
00000000
01000000
00000000
10000000
00000000
00010000
01000000
00010000
01000000
,
00010000
00000000
00010000
00000000
00100000
00000000
00100000
00000000
00001000
00010000
00000010
00000000
00010010
00000000
00000000
00000000
,
00002000
00000000
00000000
00000000
,
00000000
00000000
00000000
00000000
00000000
00000000
00000000
00000000
00000000
00000000
00000000
00000000
00000000
00000000
00013000
00000100
,
00001000
00000010
00000001
00000010
00000100
00001000
00000010
00010000
,
00001000
00000000
01000000
00000000
00010000
00000000
01000000
00000000
10010000
00000000
00010000
01000000
00000000
00010000
10000000
00000000
,
10000000
01000000
00010000
01000000
10000000
00100000
00010000
00100000
,
10000000
00100000
01000000
00001000
00010000
00000000
00011000
00000000
,
00010000
00010000
00001000
00001000
00010000
00010000
00001000
00001000
,
00011000
00000000
00000010
00010000
00001000
00000000
00101000
00000000
,
00011000
00000000
00000000
00000000
;
