#TITLE:BLOCKS;
#SUBTITLE:;
#ARTIST:SPARKER;
#TITLETRANSLIT:;
#SUBTITLETRANSLIT:;
#ARTISTTRANSLIT:;
#GENRE:;
#CREDIT:;
#MUSIC:BLOCKS.ogg;
#BANNER:BLOCKS.png;
#BACKGROUND:BLOCKS-bg.png;
#CDTITLE:;
#SAMPLESTART:56.607;
#SAMPLELENGTH:13.626;
#SELECTABLE:YES;
#OFFSET:1.266;
#BPMS:0.000=141.000;
#STOPS:132.000=1.277;
#ORIGIN:;
#TAGS:;
#PREVIEWVID:;
#JACKET:BLOCKS-jacket.png;
#CDIMAGE:;
#DISCIMAGE:;
#BGCHANGES:;
#FGCHANGES:;

//--------------- dance-single - Pandemonium X ----------------
#NOTES:
     dance-single:
     Pandemonium X:
     Beginner:
     2:
     0.093823,0.192984,0.029407,0,0,67,64,3,0,0,0,0,0,0,0.093823,0.192984,0.029407,0,0,67,64,3,0,0,0,0,0,0:
0000
0000
0000
0000
,
0000
0000
0000
0000
,
0000
0000
0000
0000
,
0000
0000
0000
0000
,
0000
0000
0000
0000
,
0001
0000
0000
0000
,
1000
0000
0000
0000
,
0010
0000
0100
0000
,
0000
0001
0000
0000
,
1000
0000
0000
0000
,
0010
0000
0000
0000
,
0100
0000
0000
0000
,
0001
0000
0000
0000
,
0010
0000
0000
0000
,
0100
0000
0000
0000
,
1000
0000
0000
0000
,
0010
0000
0100
0000
,
0001
0000
0000
0000
,
1000
0000
0000
0000
,
0010
0000
0000
0000
,
1000
0000
0000
0000
,
0100
0000
0000
0000
,
0010
0000
0000
0000
,
0001
0000
0000
0000
,
0100
0000
0010
0000
,
1000
0000
0000
0000
,
0100
0000
0000
0000
,
1000
0000
0000
0000
,
0001
0000
0000
0000
,
0100
0000
0000
0000
,
0010
0000
0000
0000
,
0100
0000
0010
0000
,
1000
0001
0100
0010
,
0000
1001
0000
0000
,
0000
0100
0000
0000
,
0000
1000
0000
0000
,
0000
0010
0000
0000
,
0000
0100
0000
0000
,
0000
0001
0000
0000
,
0000
0010
0000
0000
,
0000
0100
0000
1000
,
0000
0001
0000
0000
,
0000
0100
0000
0000
,
0000
0010
0000
0000
,
0000
1000
0000
0000
,
0000
1000
0000
0000
,
0000
0001
0000
0000
,
0000
0100
0000
0000
,
0000
0010
0000
0100
,
0000
1001
0000
0000
,
0000
0001
0000
1000
,
0000
0001
0000
0000
,
0000
1000
0000
0001
,
0000
0100
0000
0000
,
0000
0010
0000
0000
,
0000
1000
0000
0001
,
0000
0110
0000
0000
;

//--------------- dance-single - Pandemonium X ----------------
#NOTES:
     dance-single:
     Pandemonium X:
     Easy:
     6:
     0.28707,0.385969,0.294072,0.264664,0,205,175,30,27,0,0,0,0,0,0.28707,0.385969,0.294072,0.264664,0,205,175,30,27,0,0,0,0,0:
0000
0000
0000
0000
,
0000
0000
0000
0000
,
0000
0000
0000
0000
,
0000
0000
0000
0000
,
0000
0000
0000
0000
,
0001
0000
1000
0000
,
0001
0000
0010
0000
,
1001
0000
0110
0000
,
0000
0001
1000
0000
0001
0000
0001
0000
,
1000
0100
1000
0010
,
0100
0001
0100
0010
,
1000
0001
1000
0010
,
1000
0100
1000
0010
,
0100
0001
0100
0010
,
1000
0001
1000
0010
,
1000
0100
1000
0010
,
0000
0100
0100
0000
0010
0000
1000
0000
,
0001
1000
0010
0001
,
0010
0100
0001
1000
,
0001
0100
1000
0100
,
0010
0000
1000
0000
0001
0010
0010
0000
,
0100
0010
0001
0100
,
0001
0010
1000
0010
,
0100
1000
0100
0010
,
0000
0001
0001
0000
1000
0000
0010
0000
,
0200
0000
0000
0000
,
0320
0000
0000
0000
,
2030
0000
0000
0000
,
3002
0000
0000
0000
,
2003
0000
0000
0000
,
3020
0000
0200
0330
,
1001
0010
1001
0100
,
1001
0000
0010
0100
0000
0110
0000
1001
,
0000
0101
0001
0100
,
0010
1001
1000
0100
,
0010
1100
1000
0001
,
0010
1001
0001
0100
,
0010
0101
0001
0100
,
0010
1001
1000
0001
,
0010
1100
1000
0010
,
0100
0102
0013
0002
,
1003
1100
0100
0001
,
0100
1100
1000
0010
,
0001
0011
0020
0230
,
0302
2003
3200
0320
,
0031
1001
0001
1000
,
0010
1001
1000
0001
,
0100
0101
0001
0100
,
0010
1001
0100
1001
,
0110
1001
0000
0000
,
0000
0011
0000
1100
,
0000
1010
0000
0100
,
0000
0101
0000
1001
,
0000
0002
0023
0230
,
2300
3200
2300
3020
,
0230
0302
0023
0230
,
2300
3001
0000
0000
;

//--------------- dance-single - Pandemonium X ----------------
#NOTES:
     dance-single:
     Pandemonium X:
     Medium:
     11:
     0.497121,0.542439,0.480317,0.176443,0.117629,355,306,49,18,0,0,0,0,0,0.497121,0.542439,0.480317,0.176443,0.117629,355,306,49,18,0,0,0,0,0:
0000
0000
0000
0000
,
0000
0000
0000
0000
,
0000
0000
0000
0000
,
0000
0000
0000
0000
,
0000
0000
0000
0000
0000
0110
0110
0000
,
1001
1000
0001
0010
,
1100
1000
0010
0100
,
0101
0001
0011
1000
,
0101
1001
1001
0000
1000
0001
0010
0100
,
1000
0000
0000
0001
0000
0000
0010
0000
0001
0000
0000
0100
0000
0000
0010
0000
,
1000
0000
0000
0100
0000
0000
0010
0000
0100
0000
1000
0000
0001
0000
0001
0000
,
0100
0000
0000
0001
0000
0000
0010
0000
0001
0000
0000
1000
0000
0000
0010
0000
,
1000
0000
0000
0001
0000
0000
0010
0000
0100
0000
0010
0000
0100
0000
0100
0000
,
1000
0000
0000
0001
0000
0000
0100
0000
0010
0000
0000
1000
0000
0000
0010
0000
,
0100
0000
0000
0001
0000
0000
1000
0000
0100
0000
0010
0000
0100
0000
0100
0000
,
1000
0000
0000
0100
0000
0000
1000
0000
0010
0000
0000
0100
0000
0000
0001
0000
,
0000
1001
1001
0000
1000
0000
0001
0000
,
0100
0001
0010
0001
0100
0000
1010
0000
,
1000
0010
0100
0010
1000
0000
1001
0000
,
0001
0010
0100
0010
0001
0000
0011
0000
,
1000
0100
0010
0100
1000
1100
1100
0000
,
1000
0010
0001
0010
0100
0001
1001
0000
,
0001
0010
1000
0010
0100
1000
1100
0000
,
1000
0100
0001
0100
0010
0001
0100
0000
,
1000
1100
1100
0000
0110
0000
0101
0000
,
2001
0000
0001
0001
0000
3010
0000
0100
,
0002
0000
0010
0010
0000
1003
0000
0100
,
0020
0000
0001
0001
0000
0130
0000
0010
,
0002
0000
0100
0100
0000
1003
0000
0100
,
2000
0000
0010
0010
0000
0001
0000
0100
,
0000
0010
0000
0001
0000
3100
0010
0001
,
1001
0010
1001
0100
,
1001
0000
1010
0101
0000
0011
0000
1001
,
0000
0000
1001
0000
0001
0100
0001
0010
,
1000
0010
0011
0000
0001
0100
1000
0100
,
0010
1000
1001
0000
0001
1000
0001
0100
,
1000
0100
0110
0000
0100
1000
0100
0001
,
0010
0100
1100
0000
1000
0100
1000
0010
,
0100
0001
1001
0000
1000
0001
0010
1000
,
0010
0100
1100
0000
0100
0001
0100
0010
,
0001
0100
0210
0000
0320
0000
0230
0000
,
0302
0000
0000
0000
0013
0000
0100
0000
0100
0000
0000
1000
0000
0000
0001
0000
,
0100
0000
0000
0010
0000
0000
1000
0000
0001
0000
0000
0010
0000
0000
0100
0000
,
0010
0001
1001
0000
0002
0000
0203
0000
,
2300
3200
0320
2030
,
3002
0000
0000
0000
1003
0000
0100
0000
0100
0000
0000
1000
0000
0000
0010
0000
,
0100
0000
0001
0000
0011
0000
0010
0000
0010
0000
0000
0100
0000
0000
0010
0000
,
0001
0000
1000
0000
1001
0000
0001
0000
0001
0000
0000
1000
0000
0000
0010
0000
,
0010
0100
0101
0000
0001
0100
1000
0100
,
0010
0000
1000
0000
1001
0000
0000
0001
0000
0000
0001
0000
0000
0000
0000
0000
,
0000
0000
0000
0000
1100
0000
0000
0100
0000
0000
0010
0000
0011
0000
0000
0001
,
0000
0000
0100
0000
0110
0000
0000
0010
0000
0000
1000
0000
0001
0000
0000
0010
,
0000
0000
0100
0000
1100
0000
0000
0100
0000
0000
0010
0000
0011
0000
0000
0001
,
0000
0100
0010
0100
0001
0100
0010
0100
,
0010
0000
0010
1000
0010
0100
0010
1000
,
0100
0000
1000
0100
0010
0001
0010
0100
,
1000
0010
2002
0000
0000
0000
0000
0000
,
0000
0000
0000
0000
,
0000
3003
0000
0000
;

//--------------- dance-single - Pandemonium X ----------------
#NOTES:
     dance-single:
     Pandemonium X:
     Hard:
     15:
     0.718375,0.882215,0.323479,0.068617,0.808697,513,480,33,7,0,0,0,0,0,0.718375,0.882215,0.323479,0.068617,0.808697,513,480,33,7,0,0,0,0,0:
0000
0000
0000
0000
,
0000
0000
0000
0000
,
0000
0000
0000
0000
,
0000
0000
0000
0000
,
0000
0000
0000
0000
0000
1001
1001
0000
,
0101
0000
0000
0100
0000
0001
0000
0100
0001
0000
0000
0001
0000
1000
0000
0000
,
1010
0000
0000
0010
0000
1000
0000
0010
1000
0000
0000
1000
0000
0001
0000
0000
,
1001
0000
0000
1000
0000
0001
0000
1000
0001
0000
0000
1000
0000
0001
0000
0000
,
0000
0000
1001
0000
1001
0000
0000
0000
0001
0000
0010
0000
0100
1000
0100
1000
,
0001
0000
1000
0000
0100
0010
0100
0010
0000
0001
0000
0100
0001
1000
0001
0000
,
1000
0000
0001
0000
0100
0010
0100
0001
0000
1000
0000
0100
0010
0100
1000
0000
,
0001
0000
1000
0000
0100
0010
0100
0010
0000
0100
0000
1000
0010
1000
0100
0000
,
0010
0000
0001
0000
0010
0001
0010
0001
0000
0010
0000
0100
0010
0001
1000
0000
,
0010
0000
0100
0001
0100
0010
0100
0001
0000
0001
0000
0001
1000
0100
0010
0000
,
0100
0000
0100
1000
0010
1000
0100
0010
0000
0010
0000
0010
0100
1000
0001
0000
,
1000
0000
0010
0100
0010
1000
0010
0100
0000
0100
0000
0100
0010
1000
0100
0000
,
0000
0011
1100
0000
1001
0000
0011
0000
,
0001
0000
0100
0001
0010
0001
1000
0100
0000
0100
0000
0100
0010
0001
1000
0000
,
0010
0000
0100
0010
0100
0001
0100
0010
0000
0010
0000
0010
0100
0001
0100
0000
,
0010
0000
0100
0010
1000
0010
0100
0001
0000
0010
0000
0010
0100
1000
0001
0000
,
1000
0000
0001
0100
0001
1000
0001
0100
0000
0100
0000
0100
0010
0100
0001
0000
,
0010
0000
0100
1000
0100
1000
0001
1000
0000
0010
0000
0010
0100
0010
0100
0000
,
0010
0000
0100
0001
0100
0010
1000
0010
0000
0010
0000
0010
0100
0010
1000
0000
,
0001
0000
1000
0010
1000
0001
0010
0100
0000
0100
0000
0100
0010
0100
0010
0000
,
0001
0011
1100
0000
1001
1000
0100
0010
,
0001
0010
0001
0100
0001
1000
0100
1000
,
0001
0010
0001
1000
0100
1000
0001
0100
,
0001
1000
0001
0100
0001
1000
0100
0010
,
0100
1000
0010
0010
0100
0001
1000
0100
,
0001
0100
1000
0100
0001
0010
0100
1000
,
0100
0001
0100
0010
1000
0001
0010
0100
,
1100
0100
0010
0001
0101
0001
0100
0010
,
1010
0000
0010
0000
0110
0000
0101
0000
0001
0000
1001
0000
1000
0100
0010
0001
,
1000
0000
0000
0000
1001
0000
0001
0000
0001
0000
1000
0001
0000
0010
0100
0000
,
0010
0000
0001
0100
0010
0000
0000
0000
1000
0000
0001
0010
0000
0001
1000
0000
,
0100
0010
0100
1000
0001
0000
0000
0000
0001
0000
0100
0001
0000
0001
0010
0000
,
0100
0000
1000
0000
1100
0000
0000
0000
0100
1000
0010
0100
0000
0100
0010
0000
,
0100
0001
0010
0001
1000
0000
0010
0000
0010
0000
0100
0010
0000
0100
0001
0000
,
1000
0000
0100
0000
0011
0000
0000
0000
0100
1000
0100
0010
0000
0100
0010
0000
,
0001
0100
0001
1000
0001
0000
0000
0000
0010
0100
0010
0001
0000
1000
0001
0000
,
0100
0000
0001
0000
1001
0000
0000
0000
1000
0001
0100
0010
0000
0010
0100
0000
,
0001
0000
1000
0000
0011
0000
0001
0000
0001
0000
0001
1000
0000
0000
0100
0000
,
0100
0000
0100
0010
0100
0000
0010
0000
0010
0000
0010
0100
0000
0000
0010
0000
,
0100
1000
0010
0100
0001
0000
0000
0000
2000
0000
0000
0000
3200
0000
0000
0000
,
0302
0203
0320
0032
,
2003
0000
0000
0000
3010
0000
1000
0000
1010
0000
1000
0001
0010
0000
0100
0010
,
0001
0000
1000
0100
1000
0000
0100
0000
1000
0000
0010
0100
0001
0000
1000
0001
,
0010
0001
0100
0001
1000
0000
0000
0000
0100
0000
1000
0001
0100
0000
0010
0100
,
0001
0000
1000
0000
1001
0000
0000
0000
0001
0000
0010
0000
0100
1000
0100
1000
,
0001
0100
0001
0100
0010
0000
0000
0100
0000
0000
0100
0000
0000
0000
0000
0000
,
0000
0000
0000
0000
1010
0000
0000
0010
0000
0000
0010
0000
1001
0000
0000
0001
,
0000
0000
0001
0000
0011
0000
0000
0010
0000
0000
0010
0000
0100
0000
0000
0100
,
0000
0000
0100
0000
1100
0000
0000
0100
0000
0000
0100
0000
0110
0000
0000
0010
,
0000
0010
0001
0010
1000
0010
0001
0100
,
1000
0000
0100
0000
0001
0100
0001
0100
0010
1000
0010
1000
0001
0100
0010
1000
,
0001
0000
1000
0000
0001
0010
0100
1000
0010
0100
0001
1000
0010
0100
0001
1000
,
0010
1000
0100
1000
1001
0000
0000
0000
0000
0000
0000
0000
0000
0000
0000
0000
;

//--------------- dance-double - Pandemonium X ----------------
#NOTES:
     dance-double:
     Pandemonium X:
     Easy:
     6:
     0.281468,0.3584,0.264664,0.196048,0,201,174,27,20,0,0,0,0,0,0.281468,0.3584,0.264664,0.196048,0,201,174,27,20,0,0,0,0,0:
00000000
00000000
00000000
00000000
,
00000000
00000000
00000000
00000000
,
00000000
00000000
00000000
00000000
,
00000000
00000000
00000000
00000000
,
00000000
00000000
00000000
00000000
00000000
00001000
00010000
00000000
,
00000100
00001000
00000010
00000100
,
00000001
00000010
00000100
00001000
,
00001100
00000100
00010100
00010000
,
00000000
00001000
00001000
00000000
00010000
00000000
00001000
00000000
,
01000000
00100000
10000000
01000000
,
10000000
00010000
00100000
00001000
,
00010000
00000100
00001000
00000010
,
00000100
00000000
00000001
00000000
00000010
00000100
00000100
00000000
,
00000010
00000001
00001000
00000100
,
00010000
00001000
01000000
00100000
,
10000000
00010000
00100000
00001000
,
00000000
00010000
00010000
00000000
00000100
00000000
00010000
00000000
,
00001000
01000000
00100000
10000000
,
01000000
00010000
01000000
00010000
,
00100000
00001000
00010000
00000100
,
00001000
00000000
00000010
00000000
00000001
00000010
00000010
00000000
,
00000100
00000001
00001000
00000100
,
00010000
00001000
01000000
00100000
,
10000000
00010000
00100000
00001000
,
00010000
00001000
00001000
00000000
00010000
00000000
00000100
00000000
,
00002000
00000000
00000000
00003000
,
00000020
00000000
00000000
00000030
,
00020000
00000000
00000000
00030000
,
00000200
00000000
00000000
00000300
,
00002000
00000000
00003020
00000000
,
00020030
00000000
00000000
00000000
00032000
00000000
00000000
00003000
,
00011000
00010000
00011000
00001000
,
00011000
00000000
00010000
00001000
00000000
00010000
00000000
00011000
,
00000000
00110000
00100000
00010000
,
01000000
10100000
10000000
00010000
,
00100000
00011000
00001000
00010000
,
00000100
00000011
00000001
00000100
,
00000010
00001001
00000001
00001000
,
00000100
00011000
00001000
01000000
,
00100000
10010000
10000000
01000000
,
00100000
00022000
00000000
00000000
,
00033000
00010100
00010000
00000010
,
00000100
00001010
00000010
00010000
,
00001000
00101000
00002000
02003000
,
03200000
20300000
32000000
03020000
,
01030000
10010000
00010000
00100000
,
00001000
00010100
00010000
00000100
,
00001000
00001010
00000010
00000100
,
00000001
00001001
00000001
00000100
,
00000010
00011000
00000000
00000000
,
00000000
01001000
00000000
01100000
,
00000000
10100000
00000000
00000000
,
00000000
10010000
00000000
00110000
,
00000000
20000000
00000000
00000000
,
30000000
00020000
00000000
00000000
,
00030000
00200000
00000000
00302000
,
00000000
00013000
00000000
00000000
;

//--------------- dance-double - Pandemonium X ----------------
#NOTES:
     dance-double:
     Pandemonium X:
     Medium:
     13:
     0.571339,0.634092,0.372491,0,0.382293,408,370,38,0,0,0,0,0,0,0.571339,0.634092,0.372491,0,0.382293,408,370,38,0,0,0,0,0,0:
00000000
00000000
00000000
00000000
,
00000000
00000000
00000000
00000000
,
00000000
00000000
00000000
00000000
,
00000000
00000000
00000000
00000000
,
00000000
00000000
00000000
00000000
00000000
00011000
00011000
00000000
,
00001000
00000000
00000000
01000000
00000000
00100000
00000000
00000000
10000000
00000000
00000000
00010000
00000000
00010000
00000000
00000000
,
00100000
00000000
00000000
01000000
00000000
10000000
00000000
00000000
01000000
00000000
00000000
10000000
00000000
10000000
00000000
00000000
,
00010000
00000000
00000000
00100000
00000000
00001000
00000000
00000000
00010000
00000000
00000000
00000100
00000000
00000100
00000000
00000000
,
00000000
00011000
00011000
00000000
00010000
00000000
00000100
00000000
,
00001000
00000000
00000010
00000000
00000100
00000000
00000001
00000000
00000010
00000000
00000100
00000000
00001000
00000100
00001000
00000000
,
00000100
00000000
00010000
00000000
00001000
00000000
01000000
00000000
00100000
00000000
10000000
00000000
00010000
00100000
00010000
00000000
,
01000000
00000000
00010000
00000000
00100000
00000000
00001000
00000000
00010000
00000000
00000100
00000000
00001000
00000010
00001000
00000000
,
00000010
00000000
00000100
00000000
00000001
00000000
00000010
00000000
00000100
00000000
00001000
00000000
00000100
00010000
00000100
00000000
,
00010000
00000000
00001000
00000000
01000000
00000000
00100000
00000000
10000000
00000000
00010000
00000000
00100000
01000000
00100000
00000000
,
01000000
00000000
10000000
00000000
00010000
00000000
00100000
00000000
00001000
00000000
00010000
00000000
00000010
00000100
00000010
00000000
,
00000100
00000000
00000001
00000000
00001000
00000000
00000100
00000000
00010000
00000000
00001000
00000000
01000000
00100000
01000000
00000000
,
00000000
01001000
00011000
00000000
00010000
00000000
00000100
00000000
,
00001000
00000000
00000010
00000000
00000100
00000000
00000001
00000010
00000000
00000010
00000000
00000010
00000100
00000000
00001000
00000000
,
00000100
00000000
00010000
00000000
00001000
00000000
01000000
00100000
00000000
00100000
00000000
00100000
01000000
00000000
00010000
00000000
,
10000000
00000000
01000000
00000000
00100000
00000000
00001000
00010000
00000000
00010000
00000000
00010000
00000010
00000000
00000100
00000000
,
00000001
00000000
00000010
00000000
00000100
00000000
00001000
00000100
00000000
00000100
00010000
00000000
00011000
00000000
00000000
00000000
,
00001000
00000000
00100000
00000000
00010000
00000000
00100000
01000000
00000000
01000000
00000000
01000000
10000000
00100000
10000000
00000000
,
01000000
00000000
00010000
00000000
00100000
00000000
00001000
00010000
00000000
00010000
00000000
00010000
00000010
00000100
00000010
00000000
,
00000100
00000000
00000001
00000000
00000010
00000000
00000001
00001000
00000000
00000100
00000000
00010000
00001000
00010000
00001000
00000000
,
00010000
00011000
00011000
00000000
00000100
00010000
00001000
01000000
,
00100000
00100000
10000000
00010000
00000000
00100000
00000000
00001000
,
00010000
00010000
00000100
00001000
00000000
00000010
00000000
00000100
,
00000001
00000001
00000010
00000100
00000000
00000010
00000000
00000001
,
00001000
00000010
00010000
00010000
00000000
00001000
00000000
00010000
,
00001000
00000000
01000000
00100000
00000000
10000000
00000000
00010000
,
00000000
00100000
00000000
00001000
00000000
00010000
00001000
00000000
,
00011000
00000100
00011000
01000000
,
00011000
00000000
00011000
00011000
00000000
00011000
00000000
00011000
,
00000000
00000000
00000000
00000000
00010100
00000000
00000000
00000000
00010000
00000000
00001000
00010000
00000000
00010000
00000100
00000000
,
00001000
00000000
00000010
00000000
00000101
00000000
00000000
00000000
00000001
00000000
00001000
00000100
00000000
00000100
00010000
00000000
,
00001000
00000000
01000000
00000000
01100000
00000000
00000000
00000000
10000000
00000000
00010000
00100000
00000000
00100000
00001000
00000000
,
00010000
00000000
00000010
00000000
00000110
00000000
00000000
00000000
00000100
00000000
00000010
00010000
00000000
00010000
00001000
00000000
,
00010000
00000000
00001000
00000000
00011000
00000000
00000000
00000000
00100000
00000000
00001000
00010000
00000000
00010000
00000010
00000000
,
00000100
00000000
00000001
00000000
00000011
00000000
00000000
00000000
00000010
00000000
00000100
00001000
00000000
00001000
00000010
00000000
,
00010000
00000000
00001000
00000000
00011000
00000000
00000000
00000000
00001000
00000000
01000000
00100000
00000000
00100000
10000000
00000000
,
00010000
00100000
11000000
00000000
01000000
00000000
00100000
00000000
,
00010000
00000000
00000000
00000000
00011000
00000000
00000000
00000000
00010000
00000100
00010000
00000100
00000000
00000100
00001000
00000000
,
00000010
00000000
00000100
00000000
00000101
00000000
00000000
00000000
00000001
00001000
00000001
00001000
00000000
00001000
00000100
00000000
,
00010000
00001000
00101000
00000000
00001000
00000000
00010000
00000000
,
00100000
10000000
01000000
00010000
,
00001000
00000000
00000000
00000000
00011000
00000000
00000000
00000000
00010000
00000010
00010000
00000010
00000000
00000010
00000100
00000000
,
00000001
00000000
00001000
00000000
00001100
00000000
00000000
00000000
00000100
00010000
00000100
00010000
00000000
00010000
00001000
00000000
,
00010000
00000000
00001000
00000000
01001000
00000000
00000000
00000000
01000000
00100000
01000000
00100000
00000000
00100000
10000000
00000000
,
00010000
00100000
00101000
00001000
00010000
00000100
00010000
00001000
,
01000000
00000000
00100000
00000000
10010000
00000000
00000000
10000000
00000000
00000000
10000000
00000000
00000000
00000000
00000000
00000000
,
00000000
00000000
00000000
00000000
11000000
00000000
00000000
01000000
00000000
00000000
01000000
00000000
01100000
00000000
00000000
00100000
,
00000000
00000000
00100000
00000000
00110000
00000000
00000000
00010000
00000000
00000000
00010000
00000000
00010000
00000000
00000000
00010000
,
00000000
00000000
00010000
00000000
00011000
00000000
00000000
00001000
00000000
00000000
00001000
00000000
00001100
00000000
00000000
00000100
,
00000000
00000100
00000010
00000100
00001000
00000010
00000100
00000001
,
00001000
00000000
00000100
00010000
00001000
01000000
00100000
10000000
,
01000000
00000000
10000000
01000000
00100000
00010000
00001000
00000100
,
00000010
00000001
00001001
00000000
00000000
00000000
00000000
00000000
;

//--------------- dance-double - Pandemonium X ----------------
#NOTES:
     dance-double:
     Pandemonium X:
     Hard:
     15:
     0.751983,0.827076,0.509724,0,0.906721,537,485,52,0,0,0,0,0,0,0.751983,0.827076,0.509724,0,0.906721,537,485,52,0,0,0,0,0,0:
00000000
00000000
00000000
00000000
,
00000000
00000000
00000000
00000000
,
00000000
00000000
00000000
00000000
,
00000000
00000000
00000000
00000000
,
00000000
00000000
00000000
00000000
00000000
00011000
00011000
00000000
,
00010000
00000000
00000000
00000010
00000000
00000100
00000000
00000100
00000001
00000000
00000000
00001000
00000000
00000100
00000000
00000000
,
00010000
00000000
00000000
00001000
00000000
00100000
00000000
00100000
00010000
00000000
00000000
01000000
00000000
00010000
00000000
00000000
,
10010000
00000000
00000000
10000000
00000000
01000000
00000000
01000000
10000000
00000000
00000000
00010000
00000000
00100000
00000000
00000000
,
00000000
00000000
00101000
00000000
00101000
00000000
00000000
00000000
00010000
00000000
00000100
00000000
00010000
00001000
00010000
00001000
,
01000000
00000000
00100000
10000000
00010000
00100000
00010000
00100000
00000000
00100000
00000000
00100000
00001000
00010000
00001000
00000000
,
00010000
00000000
00000100
00001000
00000010
00000100
00000010
00000100
00000000
00000100
00000000
00000100
00000010
00001000
00000001
00000000
,
00001000
00000000
00000100
00010000
00001000
01000000
00001000
01000000
00000000
01000000
00000000
01000000
00100000
10000000
00100000
00000000
,
10000000
00000000
00010000
00100000
00001000
00010000
00000010
00000100
00000000
00000100
00000000
00000100
00000010
00010000
00001000
00000000
,
00010000
00000000
00000100
00001000
00000010
00000100
00000010
00000100
00000000
00000100
00000000
00000100
00000010
00010000
00001000
00000000
,
00010000
00000000
00001000
00010000
00001000
00100000
00001000
00100000
00000000
00100000
00000000
00100000
01000000
10000000
01000000
00000000
,
10000000
00000000
00100000
10000000
01000000
10000000
00010000
10000000
00000000
10000000
00000000
10000000
00010000
00100000
00000000
00000000
,
00000000
00000000
00011000
00000000
00010100
00000000
00000000
00000000
00001000
00000000
00000100
00000000
00000010
00000001
00000010
00000001
,
00000100
00000000
00000010
00001000
00000100
00001000
00000010
00010000
00000000
00011000
00000000
00001000
01000000
00001000
00010000
00000000
,
00001000
00000000
01000000
00100000
10000000
00010000
00100000
00010000
00000000
01010000
00000000
01000000
00001000
00100000
00010000
00000000
,
00100000
00000000
00001000
00010000
00000100
00001000
00000010
00000100
00000000
00000110
00000000
00000010
00010000
00000100
00001000
00000000
,
00000001
00000000
00000100
00000001
00000010
00000001
00001000
00000100
00000000
00001100
00000000
00000100
00010000
00001000
00010000
00000000
,
00101000
00000000
00001000
01000000
00100000
10000000
00010000
00100000
00000000
00101000
00000000
00100000
00001000
00010000
00001000
00000000
,
00010100
00000000
00000100
00001000
00000010
00000100
00000001
00000010
00000000
00001100
00000000
00000100
00010000
00001000
00010000
00000000
,
00011000
00000000
00001000
00100000
00010000
01000000
00100000
10000000
00000000
00110000
00000000
00100000
00001000
00010000
00000010
00000000
,
00000000
00010010
00011000
00000000
00101000
00100000
01000000
01000000
,
10000000
01000000
00010000
01000000
10000000
00100000
00010000
00100000
,
01000000
00010000
00100000
00001000
00010000
00000100
00001000
00000010
,
00000100
00001000
00000100
00000001
00000100
00000010
00001000
00000100
,
00010000
00001000
01000000
00100000
10000000
00010000
00100000
10000000
,
00100000
00001000
00010000
00000100
00001000
00000010
00000001
00000010
,
00000100
00001000
00000100
00000001
00001000
00000100
00010000
00001000
,
00011000
00000010
00011000
00100000
,
00011000
00000000
00000000
00000000
00000000
00000000
00010000
00000000
00000000
00010100
00000000
00000000
00000000
00000000
00000000
00101000
00000000
00000000
00001000
00010000
00001000
00010000
00001000
00010000
,
00001000
00000000
00000000
00000000
00010100
00000000
00000000
00000000
00001000
00010000
00000100
00001000
00000000
00001000
00000100
00000000
,
00000010
00000000
00000100
00000000
00001001
00000000
00000000
00000000
00000010
00001000
00000100
00010000
00000000
00001000
01000000
00000000
,
00100000
10000000
01000000
00100000
00110000
00000000
00000000
00000000
00100000
00001000
00010000
00000100
00000000
00001000
00000010
00000000
,
00000100
00000000
00000001
00000000
00001010
00000000
00000000
00000000
00000010
00010000
00001000
00010000
00000000
00001000
00010000
00000000
,
00001000
00000000
00100000
00000000
00110000
00000000
00000000
00000000
00100000
00001000
00010000
00000010
00000000
00000100
00000010
00000000
,
00000100
00000000
00000010
00000000
00010010
00000000
00000000
00000000
00010000
00001000
01000000
00100000
00000000
01000000
00010000
00000000
,
00100000
01000000
00100000
01000000
11000000
00000000
00000000
00000000
01000000
10000000
00100000
01000000
00000000
00010000
00100000
00000000
,
00001000
00000000
00010000
00000000
00010100
00000000
00000000
00000000
00010000
00000100
00010000
00001000
00000000
00001000
00010000
00000000
,
00001000
00010000
00000100
00010000
00011000
00000000
00001000
00000000
01000000
00100000
10000000
00010000
00000000
10000000
01000000
00000000
,
00100000
00000000
00001000
00000000
00011000
00000000
00000000
00000000
00010000
00000010
00000100
00000001
00000000
00000010
00000100
00000000
,
00001000
00000100
00011000
00000000
00010100
00000000
00011000
00000000
,
00101000
01100000
10100000
01010000
,
01001000
00000000
00000000
00000000
00011000
00000000
00000000
00000000
00010000
00000010
00000100
00000001
00000000
00000010
00000100
00000000
,
00010000
00000000
00001000
00000000
00101000
00000000
00000000
00000000
00001000
01000000
00100000
10000000
00000000
00010000
00100000
00000000
,
01000000
10000000
01000000
00100000
00110000
00000000
00000000
00000000
01000000
00010000
00100000
00001000
00000000
00010000
00001000
00000000
,
00100000
00000000
00010000
00000000
10010000
00000000
10000000
00000000
00010000
00000000
00100000
00000000
00001000
00010000
00001000
00010000
,
00001000
00010000
00001000
00010000
00001000
00000000
00000000
00001000
00000000
00000000
00001000
00000000
00000000
00000000
00000000
00000000
,
00000000
00000000
00000000
00000000
00010100
00000000
00000000
00010000
00000000
00000000
00001000
00000000
01001000
00000000
00000000
01000000
,
00000000
00000000
00100000
00000000
10100000
00000000
00000000
10000000
00000000
00000000
00010000
00000000
00100000
00000000
00000000
00001000
,
00000000
00000000
00010000
00000000
00010100
00000000
00000000
00000100
00000000
00000000
00001000
00000000
00001010
00000000
00000000
00000010
,
00000000
00000000
00000100
00000000
00000001
00000100
00000010
00001000
00000100
00010000
00001000
01000000
00100000
10000000
01000000
00100000
,
01000000
00000000
00000000
00000000
10000000
01000000
00100000
00010000
00100000
00010000
00001000
00000100
00001000
00000010
00000100
00000001
,
00001000
00000000
00000000
00000000
00000010
00010000
00001000
01000000
00100000
10000000
00010000
00100000
00001000
00010000
00000010
00010000
,
00001000
00100000
01000000
10000000
00100000
00000000
00000000
00000000
00000000
00000000
00000000
00000000
00000000
00000000
00000000
00000000
;
