#TITLE:Anisakis -somatic mutation type"Forza"-;
#SUBTITLE:;
#ARTIST:朱雀;
#TITLETRANSLIT:;
#SUBTITLETRANSLIT:;
#ARTISTTRANSLIT:;
#GENRE:;
#CREDIT:;
#MUSIC:Anisakis -somatic mutation type 'Forza'.ogg;
#BANNER:;
#BACKGROUND:Anisakis -somatic mutation type 'Forza'--bg.png;
#CDTITLE:;
#SAMPLESTART:34.126;
#SAMPLELENGTH:10.534;
#SELECTABLE:YES;
#OFFSET:0.897;
#BPMS:0.000=185.000;
#STOPS:;
#BGCHANGES:;
#FGCHANGES:;

//--------------- dance-single - Pandemonium X ----------------
#NOTES:
     dance-single:
     Pandemonium X:
     Beginner:
     7:
     0,0,0,0,0:
0000
0000
0000
0000
,
0000
0000
0000
0000
,
0000
0000
0000
0000
,
0000
0000
0000
0000
,
0000
0000
0000
0000
,
0000
0000
0000
0000
,
0000
0000
0000
0000
,
0000
0000
0000
0000
,
0000
0000
0000
0000
,
2002
0000
0000
0000
,
3003
0000
0000
0000
,
0001
0000
1000
0000
,
1100
0000
0000
0000
,
1000
0000
0001
0000
,
0101
0000
0000
1001
,
0001
0000
1000
0000
,
1010
0000
0000
0000
,
1000
0000
0001
0000
,
0011
0000
0000
0000
,
0001
0000
1000
0000
,
0010
0000
1001
0000
,
1000
0000
0001
0000
,
0100
0000
0110
0000
,
0001
0000
1000
0000
,
0100
0100
0100
0000
,
0010
0000
0001
0000
,
2000
0000
0000
3000
,
0001
0000
0001
0000
,
1000
0000
0000
0000
,
0100
0000
0100
0000
,
0010
0000
0000
0000
,
0100
0000
1000
0000
,
1000
0000
0000
0000
,
0001
0000
0010
0000
,
0011
0000
0000
0000
,
0001
0000
1000
0000
,
0010
0000
1001
0000
,
0001
0000
1000
0000
,
0100
0000
1001
0000
,
0001
0000
0010
0000
,
0100
0000
0010
0000
,
0001
0000
1000
0000
,
0010
0000
0100
0000
,
2002
0000
0000
0000
,
3003
0000
0000
0000
,
0000
0000
0000
0000
,
0000
0000
0000
0000
,
0010
0000
0000
0000
,
0000
0000
0000
0000
,
0010
0000
0000
0000
,
0000
0000
0000
0000
,
0010
0000
0000
0000
,
0000
0000
0000
0000
,
0100
0000
0010
0000
,
1000
1000
1000
0000
,
0001
0001
0001
0000
,
1000
1000
1000
0000
,
0001
0001
0001
0000
,
1000
1000
1000
0000
,
0001
1000
0001
0010
,
0001
1000
0001
0010
,
0001
0001
1000
1000
,
0010
0100
0001
1000
,
2002
0000
0000
0000
,
3003
0000
0000
0000
,
1000
1000
0100
0100
,
0010
0001
0100
0010
,
2000
0000
0000
0000
,
3001
0000
0000
0000
,
0100
0000
0010
0000
,
1000
0000
0001
0010
,
0100
0000
0010
0000
,
0001
0000
1000
0100
,
0010
0000
0100
0000
,
1000
0000
0010
0000
,
0100
0000
0001
0000
,
1001
0000
0000
0000
,
0001
0000
1000
0000
,
0100
0100
0100
0000
,
0010
0000
0001
0000
,
1000
1000
1000
0000
,
0001
0000
0100
0000
,
0010
0000
1000
0000
,
0001
0000
1000
0000
,
0100
0000
0010
0000
,
1001
0000
0000
0000
,
0001
0000
0000
1000
,
1000
0000
0000
0000
,
0010
0000
0100
0100
,
0100
0000
0000
0000
,
0010
0000
0000
1000
,
1000
0000
0001
0000
,
0200
0000
0000
0000
,
0301
0000
0001
0000
,
1000
0000
1000
0000
,
0010
0000
0010
0000
,
0100
0100
0100
0000
,
0001
0000
0100
0000
,
0010
0000
1000
0000
,
0001
0001
1000
1000
,
0001
0100
0010
1000
,
0000
0220
0000
0000
,
0000
0000
0000
0000
,
0000
0000
0000
0000
,
0000
0000
0000
0000
,
0000
0330
0000
0000
;

//--------------- dance-single - Pandemonium X ----------------
#NOTES:
     dance-single:
     Pandemonium X:
     Easy:
     10:
     0,0,0,0,0:
0000
0000
0000
0000
,
0000
0000
0000
0000
,
0000
0000
0000
0000
,
0000
0000
0000
0000
,
0000
0000
0000
0000
,
0000
0000
0000
0000
,
0000
0000
0000
0000
,
0000
0000
0000
0000
,
0000
0000
0000
0000
,
2002
0000
0000
0000
,
3003
0000
0000
0000
,
0001
0100
0001
0010
,
1100
0100
0010
0001
,
1000
0001
0100
0001
,
1010
1000
0100
1100
,
0001
0010
0100
1000
,
0011
0001
0100
0001
,
1000
0001
0100
0010
,
1000
1001
0000
0000
0001
0000
0010
0100
,
0010
0001
0100
0010
,
1010
0000
0101
0000
,
1000
0100
0010
0100
,
1100
0000
0011
0000
,
1001
0001
0100
0001
,
1001
1000
0100
0010
,
0011
0010
0110
0100
,
1001
2002
0000
0000
0000
0000
3003
0000
,
0001
1000
0100
1000
,
0001
0100
0001
0010
,
0100
1000
0010
1000
,
0001
0010
0100
1000
,
0001
0010
0001
1000
,
0010
1000
0001
0010
,
0100
0010
0001
0100
,
0010
1001
0000
0000
0000
0000
0000
0000
,
1000
0001
0100
0010
,
1010
0000
1100
0000
,
1000
0001
0010
0100
,
0011
0000
1100
0000
,
1001
0001
0100
0010
,
1010
0010
0100
0001
,
0011
0010
0110
0100
,
1100
0011
0101
1010
,
2002
0000
0000
0000
,
3003
0000
0000
0000
,
0000
0000
0000
0000
,
0000
0000
0000
0000
,
0001
0100
0010
1000
,
1000
0000
0000
0000
,
0001
0100
0010
1000
,
0001
1000
0001
0000
,
0001
0100
0010
1000
,
1000
0000
0000
0000
,
1000
1000
0010
0100
,
0001
1000
0001
0000
,
0001
1000
0010
0000
,
1000
0001
0010
0000
,
0001
1000
0010
0000
,
1000
0001
0010
0000
,
0001
1000
0001
0010
,
0001
1000
0001
0010
,
0001
0001
1000
1000
,
0010
0100
0001
1000
,
1001
1001
1001
1001
,
1001
1001
1001
1001
,
0101
0101
1100
1100
,
0011
1100
0101
1010
,
2002
0000
0000
0000
,
3000
0000
0003
0000
,
1000
0010
0100
0001
,
0010
0100
0010
0001
,
1000
0100
1000
0010
,
0100
0001
0010
0100
,
1000
0100
1000
0010
,
1000
0001
1000
0100
,
1000
1000
0001
0001
,
1000
1001
0000
0000
0001
0000
0100
0010
,
0100
0001
0010
0001
,
1000
0010
0100
0001
,
0010
0100
0010
0001
,
0010
0100
1000
0100
,
0010
0010
0001
0001
,
0100
0100
0010
0010
,
1000
0010
0100
0001
,
0010
0100
1000
0001
,
0110
0000
0000
0000
,
0001
0000
0000
1001
,
1001
0000
0000
0000
,
1010
0000
1000
1001
,
0101
0000
0000
0000
0000
0000
0001
1000
,
1100
0000
0000
0011
,
1100
0000
1001
0000
,
0001
0100
0010
1000
,
0001
1000
0010
1000
,
0001
0010
0100
0010
,
0001
1000
0100
0010
,
0100
0100
1000
1000
,
0001
0100
1000
0100
,
0001
0010
1000
0010
,
0011
0011
1100
1100
,
1001
0110
0101
1010
,
0000
2002
0000
0000
,
0000
0000
0000
0000
,
0000
0000
0000
0000
,
0000
0000
0000
0000
,
0000
3003
0000
0000
;

//--------------- dance-single - Pandemonium X ----------------
#NOTES:
     dance-single:
     Pandemonium X:
     Medium:
     14:
     0,0,0,0,0:
0000
0000
0000
0000
,
0000
0000
0000
0000
,
0000
0000
0000
0000
,
0000
0000
0000
0000
,
0000
0000
0000
0000
,
0000
0000
0000
0000
,
0000
0000
0000
0000
,
0000
0000
0000
0000
,
0000
0000
0000
0000
,
2002
0000
0000
0000
,
3003
0000
0000
0000
,
0001
0100
0001
0010
0001
0100
0001
0010
,
0011
0000
0001
0100
0001
0010
0100
1000
,
0010
1000
0100
1000
0010
1000
0100
1000
,
1010
0000
1000
0010
1000
0100
0010
0001
,
0100
0001
1000
0010
1000
0001
0010
0001
,
1001
0000
0001
1000
0010
1000
0100
0010
,
0001
1000
0100
1000
0001
0100
0001
1000
,
0100
1001
0000
0000
0001
0010
0100
1000
,
0000
0001
0100
1000
0100
0010
1000
0001
,
0010
0000
1100
0000
,
0000
0100
0001
0100
0010
0001
1000
0100
,
1000
0000
0011
0000
,
0101
0000
0001
0100
1000
0000
0100
0001
,
1000
0010
1000
0001
0010
0100
0010
0001
,
1000
0001
0010
0100
0010
0001
1000
0010
,
0200
0000
0000
0000
,
0301
1000
0010
1000
0001
0010
0001
1000
,
0010
1000
0001
0010
0001
0010
0100
1000
,
0001
1000
0100
1000
0001
0100
0001
1000
,
0001
0001
0010
0100
1000
1000
0100
1000
,
0010
0100
0001
0010
0100
1000
0010
0100
,
0001
0100
0010
1000
0010
0100
0001
1000
,
0100
0010
0001
0010
0100
1000
0100
0010
,
0001
2100
0000
0000
3100
0010
0001
1000
,
0000
0001
0100
1000
0100
0001
0010
0100
,
1100
0000
0101
0000
,
0001
0010
1000
0010
0100
1000
0001
0100
,
0110
0000
0101
0000
,
1001
0000
0001
1000
0100
0000
0100
1000
,
0010
0001
0010
1000
0100
1000
0001
0100
,
0001
0010
1000
0010
0001
1000
0001
0100
,
0001
0100
1000
0100
0001
0010
0100
1000
,
2002
0000
0000
0000
,
3003
0000
0000
0000
,
0000
0000
0000
0000
,
0000
0000
0000
0000
,
0001
0100
0010
1000
0001
0000
0110
0000
,
1001
0000
0000
0000
,
0001
0100
0010
1000
0001
0000
1001
0000
,
0110
1001
0110
0000
,
0001
0100
0010
1000
0001
0000
0110
0000
,
1001
0000
0000
0000
,
1001
0110
1001
0110
,
0001
0000
0100
0000
0010
0000
1000
0000
0001
0000
0000
0000
2000
0000
0000
3000
,
0011
0000
0000
0000
1100
0000
0000
0000
0011
0000
0000
0000
0002
0000
0000
0003
,
1010
0000
0000
0000
0101
0000
0000
0000
1010
0000
0000
0000
2000
0000
0000
3000
,
0011
0000
0000
0000
1100
0000
0000
0000
0011
0000
0000
0000
0002
0000
0000
0003
,
0101
0000
0000
0000
1010
0000
0000
0000
0101
0000
0000
0000
2000
0000
0000
3000
,
1001
0110
1001
0110
,
1001
0110
1001
0110
,
0001
0000
0001
0100
0000
0100
0010
0000
0010
1000
0000
1000
,
0001
0010
0100
1000
0100
0010
0100
1000
0100
0010
0001
0010
,
0200
1000
1000
1000
,
1300
1000
1000
1000
,
1001
0110
1001
0110
,
0001
0100
0010
1000
0001
0010
0100
0000
0100
0010
0001
1000
,
0001
0000
0000
0000
,
2000
0000
3002
0000
,
0103
0001
0010
0001
0100
0010
1000
0010
,
0100
0000
0000
0001
0010
0000
0000
0010
0100
0000
0000
0100
1000
0000
0001
0000
,
1000
0001
0010
0001
1000
0010
1000
0100
,
0010
0000
0000
0100
0010
0000
0000
0010
0001
0000
0000
0001
0100
0000
0010
0000
,
0100
0100
0001
0010
0100
0100
1000
0010
,
0100
0100
0001
1000
0100
0100
0010
0100
,
1000
0000
0000
1000
0100
0000
0000
0100
0010
0000
0000
0010
0001
0000
0000
0001
,
0100
1000
0100
0001
1000
0100
1000
0001
,
0100
0001
0010
0001
1000
0010
1000
0001
,
0010
0000
0000
0100
0010
0000
0000
0010
0001
0000
0000
0001
1000
0000
0010
0000
,
0100
0001
1000
0100
0010
0100
1000
0001
,
1000
0000
0000
0001
0010
0000
0000
0100
1000
0000
0100
0000
0010
0000
0001
0000
,
0010
0010
0001
1000
0010
0010
0100
0001
,
0010
0010
0001
1000
0010
0010
1000
0001
,
0010
0000
0000
0100
0010
0000
0000
0010
0001
0000
0000
0001
0100
0000
0000
0100
,
0010
0100
0001
0010
1000
0010
0001
1000
,
1001
0000
0000
0000
,
0100
0000
0000
1001
,
0110
0000
0000
0000
,
0001
0000
1001
0110
,
1001
0000
0000
0000
0000
0000
0000
0000
0000
0000
0000
0000
1000
0000
0001
1000
,
0001
0000
0000
1100
,
1001
0000
1000
0001
,
0110
0110
0000
0000
0001
1000
0001
1000
,
0001
1000
0200
0310
0001
0200
0301
0020
,
0130
0010
0002
1003
0100
0002
0103
0020
,
0031
0100
0010
1000
0001
0010
0100
1000
,
0001
0000
0000
1000
0010
0000
0000
0010
0100
0000
0000
0100
0001
0000
1000
0000
,
0100
0100
0001
0100
1000
1000
0010
0001
,
0010
0010
0100
0001
1000
1000
0001
0010
,
0110
0000
0100
0010
0000
0010
0001
0000
0001
1000
0000
1000
,
0010
0001
0010
1000
0100
0001
0100
0010
0001
0100
0010
1000
,
0000
0220
0000
0000
,
0000
0000
0000
0000
,
0000
0000
0000
0000
,
0000
0000
0000
0000
,
0000
0330
0000
0000
;

//--------------- dance-single - Pandemonium X ----------------
#NOTES:
     dance-single:
     Pandemonium X:
     Hard:
     16:
     0,0,0,0,0:
0000
0000
0000
0000
,
0000
0000
0000
0000
,
0000
0000
0000
0000
,
0000
0000
0000
0000
,
0000
0000
0000
0000
,
0000
0000
0000
0000
,
0000
0000
0000
0000
,
0000
0000
0000
0000
,
0000
0000
0000
0000
,
0220
0000
0000
0000
,
0330
0000
0000
0000
,
1000
0010
1000
0001
0010
0100
1000
0001
,
0101
0000
0001
0100
1000
0100
0001
1000
,
0001
0010
0001
0100
0001
0010
0100
1000
,
1100
0000
1000
0010
0001
0010
0100
0001
,
1000
0010
0100
0001
0010
0100
1000
0001
,
1010
0000
1000
0100
0001
0100
1000
0001
,
1000
0010
1000
0001
0010
0100
0010
0001
,
1000
0110
0000
0000
0001
0100
1000
0100
,
0001
1000
0100
0001
0100
0010
0001
0010
,
0110
0000
1100
0000
,
1000
0100
0001
0100
0010
0001
1000
0100
,
1100
0000
0101
0000
,
1001
0000
0001
0100
0010
0000
0100
0001
,
0010
1000
0010
0001
0100
1000
0100
0010
,
1000
0100
0001
0100
1000
0010
0100
0001
,
0010
0000
0100
1000
0100
0000
0010
0100
0010
0000
0100
1000
0100
0000
0010
0000
,
1001
0000
0001
1000
0010
0000
0100
0000
0010
1000
0001
0000
0100
0000
0001
1000
,
0010
0000
0100
0000
0010
1000
0001
0000
1000
0000
0100
0000
0010
0100
1000
0001
,
1000
0000
0001
1000
0010
0000
0100
0000
0010
1000
0001
0000
0100
0000
0001
1000
,
0010
0100
0001
0010
0001
0000
1000
0000
0100
0010
0001
0010
0100
0000
1000
0000
,
1001
0000
1000
0001
0100
0000
0010
0000
0100
0001
1000
0000
0010
0000
1000
0001
,
0100
0000
0010
0000
0100
0001
1000
0000
0001
0000
0010
0000
0100
0010
0001
1000
,
0001
0000
1000
0001
0100
0000
0010
0000
0100
0001
1000
0000
0010
0000
1000
0001
,
0100
0110
0000
0000
1000
0000
0001
0001
,
1001
1000
0100
0001
0100
0010
0001
0100
,
1100
0100
0101
0000
,
0001
0010
0100
1000
0001
0010
1000
0010
,
0110
0001
1100
0000
,
1001
0000
0001
0100
1010
0000
1000
0100
,
0011
0010
1000
0010
0100
0010
0001
0100
,
1000
0100
0010
1000
0001
0010
0100
0010
,
0001
0000
1000
0100
1000
0010
0100
0001
0010
0001
0100
0010
1000
0100
0010
0002
,
2000
0000
0000
0000
,
3003
0000
0000
0000
,
0000
0000
0000
0000
,
0000
0000
0000
0000
,
0001
0001
1000
0010
1000
0000
1010
0000
,
1001
0000
0000
0000
,
0001
0001
1000
0010
1000
0000
1010
0000
,
1001
0101
2001
3000
,
0001
0001
1000
0010
1000
0000
1010
0000
,
1001
0000
0000
0000
,
1010
1001
1010
1001
,
0001
0010
0001
1000
0010
0000
0200
0000
,
0301
0000
0000
0000
0000
0000
0000
0000
0000
0000
0000
0000
0000
0000
0000
0000
0000
0000
0000
0000
0000
0000
0000
0000
1010
0000
0000
0000
0000
0000
0000
0000
0000
0000
0000
0000
0000
0000
0000
0000
0000
0000
0000
0000
0000
0000
0000
0000
1001
0000
0000
0000
0000
0000
0000
0000
0000
0000
0000
0000
0000
0000
0000
0000
0010
0000
0000
0000
0000
0000
0000
0000
0200
0000
0000
0000
0000
0000
0000
0000
0000
0000
0000
0000
0000
0000
0000
0000
0000
0000
0000
0000
0000
0300
0000
0000
,
1001
0000
0000
0000
0000
0000
0000
0000
0000
0000
0000
0000
0000
0000
0000
0000
0000
0000
0000
0000
0000
0000
0000
0000
1010
0000
0000
0000
0000
0000
0000
0000
0000
0000
0000
0000
0000
0000
0000
0000
0000
0000
0000
0000
0000
0000
0000
0000
1001
0000
0000
0000
0000
0000
0000
0000
0000
0000
0000
0000
0000
0000
0000
0000
0010
0000
0000
0000
0000
0000
0000
0000
0200
0000
0000
0000
0000
0000
0000
0000
0000
0000
0000
0000
0000
0000
0000
0000
0000
0000
0000
0000
0000
0300
0000
0000
,
1001
0000
0000
0000
0000
0000
0000
0000
0000
0000
0000
0000
0000
0000
0000
0000
0000
0000
0000
0000
0000
0000
0000
0000
1010
0000
0000
0000
0000
0000
0000
0000
0000
0000
0000
0000
0000
0000
0000
0000
0000
0000
0000
0000
0000
0000
0000
0000
1001
0000
0000
0000
0000
0000
0000
0000
0000
0000
0000
0000
0000
0000
0000
0000
0010
0000
0000
0000
0000
0000
0000
0000
0200
0000
0000
0000
0000
0000
0000
0000
0000
0000
0000
0000
0000
0000
0000
0000
0000
0000
0000
0000
0000
0300
0000
0000
,
1001
0000
0000
0000
0000
0000
0000
0000
0000
0000
0000
0000
0000
0000
0000
0000
0000
0000
0000
0000
0000
0000
0000
0000
1010
0000
0000
0000
0000
0000
0000
0000
0000
0000
0000
0000
0000
0000
0000
0000
0000
0000
0000
0000
0000
0000
0000
0000
1001
0000
0000
0000
0000
0000
0000
0000
0000
0000
0000
0000
0000
0000
0000
0000
0010
0000
0000
0000
0000
0000
0000
0000
0200
0000
0000
0000
0000
0000
0000
0000
0000
0000
0000
0000
0000
0000
0000
0000
0000
0000
0000
0000
0000
0300
0000
0000
,
0011
1010
1100
1001
,
0011
1010
1100
1001
,
0001
0010
0100
1000
0001
0010
0100
1000
0001
0010
0100
1000
,
0100
0010
0100
1000
0010
0100
0001
0010
0001
1000
0010
0100
,
0002
0100
0010
0100
,
0010
0100
0010
0103
,
0101
1010
1100
0011
,
0010
0010
0001
0100
0010
0001
0020
0000
0230
0302
0023
0032
,
2000
0000
0000
0000
0000
0000
0000
0000
0000
0000
0000
3003
,
0200
0000
0000
0000
0020
0000
0000
0330
,
1001
0000
1000
0100
1000
0000
0001
0000
0100
0010
0100
0000
0001
0000
1000
0001
,
0010
0000
0100
1000
0010
0000
0100
0001
1000
0000
0001
0010
0100
0000
0010
0000
,
0001
0000
1000
0010
1000
0000
0001
0000
0010
0100
0010
0000
0001
0000
1000
0100
,
0010
0000
0100
1000
0010
0000
0100
0001
0010
0000
0001
0010
0100
0000
0010
0000
,
0001
0001
0100
1000
0100
0100
0010
1000
,
0001
0001
0010
1000
0010
0010
0100
0010
,
0001
0000
0000
0001
0010
0000
0000
0010
0100
0000
0000
0100
1000
0000
0000
1000
,
0010
1001
0001
1000
0100
0001
0100
0010
,
1001
0000
1000
0010
1000
0000
0001
0000
1000
0010
1000
0000
0001
0000
1000
0001
,
0010
0000
0100
0010
0001
0000
0010
0001
1000
0001
1000
0010
0100
0001
1000
0000
,
0001
0000
1000
0100
1000
0000
0001
0000
1000
0100
1000
0000
0001
0000
1000
0100
,
0010
0000
0100
1000
0010
0000
0100
0001
0010
0100
1000
0100
0010
0001
1000
0000
,
0001
0100
0001
0100
0001
0000
1000
0000
0100
0010
0100
0010
0100
0000
0010
0000
,
0001
1000
0001
1000
0001
0000
0100
0000
0010
1000
0010
1000
0010
0000
1000
0000
,
0001
0000
1000
0100
1000
0000
0100
0010
0100
0000
0010
0001
0010
0000
0001
0000
,
1000
0010
0100
0001
0010
0100
0010
0001
0100
0010
1000
0001
0010
0100
1000
0100
,
0010
0000
0000
0000
,
0100
0000
0000
1001
,
0101
0000
0000
0000
,
0110
0000
1001
1100
,
0110
0000
0000
0000
0000
0000
0000
0000
0000
0000
0000
0000
0010
0000
0001
1000
,
0100
0000
0000
0011
,
0110
0000
1000
0001
,
0100
0100
0000
0000
0010
0010
0010
0010
,
1000
0010
0100
0000
0001
0000
0010
0100
1000
0000
0001
0000
1000
0001
0010
0000
,
0100
0010
0001
0000
0010
0000
0001
0100
0010
0000
0100
0000
0001
1000
0100
0000
,
0010
0000
0001
0000
0100
0000
0001
0000
1000
0000
0100
0000
0010
0000
0100
1000
,
0001
0000
0100
0001
0010
0000
0001
1000
0100
0000
0010
0100
1000
0001
0100
0001
,
0010
0001
0100
1000
0100
0100
0010
1000
,
0001
0001
0010
1000
0010
0010
0100
0010
,
0011
0000
0001
0010
0100
0000
0010
0100
1000
0000
0100
0010
0001
0000
0010
0100
,
1000
0100
0010
0100
1000
0010
0100
0001
0010
0100
1000
0010
,
0000
1001
0000
0000
;

//--------------- dance-single - Pandemonium X ----------------
#NOTES:
     dance-single:
     Pandemonium X:
     Challenge:
     18:
     0.873266,1.187194,0.802404,0.233427,0.714869,838,722,110,32,2,11,0.873266,1.187194,0.802404,0.233427,0.714869,838,722,110,32,2,11:
0000
0000
0000
0000
,
0000
0000
0000
0000
,
0000
0000
0000
0000
,
0000
0000
0000
0000
,
0000
0000
0000
0000
,
0000
0000
0000
0000
,
0000
0000
0000
0000
,
0000
0000
0000
0000
,
0000
0000
0000
0000
,
MMMM
MMMM
MMMM
MMMM
MMMM
MMMM
MMMM
MMMM
,
MMMM
0000
0000
0000
,
0101
0100
1000
0100
0010
1000
0001
0010
,
1001
0000
1000
0001
0010
0010
1000
0001
,
1000
0010
0001
0010
0100
0001
1000
0100
,
0110
0000
0001
1000
0100
0100
0101
0000
,
1001
0001
0010
0100
0010
0001
0100
0010
,
1010
0000
0001
1000
0100
0100
0001
1000
,
0010
0001
0010
1000
0010
0100
0001
1000
,
1100
0011
0000
0000
0001
0010
1000
0010
,
0001
0101
0100
0010
1010
1000
0001
0010
,
0210
0000
1000
0000
,
0310
0011
0001
1000
1100
1000
0010
0100
,
0201
0000
0010
0300
,
1001
1000
0100
0010
0011
0001
0100
0010
,
1010
0010
0001
0010
1010
1000
0100
0001
,
0101
0100
1000
0010
0011
0010
0100
0001
,
1000
0000
0001
1000
0010
0100
0001
1000
0001
1000
0001
1000
0100
1000
0001
0010
,
0001
0100
0001
0100
0001
0000
1000
0100
1000
0100
1000
0000
0001
0100
0001
0100
,
0001
0000
1000
0100
1000
0100
1000
0000
1000
0010
1000
0010
1000
0100
0010
0100
,
1000
0001
1000
0001
1000
0000
0001
0010
0001
0010
0001
0000
1000
0001
1000
0001
,
1000
0010
0100
0001
1000
0010
1000
0001
0010
0100
1000
0001
1000
0100
1000
0001
,
0100
0010
0100
0010
0100
0000
0001
1000
0001
1000
0001
0000
0010
0100
0010
0100
,
0010
0000
0001
1000
0001
1000
0001
0000
0001
0100
0010
1000
0100
1000
0010
0100
,
0001
1000
0001
1000
0001
0000
1000
0100
1000
0100
1000
0000
0001
0100
0001
0100
,
0001
0000
1000
0100
0010
0100
0010
0001
1000
0010
0100
0010
0100
0001
1000
0100
,
0010
0110
0011
0101
0110
1010
0110
0101
,
0210
1000
0020
0330
,
1001
0101
1001
1100
0110
0011
0110
1001
,
1200
0010
2000
3300
,
1001
0000
0101
0010
1000
0000
1100
1000
,
1001
0001
1000
0010
0100
0001
1000
0100
,
0010
0100
1000
0001
1000
0000
0010
0100
0001
0010
0100
0000
0010
0001
0100
0001
,
1000
0001
1000
0100
1000
0010
1000
0001
0010
0001
0100
0001
0010
0100
1000
0000
,
MMMM
MMMM
MMMM
MMMM
MMMM
MMMM
MMMM
MMMM
,
MMMM
0000
0000
0000
,
0000
0000
0000
0000
,
0000
0000
0000
0000
,
1000
0100
0001
0010
1000
0000
0001
0000
,
1001
0000
0000
0000
,
0001
0100
1000
0010
0001
0000
1001
0000
,
0101
1001
1200
0300
,
1000
0100
0001
0010
1000
0000
0001
0000
,
1001
0000
0000
0000
,
1001
0011
1001
1010
,
0001
0000
0000
0100
0000
0000
1000
0000
0000
0010
0000
0000
0001
0000
0000
0000
0000
0000
4000
0000
0000
0000
3000
0000
,
0101
0000
0000
0011
0000
0000
1001
0000
1000
0004
0000
0003
,
1100
0000
0000
1010
0000
0000
1001
0000
0001
4000
0000
3000
,
0011
0000
0000
0000
0000
0000
0000
0000
0000
0000
0000
0000
0101
0000
0000
0000
0000
0000
0000
0000
0000
0000
0000
0000
1001
0000
0000
0000
0000
0000
0000
0000
1000
0000
0000
0000
0004
0000
0000
0000
0000
0000
0000
0000
0000
0003
0000
0000
,
1010
0000
0000
0000
0000
0000
0000
0000
0000
0000
0000
0000
1100
0000
0000
0000
0000
0000
0000
0000
0000
0000
0000
0000
1001
0000
0000
0000
0000
0000
0000
0000
0001
0000
0000
0000
4000
0000
0000
0000
0000
0000
0000
0000
0000
3000
0000
0000
,
0101
0011
0101
1001
,
1010
1100
1010
1001
,
1000
0100
0001
0100
0010
0001
0100
1000
0100
0010
1000
0001
,
0010
1000
0010
0001
0100
1000
0100
0010
1000
0001
0010
0100
,
2200
0000
0000
0000
0000
0000
0000
0000
0000
0000
0000
0000
0000
0000
0000
3300
0202
0000
0000
0000
0000
0000
0000
0000
0000
0000
0000
0000
0000
0000
0000
0303
2200
0000
0000
0000
0000
0000
0000
0000
0000
0000
0000
0000
0000
0000
0000
3300
0202
0000
0000
0000
0000
0000
0000
0000
0000
0000
0000
0000
0000
0000
0000
0303
,
2200
0000
0000
0000
0000
0000
0000
0000
0000
0000
0000
0000
0000
0000
0000
3300
0202
0000
0000
0000
0000
0000
0000
0000
0000
0000
0000
0000
0000
0000
0000
0303
2200
0000
0000
0000
0000
0000
0000
0000
0000
0000
0000
0000
0000
0000
0000
3300
0202
0000
0000
0000
0000
0000
0000
0000
0000
0000
0000
0000
0000
0000
0000
0303
,
4001
3000
0014
0003
0401
0300
1040
0030
,
1000
0000
1000
0000
0010
0000
0100
0000
0001
0000
1000
0000
0400
0000
0000
0300
0001
0000
0100
0000
0100
0000
0010
0000
,
0002
0000
0000
0000
,
2003
0000
0000
0000
0000
0000
0002
0000
0000
0000
0000
3003
,
1000
0000
0001
0100
0001
0000
0010
0000
0100
1000
0100
0000
1000
0000
0001
1000
,
0010
0000
0100
0001
0010
0000
0100
1000
0010
0100
0001
0010
0100
1000
0001
1000
,
0100
0000
1000
0010
1000
0000
0001
0000
0010
0100
0010
0000
0100
0000
1000
0000
,
0001
0000
1000
0100
0010
0000
0100
0010
0001
0100
0010
0100
0010
1000
0010
1000
,
0200
0310
0001
0100
0020
0130
0001
1000
,
0200
0310
0100
1000
0200
0310
0001
1000
,
0001
0000
0001
0100
0001
0000
0100
0010
0100
0000
0010
1000
0010
0000
1000
0001
,
1000
0010
0100
0010
1000
0001
0100
0010
0100
0001
0010
0001
1000
0010
1000
0001
,
1000
0000
0001
0010
0001
0000
1000
0000
0010
1000
0010
0000
0100
0000
0001
1000
,
0100
0000
1000
0001
0100
0000
0001
1000
0100
0010
0001
0010
0100
1000
0001
1000
,
0010
0000
1000
0001
1000
0000
0001
0000
0010
0100
0010
0000
0100
0000
1000
0100
,
0010
0000
0100
1000
0001
0000
0100
0001
0010
0001
0100
0010
1000
0010
0100
0001
,
1000
0100
1000
0100
1000
0000
1001
0000
0001
0100
0001
0100
0001
0000
1001
0000
,
0001
0010
0001
0010
0001
0000
1100
0000
1000
0010
1000
0010
1000
0000
0101
0000
,
1001
0000
0001
0010
0100
0000
0010
0100
1000
0000
0100
0010
0001
0000
0010
0100
,
1000
0100
0010
0001
0010
0100
0010
0001
0100
0010
1000
0001
0010
0100
0010
0001
,
1001
0000
0000
0000
,
0001
0000
0000
1010
,
1001
0000
0000
0000
,
0011
0000
1001
1010
,
1001
0000
0000
0000
0000
0000
0000
0000
0000
0000
0000
0000
1100
0000
0100
0010
,
0001
0000
1000
0101
,
0011
0000
1100
0000
,
0001
1000
0010
1000
0001
0010
0001
1000
0100
0010
0001
0010
0100
0010
0001
1000
,
0100
0010
0001
1000
0020
0000
0130
0001
0010
0001
2000
0000
3001
0100
0002
0000
,
1003
0100
0010
0001
2000
0000
3100
0010
0001
1000
0200
0000
1300
0001
1000
0010
,
1000
0100
1000
0100
0020
0000
0031
0010
0100
0010
0002
0000
1003
0001
0100
0010
,
2000
0000
3100
1000
0200
0000
0310
0100
1000
0010
0100
0010
0100
0001
1000
0100
,
0010
0011
0001
0100
1010
1100
1001
0011
,
0110
0100
0010
0001
1100
0110
0011
0110
,
1001
0000
1000
0010
1010
0000
0001
0100
0101
0000
0001
1000
1001
0000
0110
0000
,
1000
1000
0001
0100
0100
0010
0001
0001
0010
1000
0001
0100
,
MMMM
MMMM
2002
0000
0000
0000
0000
0000
,
0000
0000
0000
0000
,
0000
0000
0000
0000
,
0000
0000
0000
0000
,
0000
3003
0000
0000
;

//--------------- dance-double - Pandemonium X ----------------
#NOTES:
     dance-double:
     Pandemonium X:
     Easy:
     11:
     0,0,0,0,0:
00000000
00000000
00000000
00000000
,
00000000
00000000
00000000
00000000
,
00000000
00000000
00000000
00000000
,
00000000
00000000
00000000
00000000
,
00000000
00000000
00000000
00000000
,
00000000
00000000
00000000
00000000
,
00000000
00000000
00000000
00000000
,
00000000
00000000
00000000
00000000
,
00000000
00000000
00000000
00000000
,
00022000
00000000
00000000
00000000
,
00033000
00000000
00000000
00000000
,
00010000
00000100
00001000
00000010
,
00001010
00000010
00000100
00000001
,
00000010
00000100
00001000
00000100
,
00010100
00010000
00001000
01001000
,
01001000
01000000
00100000
10000000
,
11000000
01000000
00100000
00001000
,
00010000
00000100
00001000
00000010
,
00000100
00001001
00000000
00000000
00000001
00000000
00001000
00000100
,
00001000
00000100
00010000
00001000
,
01001000
00000000
01100000
00000000
,
01000000
00010000
10000000
01000000
,
00110000
00000000
00101000
00000000
,
00011000
00010000
00000100
00001000
,
00001010
00000010
00000100
00000001
,
00000011
00000010
00000110
00001000
,
00022000
00000000
00000000
00033000
,
00001000
01000000
00010000
00100000
,
01000000
10000000
00010000
01000000
,
00001000
00010000
00000100
00001000
,
00000010
00000010
00000100
00000100
,
00000001
00000010
00000100
00000010
,
00000001
00001000
00000100
00010000
,
00001000
01000000
00100000
10000000
,
00010000
10010000
00000000
00000000
10000000
00000000
00010000
00100000
,
00010000
00100000
01000000
10000000
,
10010000
00000000
00110000
00000000
,
00100000
00001000
00010000
00000010
,
00000110
00000000
00001001
00000000
,
00000101
00000001
00000100
00000010
,
00001010
00001000
00000100
00010000
,
00011000
00001000
01001000
01000000
,
01100000
10010000
11000000
00110000
,
20020000
00000000
00000000
00000000
,
30030000
00000000
00000000
00000000
,
00000000
00000000
00000000
00000000
,
00000000
00000000
00000000
00000000
,
10000000
01000000
00100000
00010000
,
00011000
00000000
00000000
00000000
,
00001000
00000100
00000010
00000001
,
00001001
00000110
00001001
00000000
,
00000001
00000100
00000010
00001000
,
00011000
00000000
00000000
00000000
,
00001000
01000000
00010000
00100000
,
01000000
10000000
00010000
00000000
,
10010000
00110000
00101000
00000000
,
00011000
00001100
00001010
00000000
,
00000101
00000011
00001001
00000000
,
00001100
00010100
00011000
00000000
,
01001000
01100000
11000000
10010000
,
00110000
00011000
00001100
00001001
,
00000002
00000103
00000020
00001030
,
00000200
00020300
00032000
02003000
,
00200000
00000000
00000000
00000000
,
03300000
00000000
00000000
00000000
,
10010000
00110000
00101000
00011000
,
00010200
00001300
00001020
00000130
,
00002002
00000000
00000000
00000000
,
00003003
00000000
00000000
00000000
,
00000001
00000100
00000010
00001000
,
00000100
00010000
00001000
01000000
,
00010000
00100000
01000000
10000000
,
00010000
01000000
00001000
00010000
,
00000200
00001300
00000020
00000130
,
00000002
00001003
00000200
00001300
,
00000010
00010000
00001000
00100000
,
00010000
00110000
00000000
00000000
01000000
00000000
01000000
10000000
,
00010000
10000000
00100000
01000000
,
00001000
00010000
00000010
00000100
,
00000001
00000010
00000100
00001000
,
00000100
00010000
00001000
01000000
,
00020000
00130000
02000000
13000000
,
00020000
01030000
00002000
00013000
,
00000200
00001300
00000020
00000130
,
00000010
00002002
00000000
00003003
00000001
00000100
00000010
00001000
,
00001100
00000000
00000000
00000000
,
00010100
00000000
00000000
00010000
,
00011000
00000000
00000000
00000000
,
01001000
00000000
01100000
10100000
,
10010000
00000000
00000000
00000000
00000000
00000000
00100000
00001000
,
00010000
00000000
00000000
00010100
,
00001100
00000000
00001010
00000000
,
00001001
00002001
00000000
00000000
00003001
00000010
00000100
00001000
,
00000001
00000100
00000010
00001000
,
00000100
00010000
00001000
01000000
,
00010000
00100000
01000000
10000000
,
00010000
00010000
10000000
10000000
,
00010000
01000000
10000000
01000000
,
00010000
00100000
00001000
00010000
,
00010100
00010100
00001100
00001001
,
00002000
00003020
00000230
00000302
,
00000003
00001001
00000000
00000000
;

//--------------- dance-double - Pandemonium X ----------------
#NOTES:
     dance-double:
     Pandemonium X:
     Medium:
     14:
     0,0,0,0,0:
00000000
00000000
00000000
00000000
,
00000000
00000000
00000000
00000000
,
00000000
00000000
00000000
00000000
,
00000000
00000000
00000000
00000000
,
00000000
00000000
00000000
00000000
,
00000000
00000000
00000000
00000000
,
00000000
00000000
00000000
00000000
,
00000000
00000000
00000000
00000000
,
00000000
00000000
00000000
00000000
,
00022000
00000000
00000000
00000000
,
00033000
00000000
00000000
00000000
,
00010000
00001000
00010000
00000100
00001000
00000010
00000100
00000001
,
00000011
00000000
00000010
00000001
00000100
00000010
00001000
00000010
,
00000100
00000010
00010000
00001000
00010000
00001000
01000000
00010000
,
00110000
00000000
00100000
01000000
10000000
00010000
10010000
00000000
,
10100000
00100000
01000000
00010000
00100000
00001000
00010000
00000010
,
00001010
00000000
00000010
00000100
00000001
00000010
00000100
00001000
,
00000100
00010000
00001000
01000000
00001000
00010000
00100000
01000000
,
11000000
10010000
00000000
00000000
10000000
01000000
00100000
00010000
,
00000000
00100000
00001000
00010000
00000010
00000100
00000001
00000010
,
00000011
00000000
00001001
00000000
,
00000001
00000100
00000010
00001000
00000100
00010000
00001000
01000000
,
01010000
00000000
10010000
00000000
,
11000000
00000000
01000000
00100000
00010000
00000000
00010000
00100000
,
00001000
00001000
00010000
00000010
00000100
00000100
00000001
00000010
,
00000100
00000000
00000010
00000001
00000100
00000000
00000010
00001000
,
00001100
00002200
00000000
00000000
00000000
00000000
00003300
00000000
,
00000100
00010000
00001000
01000000
00001000
00010000
00000100
00010000
,
00001000
00100000
00010000
10000000
01000000
00100000
00001000
00010000
,
00000010
00001000
00000010
00000100
00000001
00000010
00000100
00001000
,
00000001
00000010
00000100
00001000
00000100
00010000
00001000
01000000
,
00010000
00100000
01000000
00100000
00010000
01000000
00001000
00010000
,
00000100
00001000
00000010
00000100
00000001
00000010
00000100
00001000
,
00000100
00010000
00001000
01000000
00100000
10000000
01000000
00100000
,
00110000
10010000
00000000
00000000
10000000
01000000
00100000
00010000
,
00000000
01000000
10000000
01000000
00010000
00100000
00001000
00010000
,
00000010
00000000
00000101
00000000
,
00000001
00000100
00001000
00000100
00000001
00000010
00000100
00001000
,
00001100
00000000
00011000
00000000
,
01001000
00000000
01000000
00100000
10000000
00000000
10000000
00100000
,
01000000
01000000
00010000
00100000
01000000
01000000
00100000
00001000
,
00011000
00000000
00010000
00000100
00001100
00000000
00001000
00000010
,
00001010
00000010
00000001
00000010
00001000
00000100
00010000
00001000
,
00022000
00000000
00000000
00000000
,
00033000
00000000
00000000
00000000
,
00000000
00000000
00000000
00000000
,
00000000
00000000
00000000
00000000
,
00010000
00000100
00010000
00000100
00001000
00000000
00000100
00000000
,
00001100
00000000
00000000
00000000
,
00001000
00000010
00001000
00000010
00000100
00000000
00001010
00000000
,
00011000
00110000
00011000
00000000
,
00001000
01000000
00001000
01000000
00010000
00000000
00110000
00000000
,
10010000
00000000
00000000
00000000
,
11000000
00110000
01010000
10100000
,
10000000
00010000
00100000
00001000
00010000
00000000
00000200
00000000
,
00001300
00000000
00000000
00000010
00000000
00000000
00000100
00000000
00000001
00000020
00000000
00000000
,
00000130
00000000
00000000
00000010
00000000
00000000
00000001
00000000
00001000
00000200
00000000
00000000
,
00010300
00000000
00000000
00001000
00000000
00000000
01000000
00000000
00010000
00200000
00000000
00000000
,
01300000
00000000
00000000
10000000
00000000
00000000
00100000
00000000
01000000
00020000
00000000
00000000
,
10030000
01000000
00100000
00011000
,
00010000
00000100
00001000
00001001
,
00000001
00000000
00000001
00000100
00000000
00000100
00000010
00000000
00000010
00001000
00000000
00001000
,
00000100
00000000
00000100
00010000
00000000
00010000
00001000
00000000
00001000
01000000
00000000
00001000
,
00020000
00001000
00001000
00001000
,
00031000
00001000
00001000
00001000
,
00011000
00110000
00011000
00010010
,
00011000
00000000
00001000
01000000
00000000
01000000
00100000
00000000
00100000
01000000
00010000
10000000
,
00020000
00000000
00000000
00000000
,
10030000
00000000
00000000
00000000
,
00010000
00100000
00001000
00010000
00000010
00000100
00000001
00001000
,
00000100
00001000
00000010
00000100
00000001
00000010
00000100
00001000
,
00000100
00010000
00001000
01000000
00010000
10000000
01000000
00100000
,
00010000
10000000
00010000
01000000
00010000
00100000
01000000
10000000
,
00010000
00010000
01000000
00001000
00010000
00010000
00001000
00010000
,
00000010
00000010
00000100
00000001
00001000
00001000
00000100
00000010
,
00000011
00000000
00000000
00000001
00000010
00000000
00000000
00000010
00000100
00000000
00000000
00000100
00001000
00000000
00000000
00001000
,
00000100
00010000
00001000
01000000
00010000
00100000
01000000
10000000
,
00010000
01000000
00100000
10000000
00010000
00100000
01000000
10000000
,
00010000
00100000
00001000
00010000
00000010
00000100
00000001
00000010
,
00000100
00000010
00000001
00001000
00000100
00010000
00001000
01000000
,
00010000
00100000
00010000
00100000
01000000
10000000
01000000
10000000
,
00010000
01000000
10000000
01000000
00010000
00100000
00001000
00010000
,
00000010
00000001
00000010
00001000
00000001
00000010
00001000
00000010
,
00000011
00000000
00000000
00000001
00000010
00000000
00000000
00000010
00000100
00000000
00000000
00000100
00001000
00000000
00000000
00001000
,
00000100
00010000
00001000
01000000
00010000
00100000
01000000
10000000
,
10010000
00000000
00000000
00000000
,
00010000
00000000
00000000
00110000
,
00011000
00000000
00000000
00000000
,
00010100
00000000
00000100
00001010
,
00000101
00000000
00000000
00000000
00000000
00000000
00000000
00000000
00000000
00000000
00000000
00000000
00000001
00000000
00001000
00000001
,
00001000
00000000
00000000
00001001
,
00001100
00000000
00000100
00010000
,
00011000
00011000
00000000
00000000
00001000
00010000
00001000
00010000
,
00001000
01000000
00200000
01300000
00010000
20000000
31000000
00100000
,
00001000
00010000
00000020
00000130
00000001
00000020
00000130
00001000
,
00000001
00001000
00000010
00000100
00000001
00000010
00000100
00001000
,
00000100
00010000
00001000
00010000
00000010
00010000
00001000
00100000
,
00110000
00110000
00000000
00000000
00010000
00100000
01000000
10000000
,
11000000
11000000
00000000
00000000
00010000
01000000
00010000
00100000
,
00101000
00011000
00010100
00001010
,
00000010
00000100
00000001
00000010
00000100
00001000
00000100
00010000
00001000
01000000
00001000
00010000
,
00000000
00022000
00000000
00000000
,
00000000
00000000
00000000
00000000
,
00000000
00000000
00000000
00000000
,
00000000
00000000
00000000
00000000
,
00000000
00033000
00000000
00000000
;

//--------------- dance-double - Pandemonium X ----------------
#NOTES:
     dance-double:
     Pandemonium X:
     Hard:
     16:
     0,0,0,0,0:
00000000
00000000
00000000
00000000
,
00000000
00000000
00000000
00000000
,
00000000
00000000
00000000
00000000
,
00000000
00000000
00000000
00000000
,
00000000
00000000
00000000
00000000
,
00000000
00000000
00000000
00000000
,
00000000
00000000
00000000
00000000
,
00000000
00000000
00000000
00000000
,
00000000
00000000
00000000
00000000
,
00022000
00000000
00000000
00000000
,
00033000
00000000
00000000
00000000
,
00000100
00010000
00001000
01000000
00001000
00010000
00000100
00001000
,
00001010
00000000
00000010
00001000
00000100
00000001
00000100
00001000
,
00000001
00000100
00000010
00001000
00000100
00010000
00001000
01000000
,
01010000
00000000
00010000
00100000
10000000
00100000
00010000
10000000
,
00100000
01000000
00010000
00100000
00001000
00010000
00000010
00000100
,
00000001
00000000
00000010
00000001
00001000
00000010
00000001
00000010
,
00001000
00000100
00010000
00001000
01000000
00100000
10000000
01000000
,
00100000
10010000
00000000
00000000
00010000
00100000
01000000
10000000
,
00010000
01000000
10000000
01000000
00010000
00100000
00001000
00010000
,
00000010
00000000
00001001
00000000
,
00000000
00000001
00000100
00001000
00000100
00000010
00010000
00001000
,
00100000
00000000
11000000
00000000
,
10010000
00000000
00010000
01000000
01010000
00000000
10000000
00100000
,
10100000
00100000
00010000
00100000
01000000
00001000
00010000
00000100
,
00010100
00000000
00001000
00000010
00001010
00000000
00000010
00000100
,
00000101
00002002
00000000
00000000
00000000
00000000
00003003
00000000
,
00000001
00000000
00001000
00000100
00001000
00000000
00000100
00000000
00010000
00001000
00010000
00000000
00001000
00000000
01000000
00010000
,
01000000
00000000
00100000
00000000
10000000
00010000
10000000
00000000
00010000
00100000
00010000
00100000
00010000
00000000
10000000
00000000
,
00100000
00000000
10000000
01000000
10000000
00000000
00010000
00000000
00100000
00001000
00100000
00000000
00001000
00000000
00010000
00000000
,
00000100
00001000
00000100
00001000
00000100
00000000
00000010
00000000
00000001
00001000
00000001
00001000
00000001
00000000
00000100
00000000
,
00000010
00000000
00001000
00000100
00001000
00000000
00000100
00000000
00010000
00001000
00010000
00000000
00001000
00000000
00100000
00010000
,
00100000
00000000
01000000
00000000
10000000
00010000
10000000
00000000
00010000
01000000
00010000
01000000
00010000
00000000
10000000
00000000
,
01000000
00000000
00100000
00010000
00100000
00000000
00001000
00000000
00010000
00000100
00010000
00000000
00000100
00000000
00001000
00000000
,
00001010
00001001
00000000
00000000
00000110
00000000
00001001
00001001
,
00001001
00001000
00000010
00010000
00001000
00100000
01000000
10000000
,
10200000
01000000
20000000
30300000
,
01000000
00010000
00100000
00001000
00010000
00000010
00000100
00001000
,
00001200
00000001
00000310
00000000
,
00001001
00000000
00000001
00000010
00001100
00000000
00000100
00010000
,
00011000
00001000
01000000
00100000
00010000
00100000
10000000
01000000
,
01100000
00000000
01000000
00100000
10010000
00000000
00010000
01000000
,
00010000
00000000
00100000
00001000
00010000
00000010
00000100
00000001
00000010
00000100
00001000
00000100
00010000
00001000
01000000
00020000
,
20000000
00000000
00000000
00000000
,
30030000
00000000
00000000
00000000
,
00000000
00000000
00000000
00000000
,
00000000
00000000
00000000
00000000
,
00010000
00100000
00001000
00010000
00000010
00000000
00000110
00000000
,
00001001
00000000
00000000
00000000
,
00000010
00010000
00001000
00100000
00010000
00000000
00110000
00000000
,
11000000
10100000
20020000
30030000
,
01000000
00001000
00010000
00000100
00001000
00000000
00001100
00000000
,
00001001
00000000
00000000
00000000
,
00000101
00001100
00001001
00001100
,
00000100
00010000
00001000
01000000
00010000
00000000
20000000
00000000
,
31000000
00000000
00000000
00110000
00000000
00000000
00011000
00000000
00000100
00000020
00000000
00000000
,
00000031
00000000
00000000
00000101
00000000
00000000
00001001
00000000
00000010
00020000
00000000
00000000
,
00031000
00000000
00000000
00101000
00000000
00000000
00110000
00000000
01000000
20000000
00000000
00000000
,
30100000
00000000
00000000
01010000
00000000
00000000
01001000
00000000
00001000
00020000
00000000
00000000
,
00030200
00020300
00032000
01003000
,
02000000
03002000
00023000
00030100
,
00010000
00000100
00010000
00000100
00010000
00000100
00001000
00000010
00001000
00000010
00001000
00000010
,
00000100
00001000
00000100
00000001
00000010
00000100
00001000
00000100
00010000
00001000
01000000
00001000
,
00020000
00001000
00001000
00001000
,
00031000
00001000
00001000
00001000
,
00011000
00110000
01100000
11000000
,
10000000
01000000
00010000
00001000
00000010
00000001
00002000
00000000
00003100
00010000
00001000
00010000
,
00002000
00000000
00000000
00000000
,
00013000
00000000
00001000
00000000
,
01000000
00000000
00010000
00100000
00010000
00000000
10000000
00000000
01000000
00100000
01000000
00000000
00100000
00000000
00001000
00010000
,
00001000
00000000
00010000
00000100
00010000
00000000
00000100
00001000
00000100
00000000
00001000
00000010
00001000
00000000
00000010
00000000
,
00000100
00000000
00000001
00000010
00000001
00000000
00000100
00000000
00000001
00001000
00000001
00000000
00001000
00000000
00000100
00010000
,
00000100
00000000
00010000
00001000
00010000
00000000
00001000
01000000
00001000
00000000
01000000
00010000
00100000
01000000
10000000
00010000
,
01000000
00010000
00100000
01000000
10000000
00010000
01000000
00001000
,
00010000
00000100
00001000
00000010
00000100
00000001
00000010
00000100
,
00001000
00000000
00000100
00001000
00000100
00000000
00000100
00000010
00000100
00000000
00000100
00001000
00000100
00000000
00000100
00000010
,
00000100
00000000
00001001
00000000
00000001
00000000
00000100
00000000
00000010
00001000
00000010
00000100
00000010
00001000
00000010
00001000
,
00000001
00000000
00000010
00000100
00000010
00000000
00000100
00000000
00001000
00000100
00001000
00000000
00000100
00000000
00010000
00001000
,
00010000
00000000
00001000
01000000
00001000
00000000
01000000
00100000
01000000
00100000
10000000
00100000
10000000
00010000
10000000
00000000
,
00010000
00000000
00100000
01000000
00100000
00000000
01000000
00000000
10000000
00010000
10000000
00000000
00010000
00000000
01000000
00010000
,
00100000
00000000
00010000
00100000
00001000
00000000
00010000
00000010
00000100
00000010
00001000
00000010
00000100
00000001
00000010
00000100
,
00001000
00000100
00001000
00000100
00001000
00000000
00000100
00000000
00010000
00001000
00010000
00001000
00010000
00000000
00001000
00000000
,
01000000
00010000
01000000
00010000
01000000
00000000
00010000
00000000
00100000
01000000
00100000
01000000
00100000
00000000
00010000
00000000
,
10000000
00000000
00010000
01000000
00010000
00000000
00010000
10000000
00010000
00000000
00010000
00100000
00010000
00000000
00010000
10000000
,
01000000
00100000
00010000
00100000
01000000
10000000
00010000
01000000
00001000
00010000
00000100
00001000
00000010
00000100
00000001
00001000
,
00000100
00000000
00000000
00000000
,
00001100
00000000
00000000
00010000
,
00011000
00000000
00000000
00000000
,
01001000
00000000
01010000
10010000
,
11000000
00000000
00000000
00000000
00000000
00000000
00000000
00000000
00000000
00000000
00000000
00000000
11000000
00000000
01000000
00100000
,
00010000
00000000
00000000
00110000
,
00101000
00000000
00011000
00000000
,
00010100
00010200
00000000
00000000
00001000
00001000
00001000
00001300
,
00000001
00000000
00000100
00000010
00000100
00000000
00000010
00000000
00001000
00000100
00001000
00000000
00000100
00010000
00000100
00000000
,
00010000
00000000
00001000
01000000
00001000
00000000
01000000
00000000
00010000
00100000
00010000
00000000
00100000
01000000
00100000
00000000
,
01000000
00000000
10000000
00000000
00100000
00000000
01000000
00000000
00001000
00000000
00010000
00000000
00000100
00000000
00001000
00000010
,
00000100
00000000
00000010
00001000
00000001
00000000
00000010
00000100
00001000
00000000
00000100
00000010
00000001
00000010
00000100
00000010
,
00000001
00000001
00000100
00001000
00010000
00010000
00001000
01000000
,
00100000
00100000
00010000
00100000
10000000
10000000
01000000
00100000
,
00010000
00000000
00010000
00100000
00000000
00100000
00001000
00000000
00001000
00010000
00000000
00010000
,
00000010
00000100
00001000
00000100
00000001
00000010
00000100
00001000
00000100
00010000
00001000
00100000
,
00000000
00022000
00000000
00000000
,
00000000
00000000
00000000
00000000
,
00000000
00000000
00000000
00000000
,
00000000
00000000
00000000
00000000
,
00000000
00033000
00000000
00000000
;

//--------------- dance-double - Pandemonium X ----------------
#NOTES:
     dance-double:
     Pandemonium X:
     Challenge:
     17:
     0,0,0,0,0:
00000000
00000000
00000000
00000000
,
00000000
00000000
00000000
00000000
,
00000000
00000000
00000000
00000000
,
00000000
00000000
00000000
00000000
,
00000000
00000000
00000000
00000000
,
00000000
00000000
00000000
00000000
,
00000000
00000000
00000000
00000000
,
00000000
00000000
00000000
00000000
,
00000000
00000000
00000000
00000000
,
00200020
00000000
00000000
00000000
,
00300030
00000000
00000000
00000000
,
00011000
00010000
00000010
00000100
00001000
00000100
00000001
00001000
,
00000011
00000000
00000001
00001000
00000001
00000100
00001000
00000010
,
00000001
00000100
00001000
00010000
00001000
01000000
00100000
00010000
,
10100000
00000000
10000000
00010000
10000000
01000000
00010000
00100000
,
10000000
01000000
00100000
01000000
10000000
00010000
01000000
00001000
,
00010100
00000000
00010000
00000100
00010000
00000010
00000100
00001000
,
00000010
00000100
00000001
00001000
00000100
00010000
00001000
01000000
,
00100000
10010000
00000000
00000000
00010000
00100000
00010000
10000000
,
00000000
10000000
01000000
00100000
00001000
00010000
00000100
00001000
,
00001010
00000000
00000011
00000000
,
00000101
00000100
00001000
00010000
00001000
01000000
00010000
00100000
,
01100000
00000000
10010000
00000000
,
01001000
00000000
00001000
00010000
00000100
00000000
00001000
00000010
,
00001010
00000010
00000001
00000010
00000100
00000010
00010000
00000100
,
00010100
00000000
00010000
00001000
01001000
00000000
01000000
00001000
,
00011000
00022000
00000000
00000000
00033000
00000000
00010000
00000100
,
00001000
00000010
00000100
00000010
00001000
00000000
00000001
00000100
00000010
00000100
00000001
00000000
00001000
00000010
00000100
00000010
,
00001000
00000000
00000001
00000100
00000010
00000100
00000001
00000000
00001000
00000010
00001000
00000100
00001000
00000100
00010000
00001000
,
01000000
00010000
00100000
00010000
01000000
00000000
00100000
10000000
00100000
01000000
00100000
00000000
01000000
00010000
00100000
00010000
,
01000000
00100000
01000000
00100000
01000000
00000000
00100000
00000000
10000000
00100000
10000000
01000000
00100000
00000000
00010000
00000000
,
01000000
00010000
10000000
01000000
10000000
00000000
00100000
00010000
10000000
00100000
10000000
00000000
00010000
10000000
01000000
10000000
,
00010000
00000000
00100000
00010000
10000000
00100000
10000000
00000000
00010000
00100000
00001000
00010000
00000010
00000100
00000001
00000010
,
00000100
00001000
00000001
00000100
00000001
00000000
00001000
00000001
00000010
00000001
00001000
00000000
00000100
00001000
00000001
00000100
,
00000010
00001001
00000000
00000000
00000001
00000100
00001000
00000010
,
00000001
00000100
00001000
00010000
00100000
10000000
01000000
00100000
,
00011000
00000000
01000100
00000000
,
00001000
01000000
10000000
01000000
00010000
00100000
00001000
00010000
,
00011000
00000000
00100010
00000000
,
00001001
00000000
00000001
00000100
00001000
00000000
00001000
00000100
,
00000001
00000010
00001000
00000010
00000001
00000100
00001000
00010000
,
00011000
00000000
00001000
01000000
01001000
00000000
01000000
00100000
,
10010000
00000000
10000000
00010000
00100000
00001000
00010000
00000010
00000100
00000001
00000010
00000100
00001000
00000100
00010000
00002000
,
00020000
00000000
00000000
00000000
,
00033000
00000000
00000000
00000000
,
00000000
00000000
00000000
00000000
,
00000000
00000000
00000000
00000000
,
00001000
01000000
00100000
10000000
01000000
00000000
00110000
00000000
,
00101000
00000000
00000000
00000000
,
00001000
01000000
00100000
10000000
01000000
00000000
00110000
00000000
,
00101000
00011000
00001100
00000000
,
00001000
01000000
00100000
10000000
01000000
00000000
00110000
00000000
,
00101000
00000000
00000000
00000000
,
00011000
00001010
00000101
00001001
,
00000001
00000100
00001000
00000010
00000002
00000000
00001003
00000000
,
00001001
00011000
10010000
00000000
,
10010000
00011000
00001001
00000000
,
00001001
00011000
10010000
00000000
,
10010000
00011000
00001001
00000000
,
00001001
00011000
10010000
01100000
,
10010000
00011000
00001001
00000110
,
00000001
00000100
00000001
00000010
00001000
00000100
00000010
00000001
00000010
00000100
00001000
00000100
,
00010000
00000100
00010000
00001000
01000000
00001000
00010000
00000100
00001000
00000010
00001000
00000100
,
00020000
00000100
00000010
00000100
,
00000010
00000000
00000100
00000000
00000010
00000000
00000100
00030000
,
00001100
01010000
00110000
00001010
,
00000100
00010000
00001000
00100000
00001000
00010000
00000020
00000000
00010030
00001000
01000000
00010000
,
00220000
00000000
00000000
00000000
,
00300000
00000000
00030000
00000000
,
10010000
00000000
10000000
00100000
01000000
00000000
00010000
00000000
00100000
00001000
00010000
00000000
00000100
00000000
00001000
00000010
,
00000100
00000000
00000001
00000010
00000100
00000000
00000010
00000001
00001000
00000100
00000010
00000001
00000010
00000001
00000100
00000010
,
00000100
00000000
00000010
00001000
00000100
00000000
00010000
00000000
00001000
01000000
00010000
00000000
00100000
00000000
01000000
10000000
,
00100000
00000000
01000000
00010000
00100000
00000000
01000000
00100000
00010000
00100000
00001000
00010000
00000010
00000100
00000001
00001000
,
00000200
00010300
00001000
01000000
00020000
00130000
01000000
10000000
,
00200000
01300000
00100000
10000000
00020000
00130000
01000000
10000000
,
10010000
00000000
00000000
10000000
00010000
00000000
00000000
00010000
00001000
00000000
00000000
00001000
00000001
00000000
00001000
00000000
,
00000001
00000100
00000010
00001000
00000001
00000100
00000010
00001000
00000001
00000010
00000100
00001000
00000001
00000010
00000100
00001000
,
00000001
00000000
00001000
00000100
00001000
00000000
00000010
00000000
00010000
00001000
00010000
00000000
00001000
00000000
01000000
00010000
,
00100000
00000000
01000000
00100000
00010000
00000000
00010000
10000000
00100000
01000000
00010000
00100000
01000000
10000000
01000000
00100000
,
01000000
00000000
10000000
00100000
10000000
00000000
00100000
00000000
01000000
00010000
01000000
00000000
00010000
00000000
00100000
00001000
,
00020000
00000000
00030100
00001000
00000020
00000000
00000130
00000001
00000010
00001000
00000010
00000001
00000100
00000010
00001000
00000100
,
00010000
00000100
00010000
00000100
00010000
00000000
00011000
00000000
00001000
01000000
00001000
01000000
00001000
00000000
00011000
00000000
,
00010000
00000010
00010000
00000010
00010000
00000000
00011000
00000000
00001000
00100000
00001000
00100000
00001000
00000000
00011000
00000000
,
00011000
00000000
01000000
00010000
00200000
00000000
01300000
10000000
00020000
00000000
00130000
00001000
00020000
00000000
00030100
00001000
,
00000010
00000100
00001000
00000100
00000001
00000010
00001000
00000010
00000001
00000100
00000010
00001000
00000100
00100000
00010000
10000000
,
00010000
00000000
00000000
00000000
,
00110000
00000000
00000000
00101000
,
00010100
00000000
00000000
00000000
,
00100010
00000000
00010010
00011000
,
01000100
00000000
00000000
00000000
00000000
00000000
00000000
00000000
00000000
00000000
00000000
00000000
01001000
00000000
00001000
00100000
,
00010000
00000000
00000000
10010000
,
00011000
00000000
00100010
00000000
,
00100000
00001000
00010000
00000010
00000100
00000010
00001000
00000100
00010000
00001000
01000000
00010000
00100000
01000000
10000000
00010000
,
01000000
00010000
00100000
01000000
20000000
00000000
30010000
00100000
00001000
00010000
00000020
00000000
00000130
00001000
00000100
00000001
,
00001000
00000100
00000010
00000100
00002000
00000000
00003100
00010000
00001000
01000000
00020000
00000000
00130000
10000000
00100000
00010000
,
10000000
00000000
00010000
00000000
02000000
00000000
03200000
00000000
10300000
00000000
00010000
00000000
00200000
00000000
00301000
00010000
,
00000020
00000000
00000130
00000010
00020000
00000000
00031000
01000000
00200000
00000000
01300000
00010000
00100000
10000000
00100000
00010000
,
10010000
01000000
00001000
00010000
00010100
00000100
00001000
00000010
,
00001010
00000010
00000100
00000001
00001001
00000001
00000010
00000100
,
00001100
00000000
00000000
00000100
00010000
00000000
00000000
00010000
00001000
00000000
00000000
00001000
01000000
00000000
00000000
01000000
,
00100000
01000000
00010000
10000000
01000000
00100000
00010000
00001000
00000100
00000010
00000001
00001000
,
00000010
00022000
00000000
00000000
,
00000000
00000000
00000000
00000000
,
00000000
00000000
00000000
00000000
,
00000000
00000000
00000000
00000000
,
00000000
00033000
00000000
00000000
;
