#TITLE:Across the Sky;
#SUBTITLE:;
#ARTIST:Kohta Imafuku;
#TITLETRANSLIT:;
#SUBTITLETRANSLIT:;
#ARTISTTRANSLIT:;
#GENRE:;
#CREDIT:;
#MUSIC:Across the Sky.ogg;
#BANNER:Across the Sky.png;
#BACKGROUND:Across the Sky-bg.png;
#CDTITLE:cdtitle.png;
#SAMPLESTART:84.398;
#SAMPLELENGTH:13.723;
#SELECTABLE:YES;
#OFFSET:1.316;
#BPMS:0.000=140.000;
#STOPS:;
#ORIGIN:;
#TAGS:;
#PREVIEWVID:;
#JACKET:Across the Sky-jacket.png;
#CDIMAGE:;
#DISCIMAGE:;
#BGCHANGES:3.000=Across the Sky.mp4=1.000=0=0=1,
99999.000=-nosongbg-=1.000=0=0=0=StretchNoLoop====
;
#FGCHANGES:;

//--------------- dance-single - Pandemonium X ----------------
#NOTES:
     dance-single:
     Pandemonium X:
     Beginner:
     3:
     0.158335,0.22167,0.054066,0.07434,0,164,156,8,11,0,0,0,0,0,0.158335,0.22167,0.054066,0.07434,0,164,156,8,11,0,0,0,0,0:
0000
0000
0000
0000
,
0000
0000
0000
0000
,
0000
0000
0000
0000
,
0000
0000
0000
0000
,
0000
0000
0000
0000
,
0000
0000
0000
0000
,
0001
0000
1000
0000
,
0001
0000
1000
0000
,
0001
0000
1000
0000
,
0001
0000
1000
0000
,
0120
0000
0000
0000
,
0230
0000
0000
0000
,
0302
0000
0000
0000
,
2003
0000
0000
0000
,
3001
0000
0001
0000
,
1000
0000
1000
0000
,
0020
0000
0000
0000
,
0230
0000
0000
0300
,
1001
0000
0000
0000
,
1000
0000
0010
0000
,
0100
0000
0000
0000
,
0100
0000
0001
0000
,
0010
0000
0000
0000
,
0100
0000
0010
0000
,
0001
0000
0000
0000
,
1000
0000
0001
0000
,
0100
0000
0000
0000
,
0010
0000
0100
0000
,
0001
0000
0000
0000
,
1000
0000
0100
0000
,
0010
0000
0000
0000
,
0100
0000
0010
0000
,
0001
0000
0000
0000
,
1000
0000
0001
0000
,
0110
0000
0000
0000
,
0010
0000
1000
0001
,
1000
0000
0000
0000
,
0100
0000
0010
0001
,
0010
0000
0000
0000
,
0001
0000
1000
0010
,
1000
0000
0000
0000
,
0001
0000
1000
0000
,
0110
0000
0100
0000
,
0001
0000
1000
1000
,
0100
0000
0010
0000
,
0001
0000
0100
0100
,
0010
0000
0100
0000
,
0010
0000
1000
0000
,
0010
0000
1000
0000
,
0001
1000
0010
0000
,
1001
0000
0001
0000
,
1000
0001
1000
0000
,
0010
0000
0100
0000
,
0001
0010
0001
0000
,
0010
0000
0100
0000
,
1000
0010
1000
0000
,
0001
0000
1000
0000
,
0100
0010
0100
0000
,
0010
0000
0001
0000
,
0100
0010
0100
0000
,
0010
0000
1000
0000
,
0100
1000
0100
0010
,
0001
0000
1000
0000
,
0010
0100
0010
0000
,
1000
0000
0001
0000
,
0010
0000
0001
0000
,
1000
0000
0001
0000
,
0200
0000
0310
0000
,
0100
0000
0010
0000
,
2000
0000
3001
0010
,
0100
0000
0010
0000
,
0200
0000
1300
0001
,
0100
0000
0001
0000
,
1000
1000
0001
0001
,
0010
0000
0001
0000
,
2000
0000
3001
1000
,
0010
0000
1000
0000
,
0200
0000
0310
0100
,
1000
0000
0001
0000
,
0100
0000
0001
0001
,
1000
0000
0010
0000
,
0110
0000
1001
0000
,
0110
0000
0000
0000
;

//--------------- dance-single - Pandemonium X ----------------
#NOTES:
     dance-single:
     Pandemonium X:
     Easy:
     7:
     0,0,0,0,0,0,0,0,0,0,0,0,0,0,0,0,0,0,0,0,0,0,0,0,0,0,0,0:
0000
0000
0000
0000
,
0000
0000
0000
0000
,
0000
0000
0000
0000
,
0000
0000
0000
0000
,
0000
0000
0000
0000
,
0000
0000
0000
0000
,
0001
0000
1000
0000
,
0010
0000
0100
0000
,
0001
0000
0010
0000
,
0100
0000
1000
0000
,
0100
0000
0000
2000
0000
0000
0000
0000
,
3020
0000
0000
0000
0000
0130
0000
0000
,
0002
0000
0000
2000
0000
0000
3003
0000
,
0002
0000
0000
0200
0000
0000
0303
0000
,
0010
0010
0100
0100
,
0001
0001
1000
1000
,
0001
0100
0010
1000
,
0220
0000
0000
0330
,
1001
0000
0000
0001
0000
0000
1000
0000
,
0100
0000
1000
0010
,
0100
0000
0000
0001
0000
0000
0100
0000
,
0010
0000
0100
0001
,
1001
0000
0000
1000
0000
0000
0100
0000
,
0010
0000
0100
1000
,
0001
0000
0000
1000
0000
0000
0010
0000
,
1000
0100
0010
0001
,
1001
0000
0000
0001
0000
0000
1000
0000
,
0010
0000
0100
0010
,
1000
0000
0000
0100
0000
0000
0010
0000
,
0100
0000
0010
0001
,
0101
0000
0000
0001
0000
0000
0100
0000
,
0010
0000
0100
0010
,
1000
0000
0000
0001
0000
0000
1000
0000
,
0001
0001
1000
1000
,
0101
0001
0100
0010
,
1000
1000
0001
0001
,
0010
0001
0100
0010
,
1000
0100
0001
0100
,
1000
0010
0100
0001
,
0010
0010
0100
0100
,
0010
0001
1000
0010
,
0001
0010
1000
0001
,
1001
0000
0001
0100
0001
0000
0100
0000
,
0010
0000
1000
0010
1000
0000
0010
0000
,
1001
0000
1000
0100
1000
0000
0001
0000
,
1000
0000
0001
0010
0001
0000
1000
0000
,
0201
0000
0310
0000
0100
0010
1000
0000
,
2100
0000
3010
0000
0100
0001
1000
0000
,
0100
0010
0001
0010
,
0100
0000
0000
1000
0000
0000
0010
0000
0100
0000
0000
0001
0000
0000
0000
0000
,
1001
0001
0100
0010
,
1000
0000
0010
0000
0100
0001
0100
0001
,
0010
0100
0010
0001
,
1000
0000
1000
0000
0010
0100
1000
0100
,
0010
0100
0001
1000
,
0100
0000
0010
0000
0100
1000
0100
0010
,
0100
1000
0010
0100
,
0001
0001
1000
1000
,
1001
0001
0100
0010
,
0100
0000
0001
0000
1000
0100
0010
0100
,
1000
0100
0010
0001
,
0100
0000
1000
0000
0100
0010
1000
0001
,
0010
0100
0010
0001
,
1000
0000
0001
0000
0100
0001
0010
0001
,
0100
0001
1000
0100
,
0110
0001
1001
0001
,
1010
0000
0000
0010
0000
0000
0100
0000
,
0101
0000
0000
0000
1000
0100
0010
0001
,
1000
0000
0000
0001
0000
0000
0100
0000
,
0110
0000
0000
0000
0100
0010
1000
0001
,
1001
0000
0000
1000
0000
0000
0001
0000
,
0011
0000
0000
0000
0010
0100
1000
0001
,
0101
0000
0000
0001
0000
0000
1000
0000
,
1100
0000
0011
0000
,
0011
0000
0000
0010
0000
0000
1100
0000
,
1001
0000
0000
0000
0001
0100
0010
1000
,
1010
0000
0000
0101
0000
0000
1001
0000
,
1100
0000
0000
0000
1000
0100
0010
0001
,
0010
0000
0000
0001
0000
0000
1000
0000
,
0100
0000
0000
0000
0010
0100
1000
0001
,
0010
0001
0100
0010
,
1000
0000
0000
1000
0000
0000
1000
0000
0001
0000
0000
0001
0000
0000
1000
0000
,
0010
0000
0000
0000
;

//--------------- dance-single - Pandemonium X ----------------
#NOTES:
     dance-single:
     Pandemonium X:
     Medium:
     11:
     0,0,0,0,0,0,0,0,0,0,0,0,0,0,0,0,0,0,0,0,0,0,0,0,0,0,0,0:
0000
0000
0000
0000
,
0000
0000
0000
0000
,
0000
0000
0000
0000
,
0000
0000
0000
0000
,
0000
0000
0000
0000
,
0000
0000
0000
0000
,
2000
0000
3001
0100
0020
0000
1030
0100
,
0002
0000
0103
1000
0020
0000
1030
0010
,
0002
0000
0013
0100
0002
0000
1003
0100
,
0002
0000
0103
1000
0020
0000
0130
0001
,
1002
0000
0103
2001
0001
0000
3001
0000
,
1002
0000
0100
0000
0100
0203
0000
0000
,
0320
0000
1030
2010
0000
0000
0000
0000
,
3200
0000
0310
0012
0000
0000
0013
0100
,
1000
0000
0001
1000
0010
0000
1000
0001
,
0010
0000
0001
1000
0100
0000
1000
0001
,
0100
0001
0100
0000
0010
1000
0010
0000
,
1000
1000
0001
0001
0100
0100
0010
0010
,
1001
0000
0000
0001
0000
0000
1000
0000
,
1100
0000
0000
0000
1000
0100
0010
0001
,
0010
0000
0000
0001
0000
0000
0100
0000
,
0110
0000
0000
0000
0010
0001
0010
1000
,
0001
0000
0000
1000
0000
0000
0010
0000
,
1010
0000
0000
0000
0001
0100
0010
1000
,
0100
0000
0000
0010
0000
0000
0100
0000
,
1000
0000
0000
1000
0000
0000
1000
0000
0001
0000
0000
0001
0000
0000
0001
0000
,
0101
0000
0000
0001
0000
0000
0010
0000
,
1100
0000
0000
0000
0100
0010
0001
1000
,
0010
0000
0000
0100
0000
0000
0001
0000
,
1001
0000
0000
0000
1000
0100
0001
0100
,
1000
0000
0000
0010
0000
0000
0100
0000
,
0101
0000
0000
0000
0001
0010
0100
1000
,
0001
0000
0000
1000
0000
0000
0010
0000
,
0100
0000
0000
0100
0000
0000
0100
0000
0010
0000
0000
0010
0000
0000
0010
0000
,
1000
0001
0000
0000
1000
0000
0000
0000
0001
0000
0000
0000
0010
0000
0000
0000
,
0001
0000
0000
0001
0000
0000
0001
0000
1000
0000
0000
0000
0010
0000
0000
0000
,
0100
0001
0000
0000
1000
0000
0000
0000
0010
0000
0000
0000
1000
0000
0000
0000
,
0100
0000
0000
0100
0000
0000
0100
0000
0010
0000
0100
0000
1000
0000
0001
0000
,
0100
0001
0000
0000
1000
0000
0000
0000
0100
0000
0000
0000
0010
0000
0000
0000
,
0100
0000
0000
0100
0000
0000
0100
0000
0010
0000
0001
0000
0100
0000
0000
0000
,
0010
1000
0000
0000
0001
0000
0000
0000
1000
0000
0000
0000
0001
0000
0000
0000
,
0010
0000
0000
0010
0000
0000
0010
0000
0100
0000
0000
0100
0000
0000
0100
0000
,
1100
0000
0000
0000
1000
0000
0100
0000
0010
0000
0000
0010
0000
0000
0010
0000
,
0001
0000
0000
0000
0001
0000
0010
0000
0100
0000
0000
0100
0000
0000
0100
0000
,
1000
0000
0000
0000
1000
0000
0001
0000
0100
0000
0000
0100
0000
0000
0100
0000
,
0010
0000
0000
0000
0010
0000
1000
0000
0100
0000
0000
0100
0000
0000
0100
0000
,
0010
0001
0000
0000
0100
0000
0000
0000
0010
0000
0000
0000
1000
0000
0000
0000
,
0100
0010
0000
0000
0100
0000
0000
0000
1000
0000
0000
0000
0010
0000
0000
0000
,
0100
0001
0000
0000
0010
0000
0000
0000
0100
0000
0000
0000
1000
0000
0000
0000
,
0001
0000
1000
0001
0000
0001
1000
0000
0010
0000
0100
0001
0000
0000
0000
0000
,
0010
0000
0000
0000
0001
0000
0000
0100
0000
0100
0000
0000
0010
0000
0000
0000
,
1000
0000
0000
1000
0000
0000
1000
0000
0001
0000
0010
0000
0100
0000
1000
0000
,
0001
0000
0000
0000
1000
0000
0000
0100
0000
0100
0000
0000
0010
0000
0000
0000
,
0100
0000
0000
0100
0000
0000
0100
0000
0001
0000
0100
0000
1000
0000
0010
0000
,
0100
0000
0000
0000
0001
0000
0000
1000
0000
1000
0000
0000
0001
0000
0000
0000
,
0100
0000
0000
0001
0000
0000
0010
0000
1000
0000
0010
0000
0001
0000
0100
0000
,
0010
0000
0000
0000
0100
0000
0000
0001
0000
0001
0000
0000
1000
0000
0000
0000
,
0001
0000
0100
0001
0000
0100
0001
0000
1000
0000
0010
0100
0000
0010
0100
0000
,
0001
1000
0000
0000
0100
0000
0000
0010
0000
0010
0000
0000
0100
0000
0000
0000
,
1000
0000
0000
0001
0000
0000
0100
0000
0001
0000
0010
0000
0100
0000
1000
0000
,
0001
0100
0000
0000
0010
0000
0000
1000
0000
1000
0000
0000
0010
0000
0000
0000
,
0100
0000
0000
0001
0000
0000
0010
0000
1000
0000
0010
0000
0001
0000
0100
0000
,
0010
1000
0000
0000
0100
0000
0000
0010
0000
0010
0000
0000
0100
0000
0000
0000
,
0010
0000
0000
0010
0000
0000
0010
0000
0001
0000
0010
0000
0100
0000
1000
0000
,
0001
1000
0000
0000
0001
0000
0000
0100
0000
0100
0000
0000
0001
0000
0000
0000
,
1000
0000
0000
0100
0000
0000
0001
0000
0100
0000
0000
1000
0000
0000
0010
0000
,
0200
0000
0000
0302
0000
0000
0023
0000
,
0230
0000
0000
0000
1300
0100
0001
0100
,
2000
0000
0000
3020
0000
0000
0230
0000
,
0302
0000
0000
0000
1003
0100
0001
0100
,
2000
0000
0000
3020
0000
0000
0230
0000
,
0302
0000
0000
0000
1003
0010
0001
0010
,
2000
0000
0000
3020
0000
0000
0230
0000
,
0301
0000
1000
0001
0000
1000
0001
0000
1001
0000
0001
1000
0000
0001
1000
0000
,
1010
0000
0100
0002
0000
0013
0200
0000
,
2000
0000
3300
0000
1000
0100
0001
0100
,
1200
0000
1300
0020
0000
0130
0002
0000
,
2000
0000
3003
0000
0001
0010
0100
1000
,
0010
0000
0000
0100
0000
0000
0001
0000
,
1001
0000
0000
0000
1000
0100
0010
0001
,
0010
0001
0100
0010
1000
0001
0100
0010
,
1000
0000
1000
0100
0000
0100
0010
0000
0011
0000
0001
0010
0000
0010
0100
0000
,
1100
0000
0000
0000
;

//--------------- dance-single - Pandemonium X ----------------
#NOTES:
     dance-single:
     Pandemonium X:
     Hard:
     15:
     0,0,0,0,0,0,0,0,0,0,0,0,0,0,0,0,0,0,0,0,0,0,0,0,0,0,0,0:
0000
0000
0000
0000
,
0000
0000
0000
0000
,
0000
0000
0000
0000
,
0000
0000
0000
0000
,
0000
0000
0000
0000
,
0000
0000
0000
0000
0000
0000
0001
1000
,
0010
0100
0010
0000
1000
0001
1000
0000
0001
0000
0000
1000
0000
0100
0010
0000
,
0100
0010
0000
0100
0000
1000
0010
0000
0100
0001
0000
1000
0000
0001
0010
0000
,
0100
0010
0000
0001
0000
1000
0100
0000
0010
0100
0000
1000
0000
0100
1000
0000
,
0001
1000
0000
0010
0000
0100
0001
0000
0010
0100
0000
1000
0000
0001
1000
0000
,
2100
0000
3100
0021
0001
0000
0100
0000
,
0032
0000
0100
0000
0013
0002
0013
0100
,
0120
0000
0130
1002
1000
0000
0103
0000
,
0120
0000
0130
2001
0100
0000
3001
1000
,
1010
0000
0000
0001
0100
0000
0010
0000
1001
0000
0000
1000
0100
0000
0010
0000
,
1001
0000
0000
1000
0100
0000
1000
0000
1010
0000
0000
0001
0100
0000
0001
0000
,
0011
0010
0001
0100
0010
0010
0100
0001
,
1000
1000
0001
0001
0101
1010
0100
0001
,
1001
0000
0000
1000
0000
0000
0010
0000
,
0110
0000
0000
0000
0010
0001
0010
1000
,
0001
0000
0000
0010
0000
0000
0100
0000
,
1100
0000
0000
0000
1000
0100
0001
0100
,
1000
0000
0000
0010
0000
0000
0100
0000
,
0101
0000
0000
0000
0100
1000
0100
0001
,
1000
0000
0000
0100
0000
0000
0010
0000
,
1100
0000
0000
1000
0000
0000
1000
0000
0101
0000
0000
0001
0000
0000
0001
0000
,
0010
0100
0010
0000
0100
1000
0100
0000
1000
0010
1000
0000
0001
0100
0001
0000
,
0011
0000
0000
0000
0100
1000
0100
0001
,
0100
0000
0000
0010
0000
0000
0001
0000
,
1001
0000
0000
0000
0001
0010
1000
0010
,
0001
0000
0000
0010
0000
0000
0100
0000
,
1001
0000
0000
0000
0001
1000
0100
0001
,
0100
0000
0000
0100
0010
0000
0010
0001
0000
0001
0000
0001
0100
0000
0010
0000
,
1000
0000
0001
1000
0000
0001
1000
0000
1001
0000
1000
0001
0000
1000
0001
0000
,
1000
0010
0000
0000
0100
0000
0000
0001
0000
0010
0000
0000
0100
0000
1000
0000
,
0001
0000
1000
0010
0000
0010
0100
0000
0001
0000
0010
0000
0100
0010
0000
0010
,
0100
1000
0000
0000
0100
0000
0000
1000
0000
1000
0000
0000
0001
0000
0100
0000
,
0010
0000
1000
0010
0000
1000
0010
0000
0100
0000
0100
0000
0010
0000
1000
0000
,
0001
1000
0000
0100
0010
0000
0000
0001
0000
0001
0000
0001
0100
0000
0010
0100
,
0001
0000
1000
0010
0000
1000
0010
0000
1000
0000
0001
0000
0010
0000
0100
0010
,
0001
1000
0000
1000
0010
0000
0000
0100
0000
0100
0000
0100
0010
0000
0100
0001
,
1000
0000
0001
0100
0000
0010
1000
0000
0001
0000
1000
0100
0000
0010
0001
1000
,
0001
0000
0000
0000
0001
0000
0010
0000
0010
0000
0000
0001
0000
0000
0100
0000
,
0010
0000
0000
0000
1000
0000
1000
0000
0100
0000
0000
0010
0000
0000
0100
0000
,
1000
0000
0000
0000
0010
0000
0010
0000
0100
0000
0000
0010
0000
0000
1000
0000
,
0001
0000
0000
0000
1000
0000
1000
0000
0100
0000
0000
1000
0000
0000
0001
0000
,
1000
0010
0000
0000
0100
0000
0000
0001
0000
0001
0000
0000
1000
0000
0000
0000
,
0001
0010
0000
0000
0100
0000
0000
1000
0000
1000
0000
0000
0010
0000
0000
0000
,
0100
0010
0000
0000
0100
0000
0000
0001
0000
0001
0000
0000
1000
0000
0001
1000
,
0001
0000
0100
0010
0000
1000
0001
0000
0010
0000
0100
0010
0000
0000
0000
0000
,
0100
1000
0000
1000
0010
0000
0010
0100
0000
0100
0000
0100
0010
0000
0100
0001
,
0010
0000
0001
0010
0000
0010
0100
0000
0010
0000
0001
0000
0100
0000
0001
1000
,
0100
0010
0000
0100
1000
0000
1000
0001
0000
0001
0000
0001
0100
0000
0001
1000
,
0100
0000
0010
0001
0000
0010
0100
0000
0010
0000
0001
0000
0100
0000
0010
0000
,
0100
0001
0000
0001
0100
0000
0100
0010
0000
0010
0000
0010
0100
0000
0100
0010
,
1000
0000
1000
0010
0000
0010
0100
0000
0010
0000
0100
0000
0001
0000
0001
1000
,
0010
0100
0000
0100
0001
0000
0001
1000
0000
1000
0000
1000
0001
0000
0100
0001
,
0010
0000
0100
1000
0000
0001
0010
0000
1001
0000
0001
0100
0000
0100
0010
1000
,
0001
0010
0000
0001
0100
0000
0100
0010
0000
0010
0000
0010
1000
0000
0001
0100
,
0010
0000
0100
0001
0000
0010
0100
0000
1000
0000
0001
0000
1000
0000
0001
0010
,
0001
1000
0000
0001
0100
0000
0010
1000
0000
1000
0000
1000
0100
0000
0010
0100
,
1000
0000
0001
0100
0000
0010
1000
0000
0100
0000
0010
0000
0100
0000
1000
0000
,
0001
0010
0000
0100
0010
0000
0100
1000
0000
1000
0000
1000
0010
0000
0100
0001
,
0010
0000
0100
0010
0000
0001
1000
0000
0100
0000
0010
0000
0100
0000
0010
0001
,
1000
0010
0000
0100
0010
0000
1000
0100
0000
0100
0000
0100
0010
0000
0100
1000
,
0001
0000
0100
0001
0000
0010
0100
0000
0010
0000
0001
0010
0000
0100
1000
0001
,
0200
0000
0310
1002
0000
1003
2100
0000
,
3020
0000
0100
0000
1030
0100
0010
0001
,
1002
0000
1003
0102
0000
1003
1200
0000
,
0010
0000
1300
0000
0100
0010
0001
1000
,
2001
0000
3001
0012
0000
0103
1020
0000
,
0100
0000
1030
0000
0010
1000
0001
1000
,
0200
0000
0310
0120
0000
0130
1001
0000
,
0110
0000
0001
1000
0000
1000
0010
0000
0010
0000
0100
0010
0000
0010
0100
0001
,
0020
0000
0130
1200
0000
1300
1020
0000
,
0100
0000
1030
0000
0001
0100
1000
0100
,
0210
0000
0301
2001
0100
0000
3001
0000
,
0201
0000
0010
0000
0301
0010
1000
0010
,
0011
0000
0000
0001
0000
0000
0100
0000
,
1010
0000
0000
0000
1000
0100
0001
0100
,
1000
1000
0001
0001
0100
0100
0010
0010
,
1000
0000
0000
0000
0000
0000
0010
0000
0000
0100
0000
0000
0000
0000
0000
0001
0000
0000
0000
0000
0000
0010
0000
0000
0001
0000
0000
0100
0000
0000
0010
0000
0000
1000
0000
0000
0100
0000
0010
0000
0100
0000
0010
0000
0000
0001
0000
0000
,
1000
0000
0000
0000
;

//--------------- dance-double - Pandemonium X ----------------
#NOTES:
     dance-double:
     Pandemonium X:
     Easy:
     7:
     0,0,0,0,0,0,0,0,0,0,0,0,0,0,0,0,0,0,0,0,0,0,0,0,0,0,0,0:
00000000
00000000
00000000
00000000
,
00000000
00000000
00000000
00000000
,
00000000
00000000
00000000
00000000
,
00000000
00000000
00000000
00000000
,
00000000
00000000
00000000
00000000
,
00000000
00000000
00000000
00000000
00000000
00000000
10000000
01000000
,
10000000
00000000
00000000
00010000
01000000
00000000
00000000
00010000
,
00100000
00000000
00000000
00001000
00100000
00000000
00000000
00010000
,
00000100
00000000
00000000
00001000
00000010
00000000
00000000
00000100
,
00000001
00000000
00000000
00000010
00000100
00000000
00000010
00000001
,
00001000
00000000
00000000
00000100
00000000
00000000
00000000
00000000
,
00020000
00000000
00000000
00000000
00000000
00032000
00000000
00000000
,
00103000
00000000
00000000
02000000
00000000
00000000
03000000
00000000
,
10000000
00000000
00000000
00200000
00000000
00000000
01000000
00000000
,
10300000
10000000
00010000
00010000
,
00100000
00100000
00001000
00001000
,
00010000
00001000
00010000
00001000
,
00022000
00000000
00000000
00033000
,
00001100
00000000
00000000
00001000
00000000
00000000
00001000
00000000
,
00001100
00000000
00000100
00000010
,
00000001
00000000
00000000
00000001
00000000
00000000
00000001
00000000
,
00000011
00000000
00000001
00000100
,
00000010
00000000
00000000
00000010
00000000
00000000
00000010
00000000
,
00001010
00000000
00001000
00000100
,
00010000
00000000
00000000
00010000
00000000
00000000
00010000
00000000
,
00001000
00000000
01000000
00000000
,
10100000
00000000
00000000
00100000
00000000
00000000
10000000
00000000
,
10010000
00000000
00010000
00100000
,
00101000
00000000
00000000
00001000
00000000
00000000
00010000
00000000
,
00011000
00000000
00010000
00000100
,
00001000
00000000
00000000
00000010
00000000
00000000
00000100
00000000
,
00000101
00000000
00000001
00000010
,
00000110
00000000
00000000
00000100
00000000
00000000
00010000
00000000
,
00001000
01000000
00100000
10010000
,
12000000
00000000
03200000
00000000
,
00302000
00000000
00023000
00000000
,
00030020
00000000
00000230
00000000
,
00002300
00000000
00023000
02030000
,
23000000
00000000
32000000
00000000
,
03020000
00000000
02030000
03020000
,
00032000
00000000
00023000
00000000
,
00032000
00003200
00000302
00000203
,
00001300
00000000
00000100
00000010
00000100
00000000
00000001
00000000
,
00001000
00000000
00000010
00001000
00000010
00000000
00010000
00000000
,
00011000
00000000
00001000
01000000
00001000
00000000
01000000
00000000
,
00100000
00000000
10000000
00010000
10000000
00000000
00010000
00000000
,
00110000
00000000
00100000
00001000
00010000
00000000
00000100
00000000
,
00001100
00000000
00001000
00000010
00000100
00000000
00000001
00000000
,
00000011
00000010
00000110
00000100
,
00001100
00000000
00000000
00000100
00000000
00000000
00000100
00000000
00010000
00000000
00000000
00010000
00000000
00000000
00000000
00000000
,
00011000
00001000
01000000
00100000
,
10000000
00000000
01000000
00000000
00100000
00010000
01000000
00010000
,
00100000
00010000
01000000
00001000
,
00010000
00000000
00010000
00000000
00000100
00001000
00000010
00000100
,
00000001
00000010
00000001
00001000
,
00000100
00000000
00010000
00000000
00001000
01000000
00001000
00010000
,
00001000
00010000
00000100
00001000
,
00000010
00000000
00000000
00000010
00000000
00000000
00000010
00000000
00000100
00000000
00000000
00000100
00000000
00000000
00000100
00000000
,
00000001
00001000
00000010
00010000
,
00001000
00000000
00100000
00000000
00010000
01000000
00010000
00100000
,
00010000
10000000
00010000
00100000
,
00001000
00000000
00010000
00000000
00000100
00001000
00000010
00000100
,
00000010
00000100
00000001
00000010
,
00000100
00000000
00001000
00000000
00000100
00010000
00001000
00010000
,
00000100
00010000
00001000
01000000
,
00100000
00000000
00000000
00100000
00000000
00000000
00100000
00000000
10000000
00000000
00000000
10000000
00000000
00000000
10000000
00000000
,
00010000
00000000
00000000
00100000
00000000
00000000
00001000
00000000
,
00010000
00000000
00000000
00000000
00000100
00001000
00000010
00000100
,
00000001
00000000
00000000
00000010
00000000
00000000
00000100
00000000
,
00001000
00000000
00000000
00000000
00000100
00010000
00001000
01000000
,
00100000
00000000
00000000
01000000
00000000
00000000
00100000
00000000
,
10000000
00000000
00000000
00000000
01000000
00100000
00010000
00001000
,
00010000
00000000
00000000
00001000
00000000
00000000
00010000
00000000
,
00000100
00000000
00000000
00000100
00000000
00000000
00000100
00000000
00001000
00000000
00000000
00000001
00000000
00000000
00000100
00000000
,
00000010
00000000
00000000
00000100
00000000
00000000
00000001
00000000
,
00001000
00000000
00000000
00000000
00000100
00010000
00001000
01000000
,
00100000
00000000
00000000
01000000
00000000
00000000
00010000
00000000
,
10000000
00000000
00000000
00000000
00010000
00100000
10000000
00100000
,
00010000
00000000
00000000
00100000
00000000
00000000
00001000
00000000
,
00010000
00000000
00000000
00000000
00000100
00001000
00000010
00000100
,
00000001
00001000
00000010
00010000
,
00001000
00000000
00000000
00001000
00000000
00000000
00001000
00000000
00010000
00000000
00000000
00010000
00000000
00000000
00010000
00000000
,
00011000
00000000
00000000
00000000
;

//--------------- dance-double - Pandemonium X ----------------
#NOTES:
     dance-double:
     Pandemonium X:
     Medium:
     11:
     0,0,0,0,0,0,0,0,0,0,0,0,0,0,0,0,0,0,0,0,0,0,0,0,0,0,0,0:
00000000
00000000
00000000
00000000
,
00000000
00000000
00000000
00000000
,
00000000
00000000
00000000
00000000
,
00000000
00000000
00000000
00000000
,
00000000
00000000
00000000
00000000
,
00000000
00000000
00000000
00000000
00000000
00000000
10000000
00010000
,
00200000
00000000
00300000
00010000
02000000
00000000
03000000
00001000
,
00020000
00000000
00030000
00000100
00002000
00000000
00003000
00000010
,
00000200
00000000
00000300
00000001
00002000
00000000
00003000
00000100
,
00020000
00000000
00030000
00001000
02000000
00000000
03100000
10000000
,
10010000
00000000
00000000
10000000
00000000
00000000
00000000
00000000
,
00100000
00000000
00000000
00000000
00000000
01000000
00000000
00000000
,
00001000
00000000
00000000
00010000
00000000
00000000
00000000
00000000
,
00000100
00000000
00000000
00001000
00000000
00000000
00000010
00000100
,
00000001
00000101
00000100
00000110
,
00000010
00001010
00001000
00001100
,
00011000
00010100
00011000
00101000
,
00110000
00100000
01000000
01000000
10000000
01000000
00100000
00010000
,
10000000
00000000
00000000
00010000
00000000
00000000
01000000
00000000
,
01010000
00000000
00000000
00000000
01000000
00001000
00010000
00000100
,
00001000
00000000
00000000
00000010
00000000
00000000
00000100
00000000
,
00000101
00000000
00000000
00000000
00000001
00000010
00001000
00000010
,
00000001
00000000
00000000
00000100
00000000
00000000
00000010
00000000
,
00001010
00000000
00000000
00000000
00000010
00010000
00001000
00100000
,
00010000
00000000
00000000
00100000
00000000
00000000
01000000
00000000
,
00100000
00000000
00000000
00100000
00000000
00000000
00100000
00000000
00001000
00000000
00000000
00010000
00000000
00000000
00000100
00000000
,
00001000
00000000
00000000
00000010
00000000
00000000
00000100
00000000
,
00000101
00000000
00000000
00000000
00000001
00001000
00000010
00001000
,
00000100
00000000
00000000
00010000
00000000
00000000
00001000
00000000
,
01001000
00000000
00000000
00000000
01000000
10000000
01000000
00010000
,
10000000
00000000
00000000
01000000
00000000
00000000
00100000
00000000
,
00110000
00000000
00000000
00000000
00100000
00001000
00010000
00000100
,
00001000
00000000
00000000
00000010
00000000
00000000
00000100
00000000
,
00000010
00000000
00000000
00000010
00000000
00000000
00000010
00000000
00000100
00000000
00000000
00000100
00000000
00000000
00000100
00000000
,
00001001
00000000
00000000
00000000
00000001
00000000
00000000
00001000
00000000
00001000
00000000
00000000
00000100
00000000
00000000
00000000
,
00010000
00000000
00001000
00000000
01000000
00000000
00100000
10000000
,
01000000
00000000
00000000
00000000
00100000
00000000
00000000
00010000
00000000
00010000
00000000
00000000
00100000
00000000
00000000
00000000
,
00010000
00000000
01000000
00000000
00010000
10000000
01000000
00100000
,
00010000
00000000
00000000
00000000
00100000
00000000
00000000
00001000
00000000
00001000
00000000
00000000
00010000
00000000
00000000
00000000
,
00000100
00000000
00001000
00000000
00000010
00001000
00000100
00000010
,
00000100
00000000
00000000
00000000
00000010
00000000
00000000
00000001
00000000
00000001
00000000
00000000
00001000
00000000
00000000
00000000
,
00000010
00000000
00000000
00010000
00000000
00000000
00001000
00000000
01000000
00000000
00000000
00100000
00000000
00000000
10000000
00000000
,
01000000
00000000
00000000
00000000
00100000
00000000
00010000
00000000
00100000
00000000
00000000
00100000
00000000
00000000
00100000
00000000
,
00101000
00000000
00000000
00000000
00001000
00000000
00010000
00000000
00001000
00000000
00000000
00001000
00000000
00000000
00001000
00000000
,
00011000
00000000
00000000
00000000
00010000
00000000
00000100
00000000
00010000
00000000
00000000
00010000
00000000
00000000
00010000
00000000
,
00010100
00000000
00000000
00000000
00001000
00000000
00000010
00000000
00001000
00000000
00000000
00001000
00000000
00000000
00001000
00000000
,
00001010
00000000
00000010
00000100
00000001
00000000
00000010
00000100
,
00001100
00000000
00000100
00010000
00001000
00000000
00001000
00100000
,
00110000
01000000
11000000
10000000
,
10010000
00000000
00000000
01100000
00000000
00000000
10100000
00000000
01010000
00000000
00000000
00110000
00000000
00000000
00000000
00000000
,
00001000
00100000
00000000
00000000
00001000
00000000
00000000
00010000
00000000
00010000
00000000
00000000
00000100
00000000
00000000
00000000
,
00001000
00000000
00000000
00000010
00000000
00000000
00000100
00000000
00000001
00000000
00000010
00000000
00000100
00000000
00001000
00000000
,
00000100
00000000
00000000
00000000
00010000
00000000
00000000
00001000
00000000
00001000
00000000
00000000
00100000
00000000
00000000
00000000
,
01000000
00000000
00000000
01000000
00000000
00000000
10000000
00000000
00100000
00000000
00010000
00000000
00100000
00000000
10000000
00000000
,
00010000
00000000
00000000
00000000
00100000
00000000
00000000
00001000
00000000
00001000
00000000
00000000
00010000
00000000
00000100
00000000
,
00001000
00000000
00000000
00000010
00000000
00000000
00000100
00000000
00000001
00000000
00000010
00000000
00001000
00000000
00000010
00000000
,
00000001
00000000
00000000
00000000
00000010
00000000
00000000
00000100
00000000
00000100
00000000
00000000
00001000
00000000
00000000
00000000
,
00000100
00000000
00010000
00000100
00000000
00010000
00000100
00000000
00010000
00000000
00001000
01000000
00000000
00001000
01000000
00000000
,
00100000
00000000
00000000
00000000
10000000
00000000
00000000
00010000
00000000
00010000
00000000
00000000
00100000
00000000
00000000
00000000
,
01000000
00000000
00000000
01000000
00000000
00000000
01000000
00000000
10000000
00000000
01000000
00000000
00010000
00000000
01000000
00000000
,
10000000
00000000
00000000
00000000
00010000
00000000
00000000
00100000
00000000
00100000
00000000
00000000
00001000
00000000
00000000
00000000
,
00010000
00000000
00000000
00010000
00000000
00000000
00010000
00000000
00000100
00000000
00000100
00000000
00001000
00000000
00000010
00000000
,
00000100
00000000
00000000
00000000
00000001
00000000
00000000
00000010
00000000
00000010
00000000
00000000
00000100
00000000
00000000
00000000
,
00000010
00000000
00000000
00000001
00000000
00000000
00000100
00000000
00000001
00000000
00000010
00000000
00001000
00000000
00000010
00000000
,
00000001
00000010
00000000
00000000
00000100
00000000
00000000
00001000
00000000
00001000
00000000
00000000
00000100
00000000
00000000
00000000
,
00010000
00000000
00001000
00010000
00000000
00001000
00010000
00000000
00001000
00000000
01000000
00100000
00000000
01000000
00010000
00000000
,
10000000
00000000
00000000
00110000
00000000
00000000
00101000
00000000
,
00011000
00000000
00000000
00000000
00010000
00000100
00001000
00000010
,
00001010
00000000
00000000
00000101
00000000
00000000
00000011
00000000
,
00000110
00000000
00000000
00000000
00000010
00000001
00000010
00000100
,
00001100
00000000
00000000
00010100
00000000
00000000
00011000
00000000
,
01001000
00000000
00000000
00000000
00001000
01000000
00100000
10000000
,
11000000
00000000
00000000
01100000
00000000
00000000
00110000
00000000
,
00100000
00000000
00001000
00010000
00000000
00001000
00010000
00000000
00000100
00000000
00001000
00000010
00000000
00001000
00000010
00000000
,
00000110
00000000
00000000
00000011
00000000
00000000
00001001
00000000
,
00001100
00000000
00000000
00000000
00000100
00001000
00000100
00010000
,
00011000
00000000
00000000
01001000
00000000
00000000
00011000
00000000
,
00101000
00000000
00000000
00000000
00010000
00100000
01000000
10000000
,
11000000
00000000
00000000
10000000
00000000
00000000
00100000
00000000
,
01000000
00000000
00000000
00000000
10000000
01000000
00010000
00100000
,
00001000
00100000
00001000
00010000
00000100
00001000
00000010
00000100
,
00000001
00000000
00000001
00000100
00000000
00000010
00001000
00000000
00000100
00000000
00010000
00001000
00000000
00010000
00001000
00000000
,
01000000
00000000
00000000
00000000
;

//--------------- dance-double - Pandemonium X ----------------
#NOTES:
     dance-double:
     Pandemonium X:
     Hard:
     15:
     0,0,0,0,0,0,0,0,0,0,0,0,0,0,0,0,0,0,0,0,0,0,0,0,0,0,0,0:
00000000
00000000
00000000
00000000
,
00000000
00000000
00000000
00000000
,
00000000
00000000
00000000
00000000
,
00000000
00000000
00000000
00000000
,
00000000
00000000
00000000
00000000
,
00000000
00000000
00000000
00000000
,
10100000
00000000
00000000
00000000
00000000
01000000
00010000
00000000
00110000
00000000
00000000
00000000
00000000
00100000
00001000
00000000
,
00011000
00000000
00000000
00000000
00000000
00000100
00010000
00000000
00010100
00000000
00000000
00000000
00000000
00001000
00000010
00000000
,
00000101
00000000
00000000
00000000
00000000
00000001
00000010
00000000
00001100
00000000
00000000
00000000
00000000
00010000
00000100
00000000
,
00010100
00000000
00000000
00000000
00000000
00001000
01000000
00000000
01100000
00000000
00000000
00000000
01000000
00000000
00010000
00000000
,
00200000
00000000
01300000
20000000
00100000
00000000
00010000
00000000
,
32000000
00000000
10000000
00000000
03100000
00020000
00000000
00000000
,
02030000
00000000
03001000
00020000
00000000
00000000
00000000
00000000
,
00030200
00000000
00001300
00000020
00000000
00000000
00000130
00000001
,
00000011
00000000
00000000
00000001
00000100
00000000
00000100
00000000
00000010
00000000
00000000
00001000
00000100
00000000
00000100
00000000
,
00010000
00000000
00000000
00001000
01000000
00000000
01000000
00000000
00100000
00000000
00000000
10000000
01000000
00000000
01000000
00000000
,
00100000
00000000
00000000
00010000
01000000
00000000
01000000
00000000
00001000
00000000
00000000
00010000
00000100
00000000
00000100
00000000
,
00001000
00001000
00000010
00000010
00000001
00000010
00001000
00010000
,
01010000
00000000
00000000
10000000
00000000
00000000
00010000
00000000
,
11000000
00000000
00000000
00000000
10000000
01000000
00010000
01000000
,
10000000
00000000
00000000
00010000
00000000
00000000
00100000
00000000
,
00101000
00000000
00000000
00000000
00100000
00001000
00010000
00000100
,
00000020
00000000
00000130
00002000
00000000
00003010
00000200
00000000
,
00000301
00000000
00000000
00000000
00000001
00000010
00001000
00000010
,
00000100
00000000
00000000
00010000
00000000
00000000
00001000
00000000
,
02001000
00000000
00000000
00100000
00000000
00000000
03010000
00000000
20000000
00000000
00000000
01000000
00000000
00000000
30100000
00000000
,
10000000
00010000
10000000
00000000
00010000
10000000
00010000
00000000
00100000
00000000
00000000
00000000
00101000
00000000
00000000
00000000
,
00011000
00000000
00000000
00000000
00010000
00000010
00000100
00000001
,
00000011
00000000
00000000
00001100
00000000
00000000
00010100
00000000
,
00011000
00000000
00000000
00000000
00001000
01000000
00100000
10000000
,
11000000
00000000
00000000
00110000
00000000
00000000
00101000
00000000
,
00011000
00000000
00000000
00000000
00010000
00000010
00000100
00000001
,
00000011
00000000
00000000
00001001
00000000
00000000
00000110
00000000
,
00001100
00000000
00010000
00000100
00000000
00010000
00001000
00000000
00010000
00000000
00001000
01000000
00000000
00100000
01000000
00010000
,
10000000
01000000
00000000
00000000
00100000
00000000
00000000
01000000
00000000
01000000
00000000
00000000
10000000
00000000
00000000
00000000
,
00010000
00000000
00000000
00100000
00000000
00000000
00001000
00000000
00010000
00000000
00000100
00000000
00001000
00000000
00000010
00000100
,
00000001
00001000
00000000
00000000
00000010
00000000
00000000
00000100
00000000
00000100
00000000
00000000
00000010
00000000
00000100
00000000
,
00000001
00000000
00000100
00000001
00000000
00000001
00000100
00000000
00000100
00000000
00000010
00000000
00001000
00000000
00000100
00000000
,
00010000
00001000
00000000
00000000
00010000
00000000
00000000
00001000
00000000
00001000
00000000
00000000
01000000
00000000
00000000
00000000
,
00100000
00000000
00000000
10000000
00000000
00000000
01000000
00000000
00010000
00000000
01000000
00000000
10000000
00000000
00010000
00100000
,
00001000
00010000
00000000
00000000
00000100
00000000
00000000
00001000
00000000
00001000
00000000
00000000
00000010
00000000
00000000
00000000
,
00000100
00000000
00000010
00001000
00000000
00001000
00000100
00000000
00010000
00000000
00001000
01000000
00000000
01000000
00100000
10000000
,
01000000
00000000
00000000
00000000
00100000
00000000
00100000
00000000
00010000
00000000
00000000
00100000
00000000
00000000
00001000
00000000
,
00011000
00000000
00000000
00000000
00010000
00000000
00010000
00000000
00000100
00000000
00000000
00001000
00000000
00000000
00000010
00000000
,
00000101
00000000
00000000
00000000
00000001
00000000
00000001
00000000
00000010
00000000
00000000
00000100
00000000
00000000
00001000
00000000
,
00001100
00000000
00000000
00000000
00000100
00000000
00000100
00000000
00010000
00000000
00000000
00001000
00000000
00000000
01000000
00000000
,
00100000
10000000
00000000
10000000
01000000
00000000
00000000
00100000
00000000
00100000
00000000
00100000
01000000
00000000
00000000
00000000
,
00100000
00001000
00000000
00001000
00010000
00000000
00000000
00001000
00000000
00001000
00000000
00001000
00100000
00000000
00001000
01000000
,
00100000
01000000
00100000
10000000
00010000
00100000
00001000
00010000
,
00000010
00000000
00010000
00001000
00000000
00001000
00100000
00000000
00001000
00000000
00010000
00000010
00000000
00000000
00000000
00000000
,
00001000
00000001
00000000
00000001
00001000
00000000
00001000
00000100
00000000
00000100
00000000
00000100
00001000
00000000
00000100
00010000
,
00001000
00000000
00001000
01000000
00000000
01000000
00100000
00000000
01000000
00000000
00010000
00000000
00100000
00000000
01000000
00100000
,
00001000
00010000
00000000
00001000
00010000
00000000
00010000
00000100
00000000
00000100
00000000
00000100
00001000
00000000
00001000
00000010
,
00000100
00000000
00000001
00000100
00000000
00000010
00001000
00000000
00000100
00000000
00000001
00000000
00000100
00000000
00001000
00000000
,
00000001
00000100
00000000
00000100
00000010
00000000
00000010
00010000
00000000
00010000
00000000
00010000
00001000
00000000
00010000
00001000
,
00100000
00000000
01000000
10000000
00000000
10000000
01000000
00000000
00100000
00000000
01000000
00000000
10000000
00000000
00010000
01000000
,
00100000
01000000
00000000
01000000
00010000
00000000
00010000
00100000
00000000
00100000
00000000
00100000
00001000
00000000
00010000
00000100
,
00001000
00000000
00000010
00000100
00000000
00000001
00001000
00000000
00000001
00000000
00000010
00000100
00000000
00000100
00010000
00001000
,
01000000
00100000
00000000
01000000
00010000
00000000
00010000
00100000
00000000
00100000
00000000
00100000
00001000
00000000
00010000
00000100
,
00001000
00000000
00000010
00000100
00000000
00000100
00000001
00000000
00000001
00000000
00000010
00000000
00001000
00000000
00000010
00000000
,
00000001
00000010
00000000
00000100
00001000
00000000
00000100
00010000
00000000
00010000
00000000
00010000
00001000
00000000
00010000
00001000
,
01000000
00000000
00100000
10000000
00000000
01000000
00100000
00000000
00010000
00000000
00100000
00000000
10000000
00000000
00100000
00000000
,
00010000
00100000
00000000
01000000
10000000
00000000
01000000
00100000
00000000
00100000
00000000
00100000
01000000
00000000
00100000
00001000
,
00010000
00000000
00000100
00001000
00000000
00000010
00000100
00000000
00000001
00000000
00000100
00000000
00001000
00000000
00000100
00000001
,
00001000
00000100
00000000
00001000
00000100
00000000
00010000
00001000
00000000
01000000
00000000
00100000
10000000
00000000
00010000
01000000
,
00100000
00000000
01000000
00010000
00000000
00100000
00001000
00000000
00010000
00000000
00000100
00010000
00000000
00000100
00001000
00000010
,
00000200
00000000
00000310
00000200
00000000
00000310
00001000
00000000
,
00021000
00000000
00000000
00000000
00031000
01000000
00100000
10000000
,
00120000
00000000
00130000
00102000
00000000
00013000
00011000
00000000
,
00002010
00000000
00003100
00000000
00000100
00000001
00000100
00001000
,
00002001
00000000
00003100
00020100
00000000
00031000
00011000
00000000
,
01200000
00000000
10000000
00000000
01300000
10000000
01000000
00010000
,
10020000
00000000
00130000
00201000
00000000
00300000
00012000
00000000
,
00013000
00000000
00000100
00001000
00000000
00000001
00000010
00000000
00000001
00000000
00000100
00000010
00000000
00000100
00000010
00010000
,
00001000
01000000
00000000
00100000
10000000
00000000
01000000
00100000
00000000
01000000
00000000
10000000
00010000
00000000
01000000
00100000
,
20000000
00000000
00010000
00000000
30010000
10000000
01000000
00100000
,
00010000
00100000
00000000
00100000
00001000
00000000
00010000
00000100
00000000
00000100
00000000
00001000
00000010
00000000
00000100
00000010
,
00002000
00000000
00000001
00000000
00003010
00001000
00000100
00000010
,
00000011
00000000
00000000
00000110
00000000
00000000
00001100
00000000
,
00011000
00000000
00000000
00000000
00001000
01000000
00100000
10000000
,
11000000
01000000
00100000
00001000
00010000
00000100
00001000
00000010
,
00000100
00000000
00000010
00010000
00000000
00001000
01000000
00000000
00100000
00000000
10000000
00010000
00000000
00100000
00001000
00010000
,
00000020
00000000
00000000
00000000
,
00000030
00000000
00000000
00000000
;
