#TITLE:ALTERNATOR;
#SUBTITLE:;
#ARTIST:BEMANI Sound Team "dj Hellix";
#TITLETRANSLIT:;
#SUBTITLETRANSLIT:;
#ARTISTTRANSLIT:;
#GENRE:;
#CREDIT:;
#MUSIC:ALTERNATOR.ogg;
#BANNER:;
#BACKGROUND:ALTERNATOR-bg.png;
#CDTITLE:;
#SAMPLESTART:55.531;
#SAMPLELENGTH:10.392;
#SELECTABLE:YES;
#OFFSET:0.253;
#BPMS:0.000=185.000;
#STOPS:;
#BGCHANGES:;
#FGCHANGES:;

//--------------- dance-single - ----------------
#NOTES:
     dance-single:
     :
     Beginner:
     5:
     0,0,0,0,0:
0000
0000
0000
0000
,
0000
0000
0000
0000
,
0000
0000
0000
0000
,
0000
0000
0000
0000
,
0000
0000
0000
0000
,
0000
0000
0000
0000
,
0000
0000
0000
0000
,
0000
0000
0000
0000
,
0000
0000
0000
0000
,
0001
0000
0001
0000
,
0001
0000
0000
0000
,
1000
0000
1000
0000
,
2000
0000
0000
0000
,
3010
0000
0010
0000
,
0010
0000
0000
0000
,
0100
0000
0100
0000
,
0100
0000
0000
0000
,
0001
0000
0000
0000
,
0010
0000
0000
0000
,
0001
0000
0000
0000
,
1000
0000
0000
0100
,
1000
0000
1000
0000
,
0010
0000
0010
0000
,
0100
0000
0001
0000
,
0220
0000
0000
0000
,
0330
0000
0000
0000
,
0000
0000
0000
0000
,
1000
0000
1000
0000
,
0001
0000
0001
0000
,
0100
0000
0100
0000
,
0010
0000
0010
0100
,
0001
0000
0001
0000
,
1000
0000
1000
0000
,
0010
0000
0010
0000
,
0100
0100
0100
0000
,
0010
1000
0100
0000
,
0100
0000
0100
0000
,
0000
0010
0001
0000
,
0001
0000
0001
0000
,
0000
0100
0010
0000
,
0010
0000
0010
0000
,
0000
0100
0100
0100
,
0001
0000
0000
0000
,
1000
1000
1000
0000
,
0000
0001
1000
0010
,
0100
0000
0000
0000
,
0000
0001
0010
0100
,
1000
0000
0000
0000
,
0000
0001
1000
0100
,
0010
0000
0000
0000
,
0200
0000
0000
0300
,
1001
0000
0000
0000
,
0001
0000
0000
0000
,
1000
0000
0000
0000
,
0010
0000
1000
0000
,
0100
0000
0000
0000
,
1000
0000
0000
0000
,
0001
0000
0000
0000
,
0100
0100
0100
0100
,
0010
0000
0100
0000
,
0001
0000
0000
0000
,
0010
0000
0100
0000
,
0010
0000
0000
0000
,
0100
0000
1000
0000
,
0010
0000
0000
0000
,
1000
0000
0001
0000
,
0100
0000
0000
0000
,
1001
0000
0000
0000
,
0010
0000
0000
0000
,
1001
0000
0000
0000
,
0100
0000
0000
0001
,
1001
0000
0001
0000
,
1000
0000
0001
0000
,
0100
0000
0010
0000
,
2000
0000
0000
0000
,
3000
1001
0002
0000
,
0000
0000
0000
0000
0000
0000
0000
0003
,
0000
0100
0020
0000
,
0000
0000
0000
0000
0000
0000
0000
0030
,
0000
0010
2000
0000
,
0000
0000
0000
0000
0000
0000
0000
3000
,
0000
0000
0200
0000
0000
0000
0000
0300
,
0010
0000
0100
0000
,
1001
1001
1001
0000
,
0000
0001
1000
0100
,
0010
0000
0000
0000
,
0000
0100
1000
0010
,
0100
0000
0000
0000
,
0000
0010
0100
0001
,
0010
0000
0000
0000
,
0200
0000
0000
0300
,
1001
0000
0000
0000
;

//--------------- dance-single - ----------------
#NOTES:
     dance-single:
     :
     Easy:
     10:
     0,0,0,0,0:
0000
0000
0000
0000
,
0000
0000
0000
0000
,
0000
0000
0000
0000
,
0000
0000
0000
0000
,
0000
0000
0000
0000
,
0000
0000
0000
0000
,
0000
0000
0000
0000
,
0000
0000
0000
0000
,
0000
0000
0000
0000
,
0001
0000
1000
0000
,
0100
0000
0000
1000
0000
1000
0000
0000
,
0001
0000
1000
0000
,
0020
0000
0000
0100
0000
0100
0000
0000
,
1030
0000
0100
0000
,
0010
0000
0000
0001
0000
0001
0000
0000
,
0010
0000
0100
0000
,
1000
0000
0000
0001
0000
0000
0100
0000
,
0001
1000
0100
0000
,
1000
0001
0010
0000
,
0001
1000
0100
0000
,
1000
0010
0100
0012
,
0013
0010
0100
0100
,
1000
1000
0001
0001
,
1000
0100
0010
0001
,
2002
0000
0000
3003
,
1000
0100
0010
0001
,
1000
0000
0100
0000
0010
0001
1000
0000
,
0001
0100
0010
1000
,
0001
0100
0010
1000
,
0001
0100
0010
1000
,
0001
0000
0100
0000
0010
0000
1000
0100
,
0010
0100
1000
0100
,
0010
0001
0010
0100
,
0010
0001
0010
0100
,
1000
0000
1000
0000
1000
0100
0010
0001
,
0000
2001
3010
0100
,
0001
0010
0100
0010
,
0001
1200
0310
0001
,
0010
0000
0100
0000
1000
0000
0010
0100
,
0001
2010
3100
0010
,
0001
0100
0010
0100
,
0001
0021
0130
0010
,
0002
0103
0020
1030
,
1000
0100
0010
0001
1000
0000
0010
0000
,
0100
0000
0001
0100
0010
0100
0001
0010
,
0100
0010
0001
0100
,
0010
0000
1000
0100
0010
0100
1000
0100
,
0010
0100
1000
0001
,
0100
0000
0001
1000
0010
1000
0001
0010
,
0001
0010
0100
1000
,
0100
1000
0100
0000
1000
0000
0010
0000
,
1001
0000
0001
0000
,
1000
0000
0100
1000
,
0010
0000
0100
0000
,
0001
0000
0010
0100
,
1000
0000
0100
0000
,
1000
0000
0010
0100
,
0001
0000
0010
0100
,
1000
1000
0001
0001
,
1000
0000
0001
0000
0100
0000
0001
0010
,
0000
0010
0000
0010
0000
0010
0000
0010
,
0100
0010
0001
1000
,
2001
3100
1002
0103
,
1001
0000
0000
0000
1000
0000
0000
0001
,
0000
0001
0000
1000
0000
1000
0000
1000
,
0010
0100
0001
0010
,
2000
3010
0002
1003
,
2002
3003
0100
0010
,
2002
3003
0010
0100
,
2002
3003
0100
0010
,
2002
0000
3003
0000
0010
0000
2002
3003
,
0201
0310
2010
3100
,
0021
0130
2100
3001
,
0002
0203
0320
2030
,
0002
0000
0000
0000
,
3003
0000
1001
0000
1000
0100
1000
0100
,
1000
0100
1000
0100
1000
0100
1000
0100
,
0000
0000
0110
0000
0010
0001
0010
0001
,
0010
0001
0010
0001
0010
0001
0010
0001
,
0000
0000
0101
0000
0001
0100
0001
0100
,
0001
0100
0001
0100
0001
0100
0001
0100
,
0000
0000
0010
1000
0010
1000
0010
1000
,
0100
0100
0100
0100
,
0010
0001
1000
0010
0100
0000
0001
0000
,
1000
0000
0001
0010
0100
0010
0001
1000
,
0010
1000
0001
0010
,
0001
0000
1000
0100
0010
0100
1000
0001
,
0100
0010
1000
0001
,
0010
0000
0001
0100
0010
0100
0001
1000
,
0100
0010
0001
0010
,
0100
0010
0001
0000
0010
0100
1000
0000
,
1001
0000
0000
0000
;

//--------------- dance-single - ----------------
#NOTES:
     dance-single:
     :
     Medium:
     13:
     0,0,0,0,0:
0000
0000
0000
0000
,
0000
0000
0000
0000
,
0000
0000
0000
0000
,
0000
0000
0000
0000
,
0000
0000
0000
0000
,
0000
0000
0000
0000
,
0000
0000
0000
0000
,
0000
0000
0000
0000
,
0000
0000
0000
0000
,
0001
0100
0000
0010
0100
0010
0000
1000
,
0010
1000
0000
0001
0000
0001
0000
1000
,
0100
1000
0000
0001
0010
0001
0000
0100
,
0020
0100
1000
0100
,
0130
0001
0000
0010
0100
0010
0000
0100
,
1000
0100
0000
1000
0000
1000
0000
0100
,
0010
0100
0000
0010
0001
0010
0000
0001
,
0100
0001
0000
0100
0000
0010
1000
0001
,
0010
0100
0010
0001
0000
1000
1001
0000
,
0010
1000
0010
0100
0000
1000
0101
0000
,
0001
0100
0010
0001
0000
0100
1001
0000
,
1000
0010
0100
0010
1000
0100
2002
3003
,
0001
0000
0000
0001
0000
0000
0001
0000
1000
0000
0000
1000
0000
0000
1000
0000
,
0010
0000
0000
0010
0000
0000
0010
0000
0100
0000
0000
0100
0000
0000
0100
0000
,
0010
1000
0001
0100
0010
1000
0001
0100
,
0020
0230
0302
2003
,
3100
0100
0100
0100
,
0100
0000
0100
0000
0100
0010
1001
0000
,
0201
0010
0001
0310
,
1020
0100
1000
0130
,
2001
0010
0001
3010
,
1002
0000
0100
0000
1000
0000
0100
0103
,
0210
1000
0001
1300
,
0120
0001
1000
0031
,
0201
0010
0001
0310
,
1001
0000
1001
0000
0001
0100
0010
1000
,
2200
3300
0021
0000
0130
1000
0010
1000
,
0100
1000
0010
1000
0001
0000
1000
0000
,
0100
0000
0021
0000
0130
0010
0001
0100
,
0010
0100
0001
0010
0100
0000
1000
1000
,
1001
0000
0201
0000
0310
1000
0001
0010
,
0001
1000
0010
1000
0001
0000
1000
0000
,
0001
0000
0001
0010
0100
1000
0001
0100
,
0002
0203
2300
3200
,
0310
1000
0100
0010
0001
0000
1000
0000
,
0001
0000
1000
0100
0001
0100
0010
0001
,
1001
0001
0100
1000
,
0100
0000
0001
0100
1000
0100
0010
1000
,
1001
0001
1000
0100
,
0010
0000
0001
0010
1000
0010
0100
0010
,
0011
0001
1000
0100
,
0010
0100
1000
0000
0100
0010
0001
0000
,
1001
0000
0000
0000
0001
1000
0000
0010
,
0000
1000
0000
0001
0010
0000
0100
0000
,
2000
0000
3000
0100
1000
0000
0010
0100
,
0000
0100
0000
0100
0020
0000
0130
0001
,
2000
0000
3000
0001
0010
0010
0000
0100
,
0000
0010
0000
0001
0010
0100
0010
0001
,
1000
0000
0000
0010
0100
1000
0100
0001
,
0000
1000
0000
0001
0010
0000
0100
0000
,
0010
0000
0001
0000
0100
0000
0010
1000
,
0000
0000
0001
0010
0000
0000
0100
1000
0000
0000
1000
0010
0000
0000
0010
0100
,
0020
0000
0000
0000
2030
0000
0000
0000
3200
0000
0000
0000
0310
0000
0000
0001
,
0010
0000
0000
0010
0100
0000
0000
0100
1000
0000
0000
1000
0001
0000
0000
0001
,
0100
0000
0010
0000
0100
0001
0010
0001
,
0000
0000
1000
0100
0000
0000
0010
0001
0000
0000
0001
0100
0000
0000
0010
1000
,
0002
2003
3200
0310
,
2100
3010
0102
0013
,
2002
0000
3003
1000
0001
0010
0000
0001
,
2002
0000
3003
0001
1000
0100
0000
1000
,
2002
0000
3003
0001
0100
0010
0000
0100
,
1001
0000
0000
1000
0010
0100
2002
3003
,
0001
1000
0010
1000
0001
0010
0001
1000
,
0001
1000
0100
1000
0001
0100
0001
1000
,
0100
0010
0001
0010
0100
0010
0001
0100
,
0020
0230
0302
2000
,
3003
0000
0201
0000
0310
0001
0010
1000
,
0010
0001
0010
1000
0010
0001
0010
1000
,
0110
0000
2001
0000
3100
0001
0100
1000
,
0100
0001
0100
1000
0100
0001
0100
0100
,
0110
0000
0102
0000
0013
1000
0010
0001
,
0010
1000
0010
0001
0010
1000
0010
0001
,
1000
0000
0100
0001
0100
1000
0100
0001
,
0100
0010
0001
0100
1000
0100
0010
0000
,
1000
0001
1000
0001
1000
0001
1000
0001
1000
0000
0100
0000
0010
0000
0001
0000
,
1000
0001
1000
0010
0001
0010
1000
0100
,
0001
0000
0200
0000
0310
0001
1000
0100
,
1000
0010
1000
0010
0001
0010
1000
0100
,
0001
0000
1200
0000
1300
0100
0010
0100
,
1000
0001
1000
0010
0001
0010
1000
0100
,
0001
0000
0100
0010
0001
1000
0100
0010
,
0100
1000
0010
0100
0001
0010
0100
0000
,
2002
3003
0000
0000
;

//--------------- dance-single - ----------------
#NOTES:
     dance-single:
     :
     Hard:
     16:
     0,0,0,0,0:
0000
0000
0000
0000
,
0000
0000
0000
0000
,
0000
0000
0000
0000
,
0000
0000
0000
0000
,
0000
0000
0000
0000
,
0000
0000
0000
0000
,
0000
0000
0000
0000
,
0000
0000
0000
0000
,
0000
0000
0000
0000
,
0001
0100
0000
0010
1000
1000
0000
0001
,
0010
0010
0000
0110
0000
0011
0000
0010
,
0100
0100
0000
1000
0001
0001
0000
1000
,
0100
1000
0100
1000
0001
0100
0001
0100
0010
0100
0010
0100
0001
1000
0001
1000
,
0001
0010
0000
1000
0010
0001
0000
0001
,
0010
0100
0000
0110
0000
0110
0000
1000
,
0100
0001
0000
0100
0010
0001
0000
0100
,
0010
1000
0000
0102
0000
1003
0100
0010
,
0001
0000
1000
0000
1100
0000
0001
0000
0000
0000
1000
0001
0100
0000
0000
0000
,
0010
0000
1000
0000
0101
0000
0001
0000
0000
0000
0010
0100
0010
0000
0001
0000
,
1000
0000
0001
0100
0000
0001
1000
0000
0100
0010
0100
0000
0010
0000
0001
0000
,
1000
0000
1000
0001
0000
1000
0010
0000
0100
0000
0001
0000
0020
0000
0000
0000
,
0031
0000
0100
0010
0100
0000
0001
0000
1000
0000
0100
0010
0100
0000
0010
0000
,
0001
0000
1000
0001
1000
0000
0010
0000
0100
0000
0001
1000
0001
0000
0010
0000
,
0100
1000
0100
1000
0001
0100
0001
0100
0010
0100
0010
0100
0001
1000
0001
1000
,
0200
0320
0032
2003
,
3010
0010
0010
0010
,
0010
0000
0010
0000
0010
0100
1001
0000
,
0001
0000
0100
0000
0010
1000
0001
0000
0100
0000
0010
0000
1000
0010
0100
0000
,
0001
0000
0100
0000
0010
1000
0001
0000
0100
0000
0010
0000
1000
0010
0100
0000
,
0001
0000
0100
0000
0010
1000
0001
0000
0100
0000
0010
0000
1000
0010
0100
0000
,
0001
0000
0100
0000
0010
1000
0001
0000
0100
0000
0010
0000
1001
0000
0110
0000
,
1000
0000
0010
0000
0100
0001
1000
0000
0010
0000
0100
0000
0001
0100
0010
0000
,
1000
0000
0010
0000
0100
0001
1000
0000
0010
0000
0100
0000
0001
0100
0010
0000
,
1000
0000
0010
0000
0100
0001
1000
0000
0010
0000
0100
0000
0001
0100
0010
0000
,
1000
0000
1000
0000
1000
0001
1000
0001
,
0220
0000
0330
0000
0002
0000
0000
0000
0203
0000
1000
0300
0200
0000
0001
0300
,
0200
0000
1000
0300
0200
0000
0001
0300
0200
0000
1000
0300
0200
0000
0000
0000
,
0310
0000
0000
0000
2001
0000
0000
0000
3020
0000
1000
0030
0020
0000
0001
0030
,
0020
0000
1000
0030
0020
0000
0001
0030
0020
0000
1030
0000
1001
0000
0110
0000
,
1001
0000
0000
0000
0012
0000
0000
0000
0023
0000
0001
0030
0020
0000
0100
0030
,
0020
0000
0001
0030
0020
0000
0100
0030
0020
0000
0001
0030
0020
0000
0100
0030
,
1001
0000
0000
0000
2000
0000
0010
3000
2000
0000
0100
3000
2000
0000
0010
3000
,
1000
0001
0100
0001
1000
0000
0001
0000
0100
0000
0010
0000
1001
0000
0000
0000
,
1010
0110
0101
0001
0010
0100
0010
0001
,
1000
0000
0000
0000
0000
0000
0000
0000
0000
0000
0000
0000
0001
0000
0000
0000
0000
0000
0000
0000
0000
0000
0000
0000
1000
0000
0000
0000
0000
0000
0000
0000
0000
0000
0000
0000
0200
0300
0000
0000
0000
0000
0000
0000
0000
0000
0000
0000
0200
0300
0000
0000
0000
0000
0000
0000
0000
0000
0000
0000
0001
0000
0000
0000
0000
0000
0000
0000
0000
0000
0000
0000
0020
0030
0000
0000
0000
0000
0000
0000
0000
0000
0000
0000
0020
0030
0000
0000
0000
0000
0000
0000
0000
0000
0000
0000
,
1000
0000
1000
0001
0010
0001
1000
0100
,
1000
0000
0000
0000
0000
0000
0000
0000
0000
0000
0000
0000
0001
0000
0000
0000
0000
0000
0000
0000
0000
0000
0000
0000
1000
0000
0000
0000
0000
0000
0000
0000
0000
0000
0000
0000
0020
0030
0000
0000
0000
0000
0000
0000
0000
0000
0000
0000
0020
0030
0000
0000
0000
0000
0000
0000
0000
0000
0000
0000
0001
0000
0000
0000
0000
0000
0000
0000
0000
0000
0000
0000
0200
0300
0000
0000
0000
0000
0000
0000
0000
0000
0000
0000
0200
0300
0000
0000
0000
0000
0000
0000
0000
0000
0000
0000
,
1000
0000
0001
1000
0100
0010
0100
1000
,
0001
0000
0000
0000
0000
0000
0000
0000
0000
0000
0000
0000
1000
0000
0000
0000
0000
0000
0000
0000
0000
0000
0000
0000
0001
0000
0000
0000
0000
0000
0000
0000
0000
0000
0000
0000
0020
0030
0000
0000
0000
0000
0000
0000
0000
0000
0000
0000
0020
0030
0000
0000
0000
0000
0000
0000
0000
0000
0000
0000
1000
0000
0000
0000
0000
0000
0000
0000
0000
0000
0000
0000
0200
0300
0000
0000
0000
0000
0000
0000
0000
0000
0000
0000
0200
0300
0000
0000
0000
0000
0000
0000
0000
0000
0000
0000
,
0001
0000
0001
1000
0100
1000
0001
0010
,
0001
0010
0100
1000
0010
0100
0001
1000
0001
0000
1000
0000
0100
0000
0000
0000
,
0011
0000
0000
0000
0000
0000
0010
0100
0010
0000
0100
0000
0000
0000
1000
0000
,
0000
1000
0000
1000
0100
0001
0100
1000
,
0020
0000
0000
0000
0030
0000
0100
0010
0100
0000
1000
0000
0100
0000
0001
0000
,
0000
0001
0000
0001
0020
0000
0031
0010
,
2001
0000
0000
0000
3000
0000
0010
0100
0010
0000
0100
0000
0000
0000
0001
0000
,
0000
0001
0000
0001
0010
1000
0010
0100
,
0020
0000
0000
0000
0030
0000
0100
0010
0100
0000
1000
0000
0010
0000
0100
0000
,
0000
0000
1000
0000
0000
0000
0100
0010
1000
0001
1000
0001
0010
0100
0010
0100
,
2000
0000
0000
0000
3200
0000
0000
0000
0310
0000
0001
0000
1000
0000
0010
1000
,
0200
0000
0310
0001
0200
0000
0310
1000
0200
0000
0310
0001
0200
0000
0310
1000
,
0200
0000
0000
0000
1300
0000
0001
0010
0001
0000
0010
0000
0001
0000
1000
0000
,
1002
0000
0000
0000
0000
0000
0000
0000
0000
0000
0000
0000
0000
0000
0000
0000
0000
0000
0000
0000
0000
0000
0000
0003
0012
0000
0000
0000
0000
0000
0000
0000
0000
0000
0000
0000
0000
0000
0000
0000
0000
0000
0000
0000
0000
0000
0000
0003
2001
0000
0000
0000
0000
0000
0000
0000
0000
0000
0000
0000
0000
0000
0000
0000
0000
0000
0000
0000
0000
0000
0000
3000
2010
0000
0000
0000
0000
0000
0000
0000
0000
0000
0000
0000
0000
0000
0000
0000
0000
0000
0000
0000
0000
0000
0000
3000
,
2001
0000
0000
0000
3001
0000
0001
1000
0001
0000
0010
0000
0001
0000
0100
0001
,
0020
0000
0130
1000
0020
0000
0130
0001
0020
0000
0130
1000
0020
0000
0130
0001
,
0020
0000
0000
0000
0130
0000
0010
0001
0010
0000
0100
0000
1000
0000
0001
0000
,
0201
0000
0000
0000
0000
0000
0000
0000
0000
0000
0000
0000
0000
0000
0000
0000
0000
0000
0000
0000
0000
0000
0000
0300
0210
0000
0000
0000
0000
0000
0000
0000
0000
0000
0000
0000
0000
0000
0000
0000
0000
0000
0000
0000
0000
0000
0000
0300
1200
0000
0000
0000
0000
0000
0000
0000
0000
0000
0000
0000
0000
0000
0000
0000
0000
0000
0000
0000
0000
0000
0000
0300
0210
0000
0000
0000
0000
0000
0000
0000
0000
0000
0000
0000
0000
0000
0000
0000
0000
0000
0000
0000
0000
0000
0000
0300
,
1001
0000
1000
0000
0100
0000
0010
0100
1000
0000
0001
0000
0100
0000
0001
0000
,
0020
0000
0100
0000
0130
0000
0010
0001
0100
0000
0001
0000
1000
0000
0100
0000
,
2000
0000
0010
0000
3010
0000
0100
0001
0010
0000
0001
0000
1000
0000
0100
0000
,
0020
0000
0100
0000
0130
0000
0010
0001
0100
0000
0010
0000
2002
0000
0000
3003
,
0001
0100
0001
0000
0100
0010
0100
0000
0010
1000
0010
0000
1000
0001
1000
0000
,
0001
0010
0001
0000
0010
0100
0010
0000
0100
1000
0100
0000
1000
0001
1000
0000
,
0001
1000
0001
1000
0010
0100
0010
0100
0001
0100
0001
0100
0010
1000
0010
1000
,
0002
0020
0000
0000
0000
0000
0000
0000
0000
0000
0000
0000
0033
0000
0000
0000
,
1100
0000
0000
0000
2001
0000
0000
0000
3002
0000
0200
0003
2000
0300
0200
3000
,
0002
0300
0020
0003
2000
0030
0020
3000
0200
0030
0020
0300
0002
0030
0200
0003
,
0310
0000
0000
0000
2001
0000
0000
0000
0200
3000
0020
0300
0002
0030
0200
0003
,
2000
0300
0200
3000
0020
0300
2000
0030
0002
3000
0020
0003
0200
0030
0020
0300
,
0031
0000
0000
0000
1200
0000
0000
0000
2000
0300
0200
3000
0002
0300
0200
0003
,
2000
0300
0020
3000
0002
0030
0020
0003
0200
0030
0002
0300
0020
0003
0200
0030
,
1300
0000
0000
0000
0102
0000
0000
0000
0020
0003
2000
0030
0020
3000
0002
0030
,
1003
0010
0100
0010
1000
0000
0001
0000
0110
0000
1001
0000
0110
0000
0000
0000
,
0001
0100
0010
1000
0001
0010
0100
0010
0001
0000
1000
0000
0010
0000
1000
0000
,
0001
0000
0000
0000
0000
0000
0000
0000
0000
0000
0000
0000
0010
0000
0000
0000
0000
0000
0000
0000
0000
0000
0000
0000
0001
0000
0000
0000
0000
0000
0000
0000
0000
0000
0000
0000
0200
0300
0000
0000
0000
0000
0000
0000
0000
0000
0000
0000
0200
0300
0000
0000
0000
0000
0000
0000
0000
0000
0000
0000
1000
0000
0000
0000
0000
0000
0000
0000
0000
0000
0000
0000
0020
0030
0000
0000
0000
0000
0000
0000
0000
0000
0000
0000
0020
0030
0000
0000
0000
0000
0000
0000
0000
0000
0000
0000
,
0001
0000
1020
0000
0130
1000
0100
0001
,
0010
0000
0000
0000
0000
0000
0000
0000
0000
0000
0000
0000
0100
0000
0000
0000
0000
0000
0000
0000
0000
0000
0000
0000
1000
0000
0000
0000
0000
0000
0000
0000
0000
0000
0000
0000
0020
0030
0000
0000
0000
0000
0000
0000
0000
0000
0000
0000
0020
0030
0000
0000
0000
0000
0000
0000
0000
0000
0000
0000
0001
0000
0000
0000
0000
0000
0000
0000
0000
0000
0000
0000
0200
0300
0000
0000
0000
0000
0000
0000
0000
0000
0000
0000
0200
0300
0000
0000
0000
0000
0000
0000
0000
0000
0000
0000
,
1000
0000
0102
0000
0013
0001
0010
0100
,
1000
0000
0000
0000
0000
0000
0000
0000
0000
0000
0000
0000
0100
0000
0000
0000
0000
0000
0000
0000
0000
0000
0000
0000
1000
0000
0000
0000
0000
0000
0000
0000
0000
0000
0000
0000
0020
0030
0000
0000
0000
0000
0000
0000
0000
0000
0000
0000
0020
0030
0000
0000
0000
0000
0000
0000
0000
0000
0000
0000
0001
0000
0000
0000
0000
0000
0000
0000
0000
0000
0000
0000
0200
0300
0000
0000
0000
0000
0000
0000
0000
0000
0000
0000
0200
0300
0000
0000
0000
0000
0000
0000
0000
0000
0000
0000
,
1000
0000
1001
0001
0100
0001
0010
0100
,
1000
0100
1000
0001
0100
0010
0100
0001
1000
0000
0001
0000
0010
0000
0000
0000
,
2200
3300
0000
0000
;

//--------------- dance-double - ----------------
#NOTES:
     dance-double:
     :
     Easy:
     8:
     0,0,0,0,0:
00000000
00000000
00000000
00000000
,
00000000
00000000
00000000
00000000
,
00000000
00000000
00000000
00000000
,
00000000
00000000
00000000
00000000
,
00000000
00000000
00000000
00000000
,
00000000
00000000
00000000
00000000
,
00000000
00000000
00000000
00000000
,
00000000
00000000
00000000
00000000
,
00000000
00000000
00000000
00000000
,
00010000
00000000
00000100
00000000
,
00001000
00000000
00000000
00000010
00000000
00000010
00000000
00000000
,
00000100
00000000
00000001
00000000
,
00002000
00000000
00000100
00000100
,
00003100
00000000
00010000
00000000
,
00001000
00000000
00000000
00010000
00000000
00010000
00000000
00000000
,
00001000
00000000
00100000
00000000
,
00010000
00000000
00000000
01000000
00000000
00000000
00010000
00000000
,
10000000
00010000
01000000
00000000
,
00010000
00100000
00001000
00000000
,
00010000
00000010
00000100
00000000
,
00000001
00000010
00000100
00002100
,
00003010
00000010
00000100
00000100
,
00000001
00000001
00001000
00001000
,
00000100
00010000
00001000
01000000
,
20020000
00000000
00000000
30030000
,
00010000
00010000
00010000
00010000
,
00010000
00000000
00010000
00000000
00010000
10000000
00010000
00000000
,
10000000
00100000
01000000
00010000
,
00100000
00001000
00010000
00000010
,
00001000
00000010
00001000
00000001
,
00000010
00000000
00000100
00000000
00001000
00000000
00000001
00001000
,
00000001
00001000
00000010
00000100
,
00000001
00000010
00000100
00001000
,
00000100
00010000
00001000
01000000
,
00100000
00000000
00100000
00000000
00100000
01000000
00100000
01000000
,
00020000
00230000
01300000
01000000
,
01000000
01000000
01000000
01000000
,
10000000
00020000
00130000
00100000
,
00100000
00000000
00100000
00000000
00100000
00000000
00100000
00001000
,
00010000
00000200
00001300
00001000
,
00001000
00001000
00001000
00001000
,
00000010
00000100
00000001
00000100
,
00000001
00000010
00000100
00001000
,
00011000
00011000
00011000
00001000
,
01000000
00010000
00100000
01000000
,
11000000
10000000
00100000
01000000
,
00010000
00100000
00001000
00010000
,
00010100
00000100
00001000
00000010
,
00000100
00000001
00000010
00000100
,
00001001
00001000
00000100
00010000
,
00002000
00000000
00000000
00000000
,
00103000
00000000
00010000
00000000
,
01000000
00000000
00100000
10000000
,
00020000
00030000
00100000
00000000
,
01000000
00000000
00100000
00001000
,
00020000
00030000
00000100
00000000
,
00001000
00000000
00000010
00000100
,
00000002
00000003
00000010
00000000
,
00000100
00000100
00000100
00000100
,
00001000
00000000
00000100
00000000
00010000
00000000
00000000
00001000
,
00000000
00001000
00000000
00001000
00000000
00001000
00000000
00001000
,
01000000
00000000
00010000
00100000
,
01000000
00010000
01000000
10000000
,
00100000
00000000
00000000
00000000
01000000
00000000
00000000
00010000
,
00000000
00010000
00000000
00010000
00000000
00010000
00000000
00010000
,
10000000
00010000
00100000
00001000
,
00011000
00010000
00010100
00000100
,
00001100
00000000
00001000
00000010
,
00000110
00000000
00000100
00000001
,
00000011
00000000
00000100
00001000
,
00001100
00000000
00000100
00012000
,
01003000
01000000
00010000
00010000
,
00100000
00100000
01000000
01000000
,
10000000
01000000
00100000
00010000
,
00022000
00000000
00000000
00033000
,
00000100
00000012
00000013
00000010
,
00000010
00000010
00000010
00000010
,
00000000
00000100
00001000
00001000
,
00001000
00000000
00001000
00000000
00001000
00000000
00001000
00000100
,
00010000
00002000
00103000
00100000
,
00100000
00100000
00100000
00100000
,
00000000
01000000
01000000
01000000
,
10000000
00000000
00100000
00000000
01000000
00010000
00100000
00000000
,
00001000
00010000
00001000
00010000
00001000
00000000
00010000
00000000
,
00000010
00000100
00001000
00000100
,
00000101
00000001
00000010
00000100
,
00001000
00000100
00010000
00001000
,
01001000
01000000
00010000
00100000
,
01000000
10000000
01000000
00010000
,
01010000
01000000
10000000
00100000
,
02000000
00000000
00000000
03000000
,
10010000
00000000
00000000
00000000
;

//--------------- dance-double - ----------------
#NOTES:
     dance-double:
     :
     Medium:
     14:
     0,0,0,0,0:
00000000
00000000
00000000
00000000
,
00000000
00000000
00000000
00000000
,
00000000
00000000
00000000
00000000
,
00000000
00000000
00000000
00000000
,
00000000
00000000
00000000
00000000
,
00000000
00000000
00000000
00000000
,
00000000
00000000
00000000
00000000
,
00000000
00000000
00000000
00000000
,
00000000
00000000
00000000
00000000
,
00010100
00010100
00001100
00001100
,
00001010
00001010
00000101
00000101
,
00000001
00001000
00000000
00000100
00000010
00000100
00000000
00000010
,
00000002
00000000
00000100
00001000
,
00000013
00000011
00000110
00000110
,
00001100
00001100
00010100
00010100
,
00001000
00010000
00000000
00001000
01000000
00001000
00000000
01000000
,
00100000
00010000
00000000
00100000
00000000
00100000
01000000
00010000
,
00100000
01000000
10000000
00010000
00000000
10000000
10010000
00000000
,
00010000
01000000
00001000
00010000
00000000
00001000
00011000
00000000
,
00001000
00000010
00000100
00000010
00000000
00001000
00001010
00000000
,
00000001
00000100
00000010
00001000
00000100
00000010
00002002
00003003
,
00000001
00000100
00000010
00000000
00001000
00000100
00010000
00000000
,
00001000
01000000
00100000
00000000
10000000
01000000
00100000
00000000
,
00010000
01000000
00001000
00010000
00000100
00001000
00000010
00000100
,
00000002
00000023
00002030
00003020
,
00000130
00000100
00000100
00000100
,
00000100
00000000
00000100
00000000
00000100
00010000
00011000
00000000
,
00101000
00110000
00101000
00110000
,
00101000
00110000
00101000
00110000
,
00101000
00110000
00101000
00110000
,
00101000
00000000
00110000
00000000
00101000
00000000
00001000
00010000
,
00011000
00001100
00011000
00001100
,
00011000
00001100
00011000
00001100
,
00011000
00001100
00011000
00001100
,
00011000
00000000
00011000
00000000
00010000
00000100
00001000
00000010
,
00000220
00000330
00002001
00000000
00003100
00000010
00000100
00001000
,
00000100
00000010
00000100
00001000
00000100
00000010
00000100
00001000
,
00000001
00000000
00002100
00000000
00003001
00000100
00000010
00000001
,
00000010
00000100
00000010
00000001
00000010
00000100
00000001
00000001
,
00001000
00000000
00002100
00000000
00003100
00010000
00001000
00010000
,
00000100
00010000
00001000
00010000
00000100
00010000
00001000
00010000
,
00012000
00000000
01003000
10000000
01000000
00010000
00100000
01000000
,
10000000
01000000
00010000
01000000
00100000
00001000
01001000
00000000
,
00011000
00011000
00011000
00011000
00011000
00000000
00010000
00000000
,
00000100
00000000
00001000
00000010
00000100
00000001
00000010
00000100
,
00001100
00000100
00010000
00001000
,
01000000
00000000
00001000
01000000
00010000
00100000
01000000
10000000
,
10010000
00010000
10000000
00100000
,
10000000
00000000
01000000
00100000
00010000
00001000
00000100
00000010
,
00001001
00000000
00000001
00000100
00000001
00000100
00000001
00000100
,
00000020
00020030
00001000
00031000
,
00110000
00000000
00000000
00000000
01000000
00000000
00000000
00100000
,
00000000
00100000
00000000
01000000
00010000
00000000
10000000
00000000
,
02000000
00000000
03000000
00000000
00100000
00000000
00000000
01000000
,
00000000
01000000
00000000
10000000
00200000
00000000
01300000
00001000
,
00020000
00000000
00030000
00000100
00001000
00001000
00000000
00000010
,
00000000
00000100
00000000
00000010
00000100
00000000
00000001
00000000
,
00000020
00000000
00000030
00000100
00000010
00000000
00000001
00000000
,
00002000
00003200
00020300
00032000
,
01003000
00000000
00010000
00000000
00100000
00000000
01000000
10000000
,
00000000
01000000
00000000
00100000
00000000
00010000
00000000
00001000
,
00000200
00001300
00000020
00000130
,
00000201
00000310
00002100
00003001
,
00001010
00000000
00000000
00000010
00000100
00000001
00000000
00000010
,
00000000
00001000
00000000
00000010
00000000
00000100
00000000
00001000
,
00000100
00010000
00001000
01000000
,
02001000
03010000
00120000
10030000
,
10010000
00000000
00000000
10000000
01000000
00100000
00000000
00010000
,
00210000
00000000
00300000
00100000
00010000
00100000
00000000
00001000
,
00012000
00000000
00003000
00010000
00000100
00001000
00000000
00000010
,
00002010
00000000
00003000
00000010
00000100
00000001
00002002
00003003
,
00000001
00000100
00000001
00000100
00000010
00001000
00000010
00001000
,
00000100
00001000
00000100
00001000
00000100
00010000
00000100
00010000
,
00001000
01000000
00001000
00010000
00001000
01000000
00001000
00010000
,
00000200
00020300
00032000
02003000
,
03100000
00000000
10010000
00000000
10000000
01000000
00100000
01000000
,
10000000
01000000
00100000
01000000
10000000
01000000
00100000
00010000
,
00000000
00000000
00021000
00000000
00031000
00000100
00000010
00000100
,
00001000
00000100
00000010
00000100
00001000
00000100
00000010
00000100
,
00000000
00000000
00001001
00000000
00000001
00000100
00000010
00000100
,
00000001
00000100
00000010
00000100
00000001
00000100
00000010
00000000
,
00001001
00000000
00000010
00000100
00001000
00010000
00100000
10000000
,
00010000
00100000
10000000
00100000
00010000
00001000
00010000
00000000
,
00010000
00001000
00010000
00001000
00010000
00001000
00010000
00001000
00010000
00000000
00000100
00000000
00001000
00000000
00000010
00000000
,
00000100
00000010
00001000
00000100
00000001
00000100
00000010
00000001
,
00001001
00000000
00000002
00000000
00000103
00000010
00001000
00000100
,
00010000
00001000
01000000
00100000
00010000
00100000
10000000
01000000
,
11000000
00000000
00020000
00000000
00130000
01000000
00100000
00001000
,
00010000
00000100
00010000
00001000
01000000
00010000
01000000
00100000
,
10000000
00000000
01000000
01000000
00100000
00100000
00001000
00001000
,
00010000
00000100
00000000
00001000
00000010
00000100
00000000
00000000
,
00002002
00003003
00000000
00000000
;

//--------------- dance-double - ----------------
#NOTES:
     dance-double:
     :
     Hard:
     16:
     0,0,0,0,0:
00000000
00000000
00000000
00000000
,
00000000
00000000
00000000
00000000
,
00000000
00000000
00000000
00000000
,
00000000
00000000
00000000
00000000
,
00000000
00000000
00000000
00000000
,
00000000
00000000
00000000
00000000
,
00000000
00000000
00000000
00000000
,
00000000
00000000
00000000
00000000
,
00000000
00000000
00000000
00000000
,
10000000
01000000
00000000
00100000
01000000
10000000
00000000
10000000
,
01000000
00100000
00000000
00011000
00000000
00001001
00000000
00001000
,
00000100
00000010
00000000
00000010
00000100
00001000
00000000
00001000
,
00000100
00000010
00000000
00000011
00000002
00000000
00002003
00000000
,
00003100
00010000
00000000
00001000
01000000
00100000
00000000
01000000
,
00001000
00010000
00000000
00011000
00000000
00011000
00000000
00010000
,
00000100
00001000
00000000
00000100
00010000
00001000
00000000
00010000
,
00000010
00000100
00000000
00000001
00000000
00000010
00000100
00000000
,
00011000
00000000
00001000
00000000
01000000
00000000
10010000
00000000
00000000
00000000
10000000
01000000
00100000
00000000
00000000
00000000
,
00001000
00000000
00010000
00000000
00000010
00000000
00001001
00000000
00000000
00000000
00000001
00001000
00000001
00000000
00000000
00000000
,
00000001
00001000
00000100
00010100
00000000
00010000
00001000
01000000
,
00020000
00000000
00130000
00010000
01000000
00010000
00021000
00000000
,
00030100
00000000
00001000
00000010
00001000
00000000
00000010
00000000
00000100
00000000
00000001
00000010
00000001
00000000
00000010
00000000
,
00000100
00000000
00001000
00000100
00001000
00000000
00000100
00000000
00010000
00000000
00001000
01000000
00001000
00000000
01000000
00000000
,
00100000
10000000
00100000
10000000
00010000
01000000
00010000
01000000
00010000
00100000
00010000
00100000
00001000
00100000
00001000
00100000
,
00002000
00000000
00000000
00000000
00023000
00000000
00000000
00000000
00032000
00000000
00000000
00000000
00020000
00000000
00000000
00033000
,
00011000
00011000
00011000
00011000
,
00011000
00000000
00011000
00000000
00000100
00010000
00001100
00000000
,
00000100
00000000
00001000
00000010
00000100
00000000
00000001
00000000
00000010
00000000
00000100
00001000
00000010
00000000
00000100
00000000
,
00000001
00000000
00001000
00000010
00000100
00000000
00000001
00000000
00001000
00000000
00000010
00000100
00000001
00000000
00001000
00000000
,
00000100
00000000
00000010
00000001
00000100
00000000
00000010
00000000
00001000
00000000
00000100
00001000
00000010
00000000
00001000
00000000
,
00000001
00000000
00000010
00000001
00000100
00000000
00000010
00000000
00001000
00000000
00000100
00000000
00001100
00000000
00011000
00000000
,
00110000
00000000
00100000
01000000
10000000
00000000
00100000
00000000
01000000
00000000
00010000
00100000
01000000
00000000
00100000
00000000
,
01000000
00000000
00010000
00100000
01000000
00000000
10000000
00000000
00010000
00000000
00100000
01000000
10000000
00000000
00010000
00000000
,
10000000
00000000
00010000
00100000
01000000
00000000
00010000
00000000
01000000
00000000
00100000
01000000
10000000
00000000
00010000
00000000
,
10010000
00000000
10010000
00000000
00010000
01000000
00010000
01000000
,
10200000
00000000
01300000
00000000
00010000
00100000
00001000
00010000
,
00000010
00000100
00000001
00001000
00000100
00010000
00001000
01000000
,
00010000
00000000
00102000
00000000
00013000
00000010
00000100
00000001
,
00001000
00000100
00010000
00001000
01000000
00010000
00110000
11000000
,
10010000
00000000
00120000
00000000
01030000
00010000
00100000
00001000
,
00010000
00000010
00010000
00001000
00100000
00010000
01000000
00001000
,
00010000
00000000
00000100
00000100
00001000
00001000
00000010
00000010
,
00000100
00001000
00000100
00000001
00001000
00000000
00000100
00000000
00000110
00000000
00000011
00000000
00001100
00000000
00000000
00000000
,
00001100
00011000
01001000
01100000
10010000
00000000
01100000
00000000
,
10010000
00000000
10000000
01000000
00100000
00010000
00001000
00000100
,
00000120
00000000
00000230
00000000
00001300
00000010
00000001
00000010
,
00000100
00000001
00000100
00001000
00010000
00100000
10000000
01000000
,
00210000
00000000
02300000
00000000
03100000
00010000
01000000
00010000
,
10000000
01000000
00100000
00010000
00001000
00000100
00000010
00000001
,
00001001
00000000
00000001
00000001
00000010
00001000
00000010
00000001
,
00000100
00000010
00000100
00000010
00000200
00000000
00000000
00000000
00000301
00000000
00000000
00000000
00000001
00000000
00000000
00000000
,
00001100
00000000
00000000
00000000
00000000
00000000
00000100
00010000
00001000
00000000
00010000
00000000
00000000
00000000
00001000
00000000
,
00000000
01000000
00000000
00010000
00100000
01000000
00100000
00001000
,
00020000
00000000
00000000
00000000
00030000
00000000
00000100
00001000
00000010
00000000
00000100
00000000
00000010
00000000
00010000
00000000
,
00000000
00001000
00000000
00010000
00000100
00000000
00001000
00000010
,
00000102
00000000
00000000
00000000
00000003
00000000
00000100
00000001
00000010
00000000
00000100
00000000
00000000
00000000
00000010
00000000
,
00000000
00000010
00000000
00000010
00000001
00000010
00000100
00001000
,
00000200
00000000
00000000
00000000
00000000
00000000
00010300
00001000
00010000
00000000
00001000
00000000
01000000
00000000
00010000
00000000
,
00100000
10000000
00100000
00010000
00100000
10000000
00100000
00010000
,
01000000
00100000
10000000
00010000
00100000
00001000
00010000
00010200
,
00000000
00001000
00000000
00010000
00000000
00001000
00000000
00010300
,
00001100
00000000
00000000
00000000
00000000
00000000
00001000
00000010
00000100
00000000
00000001
00000000
00000010
00000000
00000100
00000000
,
00001100
00011000
01010000
01100000
,
10020000
00000000
00000000
00000000
00030000
00000000
10000000
00100000
01000000
00000000
00010000
00000000
00000000
00000000
00110000
00000000
,
00000000
00001000
00000000
00010000
00000000
00001000
00000000
00010000
,
00110000
00011000
00001100
00000110
,
00001001
00011000
10010000
01100000
,
10010000
00000000
00000000
00000000
00000000
00000000
01000000
00010000
00100000
00000000
00001000
00000000
00010000
00000000
00000100
00000000
,
00002002
00000000
00000000
00000000
00003003
00000000
00000001
00001000
00000100
00000000
00010000
00000000
00001000
00000000
01000000
00000000
,
20020000
00000000
00000000
00000000
30030000
00000000
10000000
00010000
00100000
00000000
00001000
00000000
00010000
00000000
00000100
00000000
,
00002002
00000000
00000000
00000000
00003003
00000000
00000001
00000100
00000010
00000000
00001000
00000000
00012000
00000000
00000000
00000000
,
01003000
00000000
00010000
01000000
00010000
00000000
00100000
00000000
01000000
00000000
10000000
00010000
10000000
00000000
00010000
00000000
,
00100000
00000000
00001000
00010000
00001000
00000000
00010000
00000000
00000010
00000000
00000100
00000010
00000100
00000000
00000001
00000000
,
00001000
00000100
00001000
00000010
00001000
00000010
00001000
00000100
00001000
00000100
00010000
00001000
00010000
00001000
01000000
00001000
,
01000000
00100000
01000000
00100000
01000000
00100000
01000000
00100000
01000000
00100000
01000000
00100000
01000000
00000000
00000000
00000000
,
20020000
30030000
00000000
00000000
21000000
00000000
00000000
00000000
32000000
00000000
03200000
00000000
00320000
00000000
00032000
00000000
,
00003200
00000320
00000032
00000203
00002300
00003200
00000302
00002000
,
00003003
00000000
00002001
00000000
00003002
00000203
00002300
00023000
,
00230000
20300000
32000000
03020000
00032000
00003020
00000032
00002003
,
00003000
00000000
00002001
00000000
00003002
00000203
00002300
00023000
,
00230000
20300000
32000000
03020000
00032000
00003020
00000032
00002000
,
00003003
00000000
00000020
00000230
00002300
00023000
00230000
20300000
,
30010000
00100000
01000000
10000000
00010000
00000000
10000000
00000000
00010000
00000000
10000000
00000000
01100000
00000000
00000000
00000000
,
00010000
00100000
00001000
00010000
00000010
00000100
00000001
00000010
00000100
00000000
00000010
00000000
00010000
00000000
00001000
00000000
,
01000000
00000000
00010000
00000000
20000000
30000000
02000000
03000000
00020000
00030000
00200000
00300000
20000000
30000000
00020000
00030000
,
10020000
00000000
10030000
00010000
00100000
00001000
00010000
00000100
,
00001000
00000000
00000001
00000000
00002000
00003000
00000200
00000300
00000002
00000003
00000020
00000030
00002000
00003000
00000002
00000003
,
00002001
00000000
00003020
00000000
00001030
00000100
00010000
00001000
,
00100000
00010000
10000000
01000000
00010000
00100000
10000000
00010000
,
20010000
00000000
31000000
01000000
00100000
00100000
00001000
00001000
,
00010000
00001000
00010000
00001000
00010000
00000100
00001000
00000010
00000100
00000000
00000010
00000000
00001000
00000000
00000000
00000000
,
00002002
00003003
00000000
00000000
;
