#TITLE:ALIEN TEMPLE;
#SUBTITLE:;
#ARTIST:PINK PONG;
#TITLETRANSLIT:;
#SUBTITLETRANSLIT:;
#ARTISTTRANSLIT:;
#GENRE:;
#CREDIT:;
#MUSIC:ALIEN TEMPLE.ogg;
#BANNER:ALIEN TEMPLE.png;
#BACKGROUND:ALIEN TEMPLE-bg.png;
#CDTITLE:;
#SAMPLESTART:36.476;
#SAMPLELENGTH:13.362;
#SELECTABLE:YES;
#OFFSET:-0.063;
#BPMS:0.000=145.000;
#STOPS:84.000=1.241;
#ORIGIN:;
#TAGS:;
#PREVIEWVID:;
#JACKET:ALIEN TEMPLE-jacket.png;
#CDIMAGE:;
#DISCIMAGE:;
#BGCHANGES:0.000=ALIEN TEMPLE.mp4=1.000=0=0=1,
99999.000=-nosongbg-=1.000=0=0=0=StretchNoLoop====
;
#FGCHANGES:;

//--------------- dance-single - Pandemonium X ----------------
#NOTES:
     dance-single:
     Pandemonium X:
     Beginner:
     2:
     0.15328,0.208039,0.081285,0.040642,0,132,122,10,5,0,0,0,0,0,0.15328,0.208039,0.081285,0.040642,0,132,122,10,5,0,0,0,0,0:
0000
0000
0000
0000
,
0000
0000
0000
0000
,
0001
0000
0000
0000
,
1000
0000
0000
0000
,
0001
0000
0000
0000
,
1000
0000
0010
1001
,
0001
0000
1000
0000
,
0100
0000
1000
0000
,
0010
0000
0100
0000
,
0001
0000
0010
0000
,
0100
0000
0010
0000
,
0001
0000
1000
0000
,
0010
0000
1000
0000
,
0100
0000
1000
0000
,
1001
0000
0000
0000
,
0000
0000
0000
0000
,
0000
0000
0000
0000
,
0000
0000
0000
0000
,
0001
0000
0000
0000
,
1000
0000
0000
0000
,
0020
0000
0000
0030
,
0000
0110
0000
0000
,
0001
1000
0000
0000
,
0100
0010
0000
0000
,
0100
1000
0000
0000
,
0010
0100
0000
0000
,
0010
1000
0000
0000
,
0001
0010
0000
0000
,
0100
0010
0000
0000
,
0100
1000
0000
1000
,
0000
0001
0000
0001
,
0000
0100
0000
0100
,
0000
0010
0000
0010
,
0000
1000
0000
0001
,
0000
1000
0000
0001
,
0000
0010
0000
0100
,
0000
1001
0000
0000
,
0000
0001
0000
0001
,
0000
0001
0000
0001
,
0001
1000
0000
1000
,
0000
1000
0000
1000
,
1000
0010
0000
0010
,
0000
0010
0000
0010
,
0010
0100
0000
0100
,
0000
0000
0100
0000
0000
0000
0000
0001
,
0000
1000
0000
0100
,
0000
1000
0000
0010
,
0000
0100
0000
0001
,
0000
0010
0000
0100
,
0000
0010
0000
0001
,
0000
1000
0000
0110
,
0000
0001
0000
1000
,
0000
0010
0000
0100
,
0000
1001
0000
0000
,
0000
0110
0000
0000
,
0000
0002
0003
0000
,
0000
2000
3000
0000
,
0000
0010
0000
0000
,
0000
0100
0000
0000
,
0000
0001
0000
0000
,
0000
2000
0000
0000
,
3000
0010
0000
0010
,
0000
0100
0000
0100
,
0000
0001
0000
1000
,
0000
0110
0000
0000
,
0000
1001
0000
0001
,
0000
1000
0000
0100
,
0000
0010
0000
0100
,
0000
1000
0000
0001
,
0000
1001
0000
1000
,
0000
0010
0000
0100
,
0000
0001
0000
0010
,
0000
0200
0000
0000
,
0000
0300
0000
0000
0000
0000
0000
0000
;

//--------------- dance-single - Pandemonium X ----------------
#NOTES:
     dance-single:
     Pandemonium X:
     Easy:
     7:
     0.270563,0.415722,0.284497,0.284497,0.012193,233,198,35,35,0,0,0,0,0,0.270563,0.415722,0.284497,0.284497,0.012193,233,198,35,35,0,0,0,0,0:
0000
0000
0000
0000
,
0000
0000
0000
0000
,
0001
1000
0001
0001
,
1000
0001
1000
1000
,
0001
1000
0001
0001
,
1000
0001
0110
1001
,
1000
0000
0001
0000
,
0010
0000
0100
0000
,
0010
0000
0001
0000
,
1000
0000
0010
0100
,
0010
0000
1000
0000
,
0100
0000
0010
0000
,
0001
0000
0100
0000
,
0010
0000
1000
0000
,
1001
0000
0000
0000
,
0000
0000
0000
0000
,
0002
0000
0000
0003
,
2000
0000
0000
3000
,
0020
0000
0000
0030
,
0200
0000
0000
0300
,
0000
0010
0000
0000
0000
0000
0000
0000
0010
0000
0000
0000
0000
0000
0000
0000
,
0000
1001
1000
0001
,
0010
0110
0100
1000
,
0010
0101
0001
0010
,
0001
1001
1000
0010
,
0100
1010
0010
0100
,
0001
1100
0100
1000
,
0001
0110
1000
0001
,
0010
1100
0100
1000
,
0010
0200
0300
0002
,
0003
0020
0030
0200
,
0300
2000
3000
0020
,
0030
0200
0300
0002
,
0003
2000
3000
0200
,
0300
2000
3000
0020
,
0030
0200
0300
0002
,
0003
0110
0000
0000
,
0000
0001
1000
0010
,
1000
0001
0010
1100
,
0011
0001
1000
0010
,
1000
0001
1000
0101
,
1010
1001
1000
0001
,
0010
0001
0100
1010
,
0101
1001
0010
1001
,
0100
0000
0220
0000
0000
0000
0000
0330
,
0000
0001
0000
1000
,
0000
0000
0100
0000
0000
0000
0010
0001
,
0100
0010
0000
0100
,
0000
0010
0000
1000
,
1001
0001
0000
1000
,
0000
0000
0100
0000
0000
0010
0100
0000
,
0000
1000
0000
0010
,
0000
0100
0000
0001
,
0000
1001
0000
0010
,
0000
1001
0000
0100
,
0000
0000
0001
1000
0001
0000
0000
0000
,
0000
0000
0000
0000
0100
0000
0000
0100
0000
0000
0000
0000
0000
0000
0000
0000
,
0000
2001
3000
0002
,
0003
0200
0300
0020
,
0030
2000
3000
0002
,
0003
0020
0000
0000
,
0030
0200
1300
0200
,
0310
0002
0103
0002
,
1003
0020
1030
0020
,
0130
2002
0000
0000
,
3003
0101
0001
0010
,
0100
0011
0001
0100
,
0010
1010
1000
0100
,
0010
1100
0100
1000
,
0010
1001
0001
0100
,
0010
1001
1000
0100
,
0010
0011
0100
1100
,
1000
0000
0001
0100
0010
0000
0000
1000
,
0000
1000
0000
0000
0000
0000
0000
0000
0000
0000
0000
0000
0000
0000
0000
0000
;

//--------------- dance-single - Pandemonium X ----------------
#NOTES:
     dance-single:
     Pandemonium X:
     Medium:
     10:
     0.382039,0.445416,0.130056,0.276369,0.166634,329,313,16,34,0,0,0,0,0,0.382039,0.445416,0.130056,0.276369,0.166634,329,313,16,34,0,0,0,0,0:
0000
0000
0000
0000
,
0000
0000
0000
0000
,
0001
0100
0001
0100
,
0010
1000
0010
1000
,
0001
1000
0001
1000
,
0001
0000
0000
0000
0010
0000
0000
0100
0010
0000
0000
0000
0011
0000
0000
0000
,
1000
0000
0000
0001
0010
0000
0000
0100
,
0010
0000
0000
0100
1000
0000
0000
0010
,
0100
0000
0000
0001
1000
0000
0000
0100
,
0010
0000
0000
0100
1000
0000
0001
0000
,
0100
0000
0000
0010
1000
0000
0000
0001
,
0010
0000
0000
0100
0010
0000
0000
0001
,
1000
0000
0000
0010
0100
0000
0000
0001
,
1000
0000
0000
0100
0010
0000
0001
0000
,
1001
1000
1000
1000
,
0001
0001
0001
0001
,
0100
0100
0100
0100
,
0010
0010
0010
0010
,
1000
0010
0100
0001
,
1000
0010
0100
0001
,
0000
2000
0000
0000
0000
3000
0000
0002
0000
0000
0000
0000
0000
0000
0000
0003
,
0000
0000
1000
0000
0001
0000
0100
0001
,
0010
0001
0100
0000
0010
0000
1000
0010
,
0100
0010
1000
0000
0001
0000
1000
0100
,
0010
0100
1000
0000
0001
0000
0100
0010
,
0001
0010
0100
0000
0010
0000
0100
0010
,
1000
0100
0010
0000
0100
0000
0010
0100
,
1000
0001
0100
0000
0001
0000
0010
0001
,
1000
0100
0010
0000
0100
0000
1000
0010
,
0100
0001
2000
0000
0000
0000
3002
0000
,
0000
0023
0000
0230
,
0000
2300
0000
3020
,
0000
0230
0000
0302
,
0000
0023
0000
0230
,
0000
2300
0000
3020
,
0000
0230
0000
0320
,
0000
0130
1001
0000
0000
0000
0000
0000
,
0000
0000
0000
0000
0001
0000
0000
0001
0000
0000
0001
0000
0000
0001
0000
0000
,
0001
0000
0001
0000
0001
0000
0000
0001
0000
0000
0001
0000
1001
0000
0000
0000
,
1001
0000
0000
0000
1000
0000
0000
1000
0000
0000
1000
0000
0000
1000
0000
0000
,
1000
0000
1000
0000
1000
0000
0000
1000
0000
0000
1000
0000
1001
0000
0000
0000
,
1001
0000
0000
0000
0010
0000
0000
0010
0000
0000
0010
0000
0000
0010
0000
0000
,
0010
0000
0010
0000
0010
0000
0000
0010
0000
0000
0010
0000
0110
0000
0000
0000
,
0110
0000
0000
0000
0100
0000
0000
0010
0000
0000
0100
0000
0000
0001
0000
0000
,
1000
0001
0100
0000
0000
0000
0000
2020
,
0000
0000
3030
0000
0001
0000
0000
0001
0000
0000
0001
0000
1000
0000
0000
1000
,
0000
0000
1000
0000
0100
0000
0000
0100
0000
0000
0100
0000
0010
0000
0000
0010
,
0000
0000
0010
0000
0001
0000
0000
0010
0000
0000
0100
0000
1000
0000
0000
0100
,
0000
0000
0010
0000
0001
0000
0000
0100
0000
0000
0010
0000
1000
0000
0000
0001
,
0000
0000
1000
0000
0100
0000
0000
0100
0000
0000
0100
0000
1000
0000
0000
1000
,
0000
0000
1000
0000
0010
0000
0000
0010
0000
0000
0110
0000
0110
0000
0000
0100
,
0000
0000
0100
0000
0010
0000
0000
1000
0000
0000
0001
0000
0010
0000
0000
0001
,
0000
0000
1000
0000
0100
0000
0000
0010
0000
0000
0100
0000
1000
0000
0000
0001
,
0000
0000
0100
0000
0010
0000
0000
1000
0000
0000
0010
0000
0100
0000
0000
0001
,
0000
0000
0010
0000
0100
0000
0000
1000
0000
0000
0100
0000
1000
0000
0000
0010
,
0000
0100
0001
0100
1000
0000
0000
0000
,
0000
0000
0000
0000
1100
0000
0000
0101
0000
0000
0000
0000
0000
0000
0000
0000
,
0000
2000
0000
3002
,
0000
0023
0000
0230
,
0000
0320
0000
0032
,
0000
0203
0000
0000
,
0000
0310
0000
0000
1002
0000
0000
0000
0100
0000
0000
0000
0023
0000
0000
0000
,
0130
2000
0100
3020
,
0130
0002
0010
2003
,
3001
0220
0000
0000
,
0330
0000
1000
0000
0001
0000
1000
1000
,
0001
0010
0100
0000
0010
0000
0001
0001
,
0010
0001
1000
0000
0001
0000
0100
0100
,
1000
0100
0001
0000
1000
0000
0010
0010
,
0001
0010
1000
0000
0001
0000
1000
0100
,
0001
0100
1000
0000
0001
0000
1000
0010
,
0001
0000
0010
0000
0100
0000
0001
0000
0000
0001
0000
0000
0010
0000
0000
0010
,
0000
0100
0010
0001
0200
0000
0000
0010
,
0000
0310
0000
0000
0000
0000
0000
0000
0000
0000
0000
0000
0000
0000
0000
0000
;

//--------------- dance-single - Pandemonium X ----------------
#NOTES:
     dance-single:
     Pandemonium X:
     Hard:
     13:
     0.551576,0.74236,0.260112,0.276369,0.300754,475,443,32,34,0,0,2,0,0,0.551576,0.74236,0.260112,0.276369,0.300754,475,443,32,34,0,0,2,0,0:
0000
0000
0000
0000
,
0000
0000
0000
0000
,
0001
1000
0010
0010
,
1000
0001
0100
0100
,
0001
1000
0100
0100
,
1000
0000
0000
0000
0001
0000
0000
0010
0100
0000
0000
0000
1001
0000
0000
0000
,
1010
0000
0100
0001
0010
0000
0100
1000
,
0010
0000
0100
0001
0010
0000
0001
1000
,
0100
0000
1000
0001
0100
0000
0001
1000
,
0100
0000
1000
0001
0100
0000
1000
0100
,
0001
0000
0001
0010
1000
0000
1000
0100
,
0001
0000
0001
0010
1000
0000
0001
0100
,
1000
0000
1000
0010
0001
0000
0001
0100
,
1000
0000
1000
0010
0001
0000
0010
0100
,
1001
0001
1000
0010
,
1000
0001
0010
0001
,
1000
0100
1000
0001
,
0100
0001
1000
0001
,
1000
0100
0010
0001
,
1000
0100
0010
0001
,
0000
2000
0000
0000
0000
3000
0000
0002
0000
0000
0000
0000
0000
0000
0000
0003
,
0000
0000
0000
0000
1010
0000
0000
1000
0001
0000
0010
0000
0001
0000
0100
0000
,
0010
0000
1000
0000
0001
0000
0000
0001
0010
0000
0001
0000
0100
0000
0010
0000
,
1000
0000
0100
0000
0010
0000
0000
0010
0100
0000
0010
0000
0001
0000
1000
0000
,
0010
0000
1000
0000
0100
0000
0000
0010
0100
0000
0010
0000
0001
0000
1000
0000
,
0010
0000
0100
0000
0010
0000
0000
1000
0010
0000
0100
0000
0001
0000
0010
0000
,
0100
0000
1000
0000
0100
0000
0000
0100
0010
0000
0100
0000
1000
0000
0001
0000
,
0100
0000
0001
0000
0010
0000
0000
0010
0001
0000
1000
0000
0100
0000
1000
0000
,
0010
0000
0100
0000
0001
0000
0000
0001
0100
0000
0001
0000
0010
0000
0100
0000
,
1000
0001
1000
0200
0000
1300
0010
0200
,
0000
0310
0100
0002
0000
0013
0100
2000
,
0000
3100
1000
0002
0000
0103
0010
2000
,
0000
0000
3010
0000
0100
0000
0002
0000
0000
0000
0013
0000
0100
1000
0000
0001
,
0000
0001
1000
0000
0001
0000
0200
0000
0000
0000
0310
0000
1000
0000
0200
0000
,
0000
0310
0001
2000
0000
3001
1000
0002
,
0000
1003
0100
0020
0000
0130
1000
0020
,
0000
0130
2002
0000
0000
0000
0000
0000
,
3003
0000
0000
0000
1001
0000
0001
1000
0000
0001
1000
0000
0001
1000
0000
0001
,
1000
0000
1000
0000
1001
0000
1000
0001
0000
1000
0001
0000
1000
0010
1000
0000
,
0001
0100
0001
0000
1001
0000
1000
0001
0000
1000
0001
0000
1000
0001
0000
1000
,
0001
0000
1000
0000
1001
0000
0001
1000
0000
0001
1000
0000
0001
0100
0001
0000
,
1000
0100
1000
0000
0110
0000
0010
0100
0000
0100
0010
0000
0010
0100
0000
0100
,
0010
0000
0010
0000
0110
0000
0100
0010
0000
0010
0100
0000
0010
0001
0010
0000
,
0001
0100
0001
0000
1001
0000
0001
0010
0000
0010
0100
0000
0100
1000
0000
1000
,
0100
0010
1001
0000
0000
0000
0000
0220
,
0330
0000
0000
0000
0001
0000
0000
0001
0000
0000
1000
0000
0010
0000
0000
0010
,
0000
0000
1000
0000
0100
0000
0000
0100
0000
0000
0010
0000
0001
0000
0000
0020
,
0000
0000
0130
0000
1000
0000
0000
1000
0000
0000
0001
0000
0100
0000
0000
0100
,
0000
0000
0010
0000
1000
0000
0000
1000
0000
0000
0001
0000
0010
0000
0000
0100
,
0000
0000
0010
0000
0001
0000
0000
0001
0000
0000
0100
0000
0010
0000
0000
0100
,
0000
0000
0001
0000
1000
0000
0000
0001
0000
0000
0110
0000
1100
0000
0000
1000
,
0000
0000
0100
0000
1000
0000
0000
0010
0000
0000
0001
0000
0010
0000
0000
1000
,
0000
0000
0100
0000
0001
0000
0000
0100
0000
0000
0010
0000
0001
0000
0000
1000
,
0000
0000
0010
0000
1002
0000
0000
0010
0000
0000
0103
0000
2001
0000
0000
0100
,
0000
0000
3010
0000
1002
0000
0000
0010
0000
0000
0103
0000
2001
0000
0000
0100
,
0000
3010
0101
0100
0010
0000
0000
0000
,
0000
0000
0000
0000
1001
0000
0000
1100
0000
0000
0000
0000
0000
0000
0000
0000
,
0000
0000
2001
0000
0000
3001
1000
0020
,
0000
1030
0001
0200
0000
0301
1000
0020
,
0000
1030
0100
0020
0000
0130
0010
0002
,
0000
0000
4003
0004
0000
0000
0000
0000
0000
0000
0000
0000
0000
0000
0000
0000
,
3003
0110
0000
0000
1001
0000
0001
0000
1000
0000
0010
0000
1000
0000
0001
0000
,
0100
0010
1000
0100
0010
0100
1000
0001
,
0010
0100
1000
0100
0010
0001
0100
1000
,
0100
0001
2002
0000
0000
0000
0000
0000
,
3003
0000
0000
0000
0101
0000
0000
0001
0010
0000
0001
0000
1000
0000
0100
0000
,
0001
0000
0100
0000
1000
0000
0000
1000
0010
0000
0001
0000
0010
0000
0100
0000
,
0001
0000
1000
0000
1100
0000
0000
0010
0100
0000
0010
0000
0001
0000
0100
0000
,
1000
0000
0100
0000
0110
0000
0000
0010
0100
0000
0001
0000
1000
0000
0100
0000
,
0001
0000
0100
0000
1100
0000
0000
0100
1000
0000
0010
0000
0001
0000
0010
0000
,
0100
0000
0001
0000
0011
0000
0000
0001
0010
0000
1000
0000
0010
0000
0100
0000
,
1000
0100
0001
0100
1000
0100
0010
0001
,
0100
0010
0100
0002
0020
0000
0000
0003
,
0000
0030
0000
0000
0000
0000
0000
0000
0000
0000
0000
0000
0000
0000
0000
0000
;

//--------------- dance-single - Pandemonium X ----------------
#NOTES:
     dance-single:
     Pandemonium X:
     Challenge:
     16:
     0.75595,0.95266,0.235726,0.601509,0.971355,651,622,29,74,34,5,24,0,0,0.75595,0.95266,0.235726,0.601509,0.971355,651,622,29,74,34,5,24,0,0:
0000
0000
0000
0000
,
0000
0000
0000
0000
,
0001
0000
0000
0000
1000
0000
0000
0000
0010
0100
0000
0010
0000
0100
0001
1000
,
0001
0000
0000
0000
1000
0000
0000
0000
0001
1000
0000
0100
0000
0010
0100
1000
,
0001
0000
0000
0000
1000
0000
0000
0000
0001
0010
0000
0001
0000
1000
0100
1000
,
0001
0000
0000
0000
1000
0000
0000
M01M
0010
0000
0000
0000
1001
0000
0000
0000
,
0001
0000
0000
0000
0100
0010
2000
0000
0100
0000
0000
0000
3001
0010
0200
0000
,
1000
0000
0000
0000
0310
0001
2000
0000
0100
0000
0000
0000
3010
0100
0010
0000
,
2000
0000
0000
0000
3100
1000
0002
0000
0100
0000
0000
0000
1003
0001
0020
0000
,
0100
0000
0000
0000
0031
1000
0020
0000
0100
0000
0000
0000
1030
0001
1000
0000
,
0002
0000
0013
020M
2300
0M00
3001
M200
,
0320
0M00
0130
00M2
2003
000M
3001
M020
,
0230
00M0
0310
0M02
2003
000M
3001
M200
,
2300
0000
0M00
0000
3100
0000
M020
0000
2030
0000
00M0
0000
3010
0100
0001
0000
,
2001
0001
0001
3001
,
1002
1000
1000
1003
,
0210
0010
0010
0310
,
0120
0100
0100
0130
,
0102
0010
0100
1003
,
2001
0100
0010
3001
,
0000
4000
0000
0004
0000
3000
0000
0403
0000
0040
0000
0000
0000
0000
0000
0330
,
0000
0000
0000
0000
0201
0000
0000
0310
1000
0001
0010
0100
1000
0100
0010
0001
,
0010
0001
0100
0001
1000
0000
0000
1000
0001
0010
0100
1000
0100
1000
0010
0100
,
0001
0010
0100
1000
0001
0000
0000
0001
0010
0001
1000
0100
0010
0001
0010
0001
,
0100
0010
1000
0100
0010
0000
0000
0010
0100
0010
0001
0100
0010
0100
0010
1000
,
0001
0010
0100
1000
0001
0000
0000
0001
0100
0010
1000
0010
0100
0010
1000
0001
,
0010
0100
0010
0001
1000
0000
0000
1000
0010
1000
0001
0010
0001
0100
0010
1000
,
0100
0010
0001
0010
0100
0000
0000
0100
0010
0001
0100
0001
1000
0001
1000
0010
,
1000
0001
0010
0100
0010
0000
0000
0010
0100
1000
0001
0100
0001
0010
1000
0010
,
0001
0100
1000
0100
0001
0000
4000
0000
0000
0000
3001
0000
0010
0000
0400
0000
,
0000
0310
0001
4000
0000
3001
1000
0400
,
0000
0310
0100
4000
0000
3100
0010
0004
,
0000
0103
0010
4000
0000
3001
0010
0400
,
0000
0310
0001
0400
0000
1300
0100
0040
,
0000
1030
0001
0040
0000
1030
0010
0004
,
0000
0103
0010
4000
0000
3001
0010
0400
,
0000
2300
0002
0000
0000
0000
0000
0000
,
3003
0000
0000
0000
0010
0000
0010
0010
0000
0010
0010
0000
0010
0010
0000
0010
,
0010
0000
0010
0000
0010
0000
0010
0010
0000
0010
0010
0000
1000
0010
0100
0001
,
1000
0010
0100
0001
1001
0000
0100
0100
0000
0100
0100
0000
0100
0100
0000
0100
,
0100
0000
0100
0000
0100
0000
0100
0100
0000
0100
0100
0000
0001
0100
0010
1000
,
0001
0100
0010
1000
0001
0000
0001
0001
0000
0001
0001
0000
0001
0001
0000
0001
,
0001
0000
0001
0000
0001
0000
0001
0001
0000
0001
0001
0000
1000
0001
0100
0010
,
1000
0001
0100
0010
1000
0000
1000
1000
0000
1000
1000
0000
1000
1000
0000
1000
,
1000
1010
2002
0000
0000
0000
0000
0010
,
0000
3003
0000
0000
2001
0000
0000
3200
0000
0000
0310
0000
0002
0000
0000
0203
,
0000
0000
1300
0000
0200
0000
0000
0320
0000
0000
1030
0000
0002
0000
M000
M023
,
M000
M000
0130
0000
0020
0000
0000
0032
0000
0000
0103
0000
2000
0000
0000
3200
,
0000
0000
0310
0000
2000
0000
0000
3002
0000
0000
0013
0000
0200
0000
0000
2300
,
0000
0000
3100
0000
0120
0000
0000
0032
0000
0000
0103
0000
0120
0000
0000
2030
,
0000
0000
3001
0000
2001
0000
0000
3200
0000
0300
MM11
0000
21MM
0000
0000
3002
,
0000
0000
1003
0000
1001
0000
1000
0010
0000
0010
0001
0000
1001
0000
0001
0100
,
0000
0100
1000
0000
1001
0000
1000
0010
0000
0010
0001
0000
1001
0000
0001
0100
,
0000
0100
1000
0000
1002
0000
1003
0010
0000
0010
0001
0000
2001
0000
3001
0010
,
0000
0010
1000
0000
1002
0000
1003
0100
0000
0100
0001
0000
2001
0000
3001
0100
,
0000
0000
0100
0000
1000
0000
0000
0000
2002
0000
0000
0000
0000
0000
0000
0000
0010
0000
0000
0000
0000
0000
0000
0000
3003
0000
0000
0000
0000
0000
M000
0M00
,
00M0
MMMM
00M0
0M00
M000
0000
0000
0000
0220
0000
0000
0000
0000
0000
0001
0000
0000
0000
0000
0000
0000
0000
0000
0000
0000
0000
0000
0000
0000
0000
0000
0000
,
0330
0000
1001
4000
0000
3010
0001
0040
,
0000
0130
1000
0400
0000
0301
0010
4000
,
0000
3010
0001
4000
0000
3001
0100
0040
,
0000
0000
0000
0000
0000
0000
0000
0000
0000
0000
0000
0000
0000
0000
0000
0000
0000
0000
0000
0000
0000
0000
0000
0000
1030
0000
0000
0000
0000
0000
0000
0000
0000
0000
0000
0000
0000
0000
0000
0000
0000
0000
0000
0000
0000
0000
0000
0000
0001
0000
0000
0000
0000
0000
0000
0000
0000
0000
0100
0000
0000
0000
0000
0000
0000
0000
0000
0010
0000
0000
0000
0000
0000
0000
0000
0000
0000
1000
0000
0000
0000
0000
0000
0000
0000
0000
0001
0000
0000
0000
0000
0000
0000
0000
0000
0000
0010
0000
0000
0000
0000
0000
0000
0000
0000
0000
1000
0000
0000
0000
0000
0000
0000
0000
0000
0010
0000
0000
0000
0000
0000
0000
0000
0000
0000
0001
0000
0000
0000
0000
0000
0000
0000
0000
0100
0000
0000
0000
0000
0000
0000
0000
0000
0000
0010
0000
0000
0000
0000
0000
0000
0000
0000
0000
1000
0000
0000
0000
0000
0000
0000
0000
0000
0001
0000
0000
0000
0000
0000
0000
0000
0000
0000
0010
0000
0000
0000
0000
0000
0000
0000
0000
0100
0000
0000
0000
0000
0000
0000
0000
0000
0000
,
1000
0002
0000
0000
1003
0010
1000
0010
1000
0000
0001
0000
0010
0001
0010
0001
,
0010
0000
0001
0000
1000
0100
1000
0100
1000
0000
0001
0000
0100
0001
0100
0001
,
0100
0000
0001
0000
1000
0100
0010
0100
1000
0000
1000
0000
0001
0100
0010
0100
,
0001
0000
0000
0000
0000
0000
0000
0000
0000
0000
0000
0000
0000
0000
0000
0000
0000
0000
0000
0000
0000
0000
0000
0000
0001
0000
0000
0000
0000
0000
0000
0000
0000
0000
0000
0000
0000
0000
0000
0000
0000
0000
0000
0000
0000
0000
0000
0000
1000
0000
0000
0000
0000
0000
0000
0000
0000
0000
0000
0000
0001
0000
0000
0000
0000
0000
0000
0000
0000
0000
0000
0000
1000
0000
0000
0000
0000
0000
0000
0000
0000
0000
0000
0000
0001
0000
0000
0000
0000
0000
0000
0000
0000
0000
0000
0000
1000
0000
0000
0000
0000
0000
0000
0000
0000
0000
0000
0000
0001
0000
0000
0000
0000
0000
0000
0000
0000
0000
0000
0000
1000
0000
0000
0000
0000
0000
0000
0000
0000
0000
0000
0000
0001
0000
0000
0000
0000
0000
0000
0000
0000
0000
0000
0000
1000
0000
0000
0000
0000
0000
0000
0000
0000
0000
0001
0000
0000
0000
0000
0000
0000
0000
0000
1000
0000
0000
0000
0000
0000
0000
0000
0000
0000
0001
0000
0000
0000
0000
0000
0000
0000
0000
1000
0000
0000
0000
0000
0000
0000
0000
0000
0000
,
0001
0000
0000
0000
0201
0000
0000
0310
1000
0010
0100
0010
1000
0100
0001
0100
,
0010
0001
0100
0010
2000
0000
0000
3001
1000
0100
0010
0100
1000
0010
0001
0010
,
0100
0001
0010
0100
2000
0000
0000
3100
1000
0100
0010
0001
0100
1000
0100
0010
,
1000
0001
0010
0100
2000
0000
0000
3001
1000
0001
0010
0001
0100
1000
0100
0001
,
0010
0100
0010
0001
1000
0001
0020
0000
0130
0010
0001
0100
0001
0100
1000
0100
,
0001
0100
0010
1000
0001
1000
0200
0000
0310
0100
1000
0001
1000
0010
0001
0010
,
1000
0010
0100
0010
1000
0100
0001
0100
1000
0010
0001
0010
0100
1000
0100
0010
,
1000
0001
0010
0100
2000
0000
0001
0000
0002
0000
0000
0000
0000
0000
0010
0000
,
0000
0010
0000
0000
3003
0000
0000
0000
0000
0000
0000
0000
0000
0000
0000
0000
;

//--------------- dance-double - Pandemonium X ----------------
#NOTES:
     dance-double:
     Pandemonium X:
     Easy:
     6:
     0.256628,0.386027,0.178827,0.276369,0.012193,221,199,22,34,0,0,0,0,0,0.256628,0.386027,0.178827,0.276369,0.012193,221,199,22,34,0,0,0,0,0:
00000000
00000000
00000000
00000000
,
00000000
00000000
00000000
00000000
,
00011000
00010000
00000100
00010000
,
00000100
00001000
00000100
00001000
,
00000010
00001000
00000010
00001000
,
00000010
00000100
00001001
00000110
,
00000001
00000000
00001000
00000000
,
00000100
00000000
00010000
00000000
,
00001000
00000000
01000000
00000000
,
00100000
00000000
10000000
00010000
,
00100000
00000000
10000000
00000000
,
00100000
00000000
00010000
00000000
,
00001000
00000000
00000100
00000000
,
00001000
00000000
00000001
00000000
,
00000110
00000000
00000000
00000000
,
00000000
00000000
00000000
00000000
,
00000010
00000000
00001000
00000000
,
00000100
00000000
00010000
00000000
,
00001000
00000000
01000000
00000000
,
00100000
00000000
10000000
00000000
,
02200000
00000000
00000000
00000000
00000000
00000000
00000000
03300000
,
00000000
10010000
00010000
00100000
,
00001000
00010000
00000100
00001000
,
00000010
00000100
00000001
00000010
,
00000100
00001000
00000100
00010000
,
00001000
01000000
00100000
10000000
,
00010000
00100000
01000000
10000000
,
01000000
10000000
00010000
00100000
,
00001000
00010000
00000010
00000100
,
00000001
00002000
00003000
00000200
,
00000300
00000020
00000030
00000002
,
00000003
00002000
00003000
00000200
,
00000300
00020000
00030000
00002000
,
00003000
02000000
03000000
00200000
,
00300000
20000000
30000000
00020000
,
00030000
00200000
00300000
02000000
,
03000000
20020000
00000000
30030000
,
00000000
10000000
00010000
10000000
,
00010000
10000000
00010000
00110000
,
00101000
00011000
00010000
00001000
,
00010000
00001000
00010000
00011000
,
00001100
00001001
00000001
00001000
,
00000001
00001000
00000001
00001001
,
00001100
00010100
00010000
00001000
,
01000000
00000000
00100000
00000000
00000000
00000000
00000000
10010000
,
00000000
10000000
00000000
00010000
,
00000000
00100000
00000000
00001000
,
00010000
00000100
00000000
00001000
,
00000000
00000010
00000000
00000100
,
00000001
00000010
00000000
00000100
,
00000000
00000000
00010000
00000000
00000000
00001000
01000000
00000000
,
00000000
00100000
00000000
10000000
,
00000000
00010000
00000000
00100000
,
00000000
01100000
00000000
00000000
,
00000000
10010000
00000000
00000000
,
00000000
00000000
00100000
00010000
00100000
00000000
00000000
00000000
,
00000000
00000000
00000000
00000000
00010000
00000000
00000000
00010000
00000000
00000000
00000000
00000000
00000000
00000000
00000000
00000000
,
00000000
20000000
30000000
02000000
,
03000000
00200000
00300000
00002000
,
00003000
00020000
00030000
00000200
,
00000300
00002020
00000000
00000000
,
00000000
00003030
00000000
00000000
00000200
00000000
00000000
00000000
00000301
00000000
00000000
00000000
00000020
00000000
00000000
00000000
,
00000130
00002000
00003100
00020000
,
00031000
02000000
03100000
20000000
,
31000000
20020000
00000000
00000000
,
30030000
01010000
00010000
00100000
,
00001000
00010000
00000100
00001000
,
00000010
00000100
00000001
00000010
,
00000100
00001000
00000100
00010000
,
00001000
01000000
00100000
10000000
,
01000000
00100000
00001000
00010000
,
00000100
00001000
00000010
00000100
,
00000001
00000000
00001000
00000001
00001000
00000000
00000000
00000001
,
00000000
00001000
00000000
00000000
00000000
00000000
00000000
00000000
00000000
00000000
00000000
00000000
00000000
00000000
00000000
00000000
;

//--------------- dance-double - Pandemonium X ----------------
#NOTES:
     dance-double:
     Pandemonium X:
     Medium:
     9:
     0.385523,0.475111,0.113799,0.284497,0.142249,332,318,14,35,0,0,0,0,0,0.385523,0.475111,0.113799,0.284497,0.142249,332,318,14,35,0,0,0,0,0:
00000000
00000000
00000000
00000000
,
00000000
00000000
00000000
00000000
,
00011000
00001000
01000000
00100000
,
10000000
00010000
00100000
00001000
,
00010000
00000100
00001000
00000010
,
00000100
00000000
00000000
00000000
00000001
00000000
00000000
00000001
00001000
00000000
00000000
00000000
00000100
00000000
00000000
00000000
,
00010000
00000000
00001000
01000000
00001000
00000000
01000000
00100000
,
01000000
00000000
00100000
10000000
00100000
00000000
10000000
00010000
,
10000000
00000000
00010000
00100000
00010000
00000000
00100000
00001000
,
00100000
00000000
00010000
00001000
00010000
00000000
00000100
00001000
,
00000010
00000000
00000100
00000001
00000010
00000000
00000100
00001000
,
00000100
00000000
00001000
00000100
00010000
00000000
00001000
01000000
,
00100000
00000000
01000000
00010000
10000000
00000000
01000000
00100000
,
00010000
00000000
00100000
01000000
10000000
00000000
01000000
00100000
,
00110000
00010000
01000000
00010000
,
00100000
00001000
00010000
00000100
,
00001000
00000010
00000100
00000001
,
00000010
00000100
00001000
00000100
,
00010000
00001000
01000000
00100000
,
10000000
00010000
00100000
00001000
,
00000000
00020000
00000000
00000000
00000000
00030000
00000000
00020000
00000000
00000000
00000000
00000000
00030000
00000000
00000000
00000000
,
00000000
00010100
00000100
00001000
,
00000010
00000100
00000001
00000000
00000010
00000000
00000100
00000000
,
00001000
00000100
00010000
00000000
00001000
00000000
01000000
00000000
,
00100000
10000000
00010000
00000000
00100000
00000000
01000000
00000000
,
10000000
01000000
00010000
00000000
01000000
00000000
10000000
00000000
,
00100000
01000000
00001000
00000000
00010000
00000000
00000100
00000000
,
00001000
00000010
00000100
00000000
00000001
00000000
00001000
00000000
,
00000100
00010000
00001000
00000000
00100000
00000000
00010000
00000000
,
01000000
00200000
00000000
02300000
,
00000000
03002000
00000000
00023000
,
00000000
00030200
00000000
00002300
,
00000000
00003020
00000000
00000230
,
00000000
00000302
00000000
00000023
,
00000000
00000230
00000000
00000320
,
00000000
00000032
00000000
00002003
,
00000000
00000200
00000000
00000000
,
00003300
00000000
00000000
00000000
00010000
00000000
00000000
00001000
00000000
00000000
00010000
00000000
00000000
00001000
00000000
00000000
,
00010000
00000000
00010000
00000000
00001000
00000000
00000000
00010000
00000000
00000000
00001000
00000000
00010000
00000000
00001000
00000000
,
01000000
00000000
00000000
00000000
00100000
00000000
00000000
10000000
00000000
00000000
00100000
00000000
00000000
10000000
00000000
00000000
,
00100000
00000000
00100000
00000000
10000000
00000000
00000000
00100000
00000000
00000000
10000000
00000000
00100000
00000000
01000000
00000000
,
00010000
00000000
00000000
00000000
00100000
00000000
00000000
00010000
00000000
00000000
00100000
00000000
00000000
00010000
00000000
00000000
,
00100000
00000000
00100000
00000000
00010000
00000000
00000000
00100000
00000000
00000000
00010000
00000000
00100000
00000000
00001000
00000000
,
00010000
00000000
00000000
00000000
00000100
00000000
00000000
00001000
00000000
00000000
00000010
00000000
00000000
00000100
00000000
00000000
,
00000001
00000010
00000200
00000000
00000000
00000000
00000000
00020300
,
00000000
00000000
00000000
00000000
00031000
00000000
00000000
00001000
00000000
00000000
00001000
00000000
01000000
00000000
00000000
01000000
,
00000000
00000000
01000000
00000000
00100000
00000000
00000000
00100000
00000000
00000000
00100000
00000000
10000000
00000000
00000000
00010000
,
00000000
00000000
00100000
00000000
01000000
00000000
00000000
01000000
00000000
00000000
01000000
00000000
10000000
00000000
00000000
10000000
,
00000000
00000000
10000000
00000000
00010000
00000000
00000000
00010000
00000000
00000000
00010000
00000000
00100000
00000000
00001000
00000000
,
00010000
00000000
00000100
00000000
00001000
00000000
00000000
00001000
00000000
00000000
00001000
00000000
00000010
00000000
00000000
00000010
,
00000000
00000000
00000010
00000000
00000100
00000000
00000000
00000100
00000000
00000000
00000110
00000000
00000101
00000000
00000000
00000001
,
00000000
00000000
00000010
00000000
00000100
00000000
00000000
00001000
00000000
00000000
00000100
00000000
00010000
00000000
00000000
00001000
,
00000000
00000000
01000000
00000000
00100000
00000000
00000000
10000000
00000000
00000000
00010000
00000000
00100000
00000000
00000000
01000000
,
00000000
10000000
11000000
00000000
00000000
00000000
00110000
00000000
,
00000000
00101000
00000000
00011000
,
00000000
00000000
00000200
00002300
00003020
00000030
00000000
00000000
,
00000000
00000000
00000000
00000000
00000220
00000000
00000330
00002002
00000000
00000000
00003003
00000000
00000000
00000000
00000000
00000000
,
00000000
00000002
00000003
00000200
,
00000300
00002000
00003000
00020000
,
00030000
02000000
03000000
20000000
,
30000000
00020000
00000000
00000000
,
00000000
10030000
00000000
00000000
01100000
00000000
00000000
00000000
00100000
00000000
10000000
00000000
00010000
00000000
00000000
00000000
,
00100000
00001000
00010000
00000000
00000100
00001000
00000010
00000000
,
00000100
00000001
00000010
00000000
00000100
00001000
00000100
00000000
,
00001000
00000100
00020000
00000000
00000000
00000000
00000000
00000000
,
00031000
00000000
00011000
00000000
00001000
00000000
01000000
00100000
,
10000000
00000000
00010000
00000000
00100000
00000000
00001000
00010000
,
00000100
00000000
00001000
00000000
00000010
00000000
00000100
00000001
,
00000010
00000000
00000100
00000000
00001000
00000000
00000100
00010000
,
00001000
00000000
00110000
00000000
00010000
00000000
00010000
01000000
,
00100000
10000000
00010000
00000000
00100000
00000000
00001000
00010000
,
00000100
00000000
00001000
00000000
00000010
00000000
00000100
00000000
00000000
00000100
00000000
00000000
00000100
00000000
00000000
00000100
,
00000000
00000100
00000010
00010000
00002000
00000000
00000000
00010000
,
00000000
00013000
00000000
00000000
00000000
00000000
00000000
00000000
00000000
00000000
00000000
00000000
00000000
00000000
00000000
00000000
;

//--------------- dance-double - Pandemonium X ----------------
#NOTES:
     dance-double:
     Pandemonium X:
     Hard:
     13:
     0.534158,0.74236,0.235726,0.577123,0.312947,460,431,29,71,0,0,0,0,0,0.534158,0.74236,0.235726,0.577123,0.312947,460,431,29,71,0,0,0,0,0:
00000000
00000000
00000000
00000000
,
00000000
00000000
00000000
00000000
,
00010000
00000100
00001000
00000010
,
00000100
00000001
00000010
00001000
,
00000010
00000100
00001000
00000100
,
00010000
00000000
00000000
00000000
00001000
00000000
00000000
01000000
00100000
00000000
00000000
00000000
10010000
00000000
00000000
00000000
,
20000000
00000000
31000000
10000000
00200000
00000000
01300000
00001000
,
00020000
00000000
00030100
00001000
00000020
00000000
00001030
00000100
,
00020000
00000000
00031000
00100000
00020000
00000000
00130000
01000000
,
20000000
00000000
30010000
00100000
00002000
00000000
00013000
00000010
,
00000200
00000000
00000301
00000010
00000200
00000000
00000310
00000001
,
00000200
00000000
00000310
00001000
00000200
00000000
00010300
00001000
,
02000000
00000000
03100000
10000000
00020000
00000000
00130000
01000000
,
20000000
00000000
31000000
00100000
00002000
00000000
00013000
00000100
,
00010200
00001300
00000010
00000100
,
00000001
00000010
00000100
00001000
,
00000100
00010000
00001000
01000000
,
00100000
10000000
00010000
00100000
,
01000000
10000000
00010000
00100000
,
00001000
00010000
00000100
00010000
,
00000000
00001000
00000000
00020000
00000000
00000000
00000000
00031000
00000000
00020000
00000000
00000000
00000000
00000000
00000000
00000000
,
00030000
00000000
00000000
00000000
00011000
00000000
00000000
00001000
01000000
00000000
00100000
00000000
10000000
00000000
01000000
00000000
,
00010000
00000000
01000000
00000000
10000000
00000000
00000000
00010000
00100000
00000000
00001000
00000000
00010000
00000000
00000010
00000000
,
00000100
00000000
00000001
00000000
00000010
00000000
00000000
00000100
00000010
00000000
00000001
00000000
00001000
00000000
00000010
00000000
,
00000001
00000000
00000010
00000000
00001000
00000000
00000000
00000100
00010000
00000000
00001000
00000000
01000000
00000000
00100000
00000000
,
10000000
00000000
01000000
00000000
00110000
00000000
00000000
01000000
10000000
00000000
00010000
00000000
00100000
00000000
00001000
00000000
,
00010000
00000000
00000010
00000000
00000110
00000000
00000000
00000100
00000001
00000000
00000010
00000000
00001000
00000000
00000010
00000000
,
00000100
00000000
00001000
00000000
00001100
00000000
00000000
00000100
00010000
00000000
00001000
00000000
01000000
00000000
00100000
00000000
,
10000000
00000000
01000000
00000000
01100000
00000000
00000000
10000000
00010000
00000000
01000000
00000000
00001000
00000000
00010000
00000000
,
00000010
00000100
00000201
00000000
00000310
00010000
00002000
00000000
,
01003000
00100000
20000000
00000000
31000000
00100000
00020000
00000000
,
00130000
00001000
00020000
00000000
00030010
00000100
00000002
00000000
,
00000013
00000000
00000100
00000000
00002000
00000000
00000000
00000000
00003100
00000000
00010000
00000000
00001000
00010000
00000000
00001000
,
00010000
00001000
02000000
00000000
03001000
00010000
00000200
00000000
,
00001300
00000010
00000200
00000000
00000310
00010000
00002000
00000000
,
01003000
00100000
20000000
00000000
31000000
00100000
00020000
00000000
,
00130000
00002000
00020000
00000000
00000000
00000000
00000000
00000000
,
00033000
00000000
00000000
00000000
00011000
00000000
00001000
00010000
00000000
00001000
00010000
00000000
00001000
00010000
00000000
00001000
,
00010000
00000000
00010000
00000000
00011000
00000000
00010000
00001000
00000000
00010000
00001000
00000000
00010000
00000100
00010000
00000000
,
00000100
00001000
00000100
00000000
00001001
00000000
00000001
00001000
00000000
00000001
00001000
00000000
00000001
00001000
00000000
00000001
,
00001000
00000000
00001000
00000000
00001000
00000000
00001000
00000001
00000000
00001000
00000001
00000000
00000010
00010000
00000010
00000000
,
00010000
00001000
00010000
00000000
00011000
00000000
00001000
00010000
00000000
00001000
00010000
00000000
00001000
00010000
00000000
00001000
,
00010000
00000000
00010000
00000000
00011000
00000000
00010000
00001000
00000000
00010000
00001000
00000000
00001000
01000000
00001000
00000000
,
01000000
00100000
01000000
00000000
10010000
00000000
00010000
10000000
00000000
00010000
10000000
00000000
00010000
10000000
00000000
00010000
,
10000000
00100000
01100000
00000000
00000000
00000000
00000000
00022000
,
00000000
00000000
00033000
00000000
00000010
00000000
00000000
00000010
00000000
00000000
00000010
00000000
00000100
00000000
00000000
00000100
,
00000000
00000000
00000100
00000000
00000001
00000000
00000000
00000001
00000000
00000000
00000001
00000000
00001000
00000000
00000000
00000100
,
00000000
00000000
00010000
00000000
00001000
00000000
00000000
00001000
00000000
00000000
00001000
00000000
01000000
00000000
00000000
01000000
,
00000000
00000000
01000000
00000000
00100000
00000000
00000000
00100000
00000000
00000000
00100000
00000000
10000000
00000000
00000000
00010000
,
00000000
00000000
10000000
00000000
01000000
00000000
00000000
01000000
00000000
00000000
01000000
00000000
00100000
00000000
00000000
00100000
,
00000000
00000000
00100000
00000000
00001000
00000000
00000000
00001000
00000000
00000000
00011000
00000000
00011000
00000000
00000000
00000100
,
00000000
00000000
00001000
00000000
00000010
00000000
00000000
00000010
00000000
00000000
00000010
00000000
00000100
00000000
00000000
00000100
,
00000000
00000000
00000100
00000000
00000001
00000000
00000000
00000100
00000000
00000000
00000010
00000000
00010000
00000000
00000000
00001000
,
00000000
00000000
01000000
00000000
00200000
00000000
00000000
20300000
00000000
00000000
32000000
00000000
03200000
00000000
00000000
00302000
,
00000000
00000000
00013000
00000000
00021000
00000000
00000000
00030020
00000000
00000000
00000230
00000000
00000302
00000000
00000000
00000023
,
00000000
00000230
00002300
00003200
00020300
00000000
00030000
00000000
,
00000000
00000000
00000000
00000000
00022000
00000000
00033000
00022000
00000000
00033000
00000000
00000000
00000000
00000000
00000000
00000000
,
00000000
00200000
00000000
02300000
,
00000000
23000000
00000000
30020000
,
00000000
00230000
00000000
00302000
,
00000000
00003000
00020200
00000000
00000000
00000000
00000000
00000000
,
00000000
00030300
00000000
00000000
00002000
00000000
00000000
00000000
00003010
00000000
00000100
00000000
00000002
00000000
00000000
00000000
,
00000013
00000100
00002000
00000000
00003100
00010000
00002000
00000000
,
01003000
00100000
20000000
00000000
30010000
00100000
02000000
00000000
,
03100000
00001000
00022000
00000000
00000000
00000000
00000000
00000000
,
00033000
00000000
00000000
00000000
00110000
00000000
00000000
01000000
10000000
00000000
00100000
00000000
00010000
00000000
00100000
00000000
,
01000000
00000000
00001000
00000000
00011000
00000000
00000000
00010000
00000100
00000000
00001000
00000000
00000010
00000000
00000001
00000000
,
00000010
00000000
00001000
00000000
00001100
00000000
00000000
00000100
00010000
00000000
00001000
00000000
00100000
00000000
10000000
00000000
,
00100000
00000000
00010000
00000000
01000000
00000000
00000000
00100000
10000000
00000000
00010000
00000000
00100000
00000000
10000000
00000000
,
00100000
00000000
00010000
00000000
01000000
00000000
00000000
00010000
01000000
00000000
00001000
00000000
00010000
00000000
00000100
00000000
,
00001000
00000000
00000010
00000000
00000101
00000000
00000000
00000001
00000010
00000000
00000100
00000000
00001000
00000000
00000100
00000000
,
00000001
00000000
00000100
00000000
00001100
00000000
00010100
00000000
00000100
00010000
00000000
00010000
00001000
00000000
00001000
01000000
,
00000000
01000000
00100000
00000000
10000000
00000000
00010000
00000000
00200000
00000000
00000000
00000000
00000000
00000000
00001000
00000000
,
00000000
00310000
00000000
00000000
00000000
00000000
00000000
00000000
00000000
00000000
00000000
00000000
00000000
00000000
00000000
00000000
;

//--------------- dance-double - Pandemonium X ----------------
#NOTES:
     dance-double:
     Pandemonium X:
     Challenge:
     15:
     0.718791,0.920527,0.235726,0.455196,0.877877,619,590,29,56,0,0,2,0,0,0.718791,0.920527,0.235726,0.455196,0.877877,619,590,29,56,0,0,2,0,0:
00000000
00000000
00000000
00000000
,
00000000
00000000
00000000
00000000
,
10000000
00000000
00000000
00000000
01000000
00000000
00000000
00000000
10000000
00100000
00000000
01000000
00000000
01000000
00010000
00000000
,
00100000
00000000
00000000
00000000
00010000
00000000
00000000
00000000
00100000
00001000
00000000
00010000
00000000
00000100
00010000
00000000
,
00000010
00000000
00000000
00000000
00000100
00000000
00000000
00000000
00000001
00001000
00000000
00001000
00000000
00001000
00000100
00000000
,
00010000
00000000
00000000
00000000
00000100
00000000
00000000
00010000
00001000
00000000
00000000
00000000
10010000
00000000
00000000
00000000
,
10000000
00000000
00000000
00000000
01000000
00100000
00001000
00000000
00020000
00000000
00000000
00000000
00030100
00001000
00000010
00000000
,
00000200
00000000
00000000
00000000
00000301
00001000
00000100
00000000
00000020
00000000
00000000
00000000
00000130
00010000
00001000
00000000
,
00200000
00000000
00000000
00000000
00310000
01000000
00100000
00000000
20000000
00000000
00000000
00000000
30010000
00100000
01000000
00000000
,
20000000
00000000
00000000
00000000
30010000
00100000
00001000
00000000
00020000
00000000
00000000
00000000
00030100
00001000
00000010
00000000
,
00000200
00000000
00000000
00000310
00001000
00000100
00010000
00000000
00012000
00000000
00000000
00013000
00001000
01000000
00100000
00000000
,
10200000
00000000
00000000
01300000
00010000
00100000
01000000
00000000
21000000
00000000
00000000
30010000
00100000
00001000
00010000
00000000
,
00010200
00000000
00000000
00001300
00000010
00000100
00000001
00000000
00001200
00000000
00000000
00010300
00000010
00000100
00000001
00000000
,
00001002
00000000
00000000
00000013
00000001
00001000
00000100
00000000
00020100
00000000
00000000
00031000
01000000
00100000
10000000
00000000
,
00110000
00100000
01000000
10000000
,
00010000
00100000
00001000
00010000
,
00000100
00001000
00000010
00000100
,
00000001
00000010
00000100
00001000
,
00000100
00010000
00001000
01000000
,
00100000
10000000
00010000
00100000
,
00000000
00002000
00000000
00020000
00000000
00000000
00003000
00002000
00030000
00020000
00000000
00000000
00000000
00000000
00000000
00000000
,
00033000
00000000
00000000
00000000
00010100
00000000
00000000
00000100
00001000
00000010
00000100
00000001
00000010
00000100
00001000
00000100
,
00000010
00000001
00001000
00000010
00000100
00000000
00000000
00000010
00001000
00000100
00010000
00001000
01000000
00100000
10000000
00010000
,
00100000
01000000
10000000
00010000
01000000
00000000
00000000
00100000
10000000
01000000
10000000
00010000
10000000
01000000
00100000
00010000
,
00100000
00001000
00010000
00000100
00000010
00000000
00000000
00000100
00000010
00001000
00000100
00010000
00001000
01000000
00100000
10000000
,
00010000
00100000
01000000
10000000
00010000
00000000
00000000
01000000
00010000
00100000
00001000
00010000
00000010
00000100
00000001
00000010
,
00000100
00001000
00000100
00001000
00000010
00000000
00000000
00000100
00000001
00000010
00000001
00001000
00000100
00010000
00001000
01000000
,
00100000
10000000
00010000
00100000
01000000
00000000
00000000
00100000
00010000
10000000
01000000
10000000
00010000
01000000
00001000
00010000
,
00000100
00001000
00000010
00000100
00000001
00000000
00000000
00001000
00000010
00000100
00000001
00000010
00000100
00000010
00000001
00001000
,
00000010
00010000
00001000
01000000
00100000
00000000
00000000
00000000
10000000
00000000
01000000
00000000
00010000
00000000
00000000
00000000
,
00001000
00000010
00000001
00000000
00000001
00000100
00001000
00000000
,
00010000
00100000
10000000
00000000
10000000
01000000
00010000
00000000
,
00001000
00000010
00000001
00000000
00000001
00000100
00001000
00000000
,
00010000
00100000
10000000
01000000
00010000
00001000
00000010
00000001
,
00001000
00000000
00000001
00000100
00001000
00010000
00100000
10000000
,
00010000
00000000
10000000
01000000
00100000
00010000
00001000
00000100
,
00000010
00000001
00000202
00000000
00000000
00000000
00000000
00000000
,
00000303
00000000
00000000
00000000
00001010
00000000
00000010
00010000
00000000
00010000
00001000
00000000
00001000
01000000
00000000
01000000
,
00100000
00000000
00100000
00000000
00100000
00000000
00100000
01000000
00000000
01000000
00010000
00000000
10000000
01000000
00100000
00010000
,
10000000
01000000
00100000
00010000
00100000
00000000
00100000
00001000
00000000
00001000
00010000
00000000
00010000
00000010
00000000
00000010
,
00000100
00000000
00000100
00000000
00000100
00000000
00000100
00000001
00000000
00000001
00001000
00000000
00000001
00000010
00000100
00001000
,
00000001
00000010
00000100
00001000
00000001
00000000
00001000
00000100
00000000
00000100
00010000
00000000
00010000
00001000
00000000
00001000
,
01000000
00000000
01000000
00000000
01000000
00000000
01000000
00100000
00000000
00100000
01000000
00000000
00010000
01000000
00100000
10000000
,
00010000
01000000
00100000
10000000
00010000
00000000
00100000
00001000
00000000
00010000
00000010
00000000
00000100
00000001
00000000
00000010
,
00000100
00010000
00011000
00000000
00000000
00000000
00000000
00100010
,
00000000
00000000
00000000
00000000
00020000
00000000
00000000
00030010
00000000
00000000
00000100
00000000
00000002
00000000
00000000
00000013
,
00000000
00000000
00001000
00000000
00000020
00000000
00000000
00000031
00000000
00000000
00000100
00000000
00000020
00000000
00000000
00010030
,
00000000
00000000
00001000
00000000
00200000
00000000
00000000
01300000
00000000
00000000
10000000
00000000
00020000
00000000
00000000
01030000
,
00000000
00000000
10000000
00000000
02000000
00000000
00000000
03010000
00000000
00000000
00100000
00000000
00001000
00000000
00010000
00000000
,
00011000
00000000
00001000
00000000
00020000
00000000
00000000
00030010
00000000
00000000
00000100
00000000
00000002
00000000
00000000
00000013
,
00000000
00000000
00001000
00000000
00000020
00000000
00000000
00000031
00000000
00000000
00001100
00000000
00020100
00000000
00000000
00001000
,
00000000
00000000
00030200
00000000
00002300
00000000
00000000
00000010
00000000
00000000
00003001
00000000
00000102
00000000
00000000
00000010
,
00000000
00000000
00001003
00000000
00001200
00000000
00000000
00010000
00000000
00000000
00001300
00000000
00012000
00000000
00000000
01000000
,
00000000
00000000
00010000
00000000
00103000
00000000
00100000
01000000
00000000
01000000
10000000
00000000
10010000
00000000
00010000
00100000
,
00000000
00100000
00001000
00000000
00011000
00000000
00010000
00000100
00000000
00000100
00001000
00000000
00001010
00000000
00000010
00000100
,
00000000
00000100
00000001
00000000
00000001
00000000
00000100
00000000
00001000
00000000
00000000
00000000
00000000
00000000
00000000
00000000
,
00000000
00000000
00000000
00000000
01100000
00000000
00000000
10010000
00000000
00000000
00000000
00000000
00000000
00000000
00000000
00000000
,
00000000
20000000
00000000
32000000
,
00000000
03020000
00000000
00032000
,
00000000
00003020
00000000
00000032
,
00000000
00000000
00000000
00000000
00004003
00000400
00000000
00000000
00000000
00000000
00000000
00000000
00000000
00000000
00000000
00000000
,
00003300
00000000
00000000
00000000
00001000
00010000
00001000
00010000
00001000
00000000
01000000
00000000
00100000
10000000
00100000
10000000
,
00100000
00000000
01000000
00000000
00010000
00100000
00010000
00100000
00010000
00000000
00100000
00000000
00001000
00010000
00001000
00010000
,
00001000
00000000
00100000
00000000
00001000
01000000
00001000
01000000
00001000
00000000
00010000
00000000
00100000
00001000
00100000
00001000
,
00100000
00001000
00022000
00000000
00000000
00000000
00000000
00000000
,
00033000
00000000
00000000
00000000
00001200
00000000
00000000
00001300
00000010
00000100
00000001
00000010
00000100
00000010
00000001
00001000
,
00000010
00010000
00001000
00010000
00000200
00000000
00000000
00010300
00001000
01000000
00100000
10000000
00010000
00100000
01000000
10000000
,
00010000
00100000
00001000
00010000
00000200
00000000
00000000
00001300
00000010
00000100
00000001
00000010
00000001
00000100
00000010
00001000
,
00000010
00010000
00001000
00100000
00020000
00000000
00000000
10030000
01000000
00100000
00010000
00100000
01000000
00100000
00010000
01000000
,
00100000
10000000
00010000
00100000
00002000
00000000
00000000
00013000
00000100
00001000
00000010
00000100
00000001
00000010
00000100
00001000
,
00000010
00010000
00001000
01000000
00200000
00000000
00000000
01300000
00010000
00100000
00010000
10000000
01000000
00100000
01000000
10000000
,
00010000
00100000
00001000
00010000
00000100
00000010
00000002
00000013
00001000
00000200
00010300
00001000
02000000
13000000
00100000
20000000
,
30010000
00100000
02000000
13000000
00010000
00000000
00100000
00000000
01000000
00000000
00000000
00000000
00000000
00000000
01100000
00000000
,
00000000
00011000
00000000
00000000
00000000
00000000
00000000
00000000
00000000
00000000
00000000
00000000
00000000
00000000
00000000
00000000
;
