#TITLE:AA -rebuild-;
#SUBTITLE:;
#ARTIST:D.J. Amuro;
#TITLETRANSLIT:;
#SUBTITLETRANSLIT:;
#ARTISTTRANSLIT:;
#GENRE:;
#CREDIT:;
#MUSIC:AA -rebuild-.ogg;
#BANNER:AA -rebuild-.png;
#BACKGROUND:AA -rebuild--bg.png;
#CDTITLE:;
#SAMPLESTART:23.128;
#SAMPLELENGTH:11.042;
#SELECTABLE:YES;
#OFFSET:0.320;
#BPMS:0.000=174.000;
#STOPS:;
#BGCHANGES:0.000=AA -rebuild-bg.png=1.000=0=0=1,
4.000=AA -rebuild-.mp4=1.000=0=0=1,
99999.000=-nosongbg-=1.000=0=0=0=StretchNoLoop====
;
#FGCHANGES:;

//--------------- dance-single - Pandemonium X ----------------
#NOTES:
     dance-single:
     Pandemonium X:
     Beginner:
     7:
     0,0,0,0,0:
0000
0000
0000
0000
,
0000
0000
0000
0000
,
0000
0000
0000
0000
,
0000
0000
0000
0000
,
0000
0000
0000
0000
,
0001
0000
0000
0000
,
1000
0000
0000
0010
,
0010
0000
0000
0100
,
0100
0000
0010
0000
,
1001
0000
0000
0000
,
0000
0000
0000
0000
,
0000
0000
0000
0000
,
0000
0000
0000
0000
,
1000
0000
0000
0000
,
0001
0000
0000
0000
,
0100
0000
0000
0000
,
0020
0000
0000
0030
,
0100
0000
0001
0000
,
1000
0000
0100
0000
,
0010
0000
0000
0100
,
1000
1000
0001
0001
,
0100
0000
0010
0000
,
1000
0000
0001
0000
,
0010
0000
0000
0100
,
0010
0000
0001
0000
,
1000
0000
0001
0000
,
0100
0000
0010
0000
,
1000
0000
0010
0000
,
0100
0000
0001
0000
,
1000
0000
0100
0000
,
0010
0000
0100
0000
,
1000
0000
0001
0000
,
0100
0100
0100
0000
,
0010
0000
1000
0000
,
0001
0000
0010
0000
,
0100
0000
0000
0000
,
0010
0000
0000
0000
,
1001
0000
0000
0000
,
1000
0000
0001
0000
,
0100
0000
0000
0010
,
0020
0000
0000
0030
,
1001
0000
0000
0110
0000
0000
1001
0000
,
0220
0000
0330
0000
,
1000
0000
0000
1000
0000
0000
0000
0000
,
0001
0000
0000
0001
0000
0000
0000
0000
,
0010
0000
0001
0000
,
0100
0000
0000
0100
0000
0000
0100
0000
,
0010
0000
0000
0010
0000
0000
0010
0000
,
1000
0000
0001
0000
,
1000
1000
1000
0000
,
0110
0000
0000
0001
,
0001
0000
1000
0000
,
0100
0000
0000
0000
0000
0010
0000
0010
,
0000
0100
0000
0100
0000
0010
0000
0000
,
1001
0000
1000
0000
,
0001
0001
0001
0000
,
0200
0000
0000
0000
,
0020
0000
0000
0330
,
1001
0000
0000
0000
,
1000
0000
0010
0000
,
0100
0000
0001
0000
,
0010
0000
0100
0000
,
1001
0000
0001
0000
,
1000
0000
0010
0000
,
1000
0000
0000
0100
,
0010
0010
0100
0100
,
1000
0000
0001
0000
,
0010
0000
0100
0000
,
0010
0000
0000
0001
,
1000
0010
1000
0100
,
0000
0000
0010
0000
,
0100
0000
1000
0000
,
0010
0000
0000
0100
,
0001
0000
1000
0000
,
1002
0000
0000
0000
,
0000
0003
2000
3000
,
0020
0000
0030
0100
,
0002
0000
2003
0000
,
3200
0000
0000
0000
,
0000
0300
0020
0030
,
0002
0000
0000
1003
,
0220
0000
0000
0000
,
0330
0000
0000
0000
;

//--------------- dance-single - Pandemonium X ----------------
#NOTES:
     dance-single:
     Pandemonium X:
     Easy:
     10:
     0,0,0,0,0:
0000
0000
0000
0000
,
0000
0000
0000
0000
,
0000
0000
0000
0000
,
0000
0000
0000
0000
,
0000
0000
0000
0000
,
0001
1000
0001
0000
0000
1000
0100
0100
,
0010
0000
0000
0100
0000
0000
1000
0000
0000
0000
0001
0000
1000
0000
0010
0000
,
1000
0000
0000
1001
,
0101
0000
0000
0001
1000
0000
0001
0000
,
1001
0000
0000
0000
,
1000
0000
0000
0000
,
0001
0000
0000
0000
,
0100
0000
0000
0000
0000
0000
0000
0100
0020
0000
0000
0000
0000
0000
0000
0000
,
1030
1000
1000
1000
,
0001
0001
0001
0001
,
0100
0100
0100
0100
,
0010
0100
0001
1000
,
0001
0010
0110
0000
,
1100
0000
0000
0000
0000
0000
0000
0000
1010
0000
0000
0000
0000
0000
0000
0001
,
0100
0000
0000
0000
0000
0000
0000
0000
0000
0000
0000
0001
1000
0000
0000
0000
,
1000
0100
0010
0001
,
0101
0000
1001
0000
,
1100
0000
0000
0000
0000
0000
0000
0000
1010
0000
0000
0000
0000
0000
0000
1000
,
0100
0000
0000
0110
,
0011
0000
1100
0000
,
1000
0000
0001
0000
,
0100
0001
0010
0001
,
1000
0000
0100
0000
,
0010
0100
1000
0010
,
0100
0000
0001
0000
,
0010
0001
1000
0010
,
0100
0000
0001
0000
,
1000
0100
0001
0100
,
0010
0001
0200
0000
,
0320
0000
2030
0000
,
3002
0000
0000
1000
,
2003
3100
2000
3010
,
0200
0000
0320
0000
,
0230
0301
0200
0320
,
2030
0000
0000
3001
,
0220
0000
0000
0330
,
1000
0000
0000
1000
0000
0000
0001
0000
0000
0001
0000
0000
1000
0000
0001
0000
,
0220
0000
0330
0000
,
1000
0000
0000
1000
0000
0000
1000
0000
,
0001
0000
0000
0001
0000
0000
0001
0000
,
0010
0001
0100
0010
,
1000
0000
0000
0010
0000
0000
0100
0000
,
0001
0000
0000
0010
0000
0000
0100
0000
,
0010
0001
1000
0100
,
1000
0010
0100
0001
,
1001
0000
0000
0000
0000
1000
0010
0010
,
1000
0000
0000
0010
0000
0000
0100
0000
0000
0000
0001
0000
0000
0000
0010
0000
,
0100
0000
0100
0010
0000
0001
0000
1000
,
0000
0010
0000
1000
0000
0001
0000
1000
,
1001
0000
1000
0001
0100
0100
0001
0010
,
0000
0100
0000
0110
0000
0000
0000
1000
,
0102
0000
0000
0000
,
0103
0000
0000
0100
0000
0000
0100
0000
0010
0000
1000
0000
0001
0000
0010
0000
,
0100
0000
1000
0000
0100
1000
0010
0000
,
0110
0100
0101
0001
,
0011
0010
0110
0100
,
1100
0000
1000
0000
1001
0000
1000
0001
,
0101
0001
0110
0010
,
1010
0001
1100
0100
,
0011
0001
0100
0110
,
0101
0101
1001
1001
,
1000
0100
0010
0000
0110
0000
0100
0000
,
1100
0000
0000
0000
1000
0000
0000
0000
1010
0000
0000
0000
0010
0000
0000
0100
,
0001
0000
0000
0000
0001
0000
0000
0000
0010
0000
0000
0010
0100
0000
0000
0000
,
1100
0000
0000
0000
0110
0000
0000
0010
0001
0000
0000
0000
0110
0000
0000
0000
,
1100
1000
1001
0001
,
0101
0000
0000
0000
0100
0000
0000
0000
0110
0000
0000
0000
1000
0000
0000
0001
,
0100
0001
0010
0110
,
0011
0000
0000
0001
0000
0000
0001
0000
1001
0000
0000
0000
1000
0000
0000
0000
,
0001
0100
0010
0000
1000
0000
0001
0000
,
0010
0100
1000
0000
0200
0000
1300
0000
,
0010
0100
0001
0000
0010
0000
0200
0320
,
0032
0013
0002
0103
,
0020
0000
0000
0000
,
0000
0000
0230
0000
,
0302
0000
0000
2003
,
0002
0000
0000
3003
,
0110
0000
0000
0000
;

//--------------- dance-single - Pandemonium X ----------------
#NOTES:
     dance-single:
     Pandemonium X:
     Medium:
     14:
     0,0,0,0,0:
0000
0000
0000
0000
,
0000
0000
0000
0000
,
0000
0000
0000
0000
,
0000
0000
0000
0000
,
0000
0000
0000
0000
,
0001
1000
0010
0000
0000
0100
0001
0001
,
0010
0000
0000
0100
0000
0000
0010
0000
0000
0000
0001
0000
1000
0000
0010
0100
,
0010
0000
0000
0000
0000
0000
0000
0000
0000
0000
0000
0100
0001
0000
0000
0000
,
1000
0000
0000
0001
0010
0000
0100
0000
,
1001
0000
0000
0000
,
0001
0000
0000
0000
,
0100
0000
0000
0000
,
0010
0000
0000
0000
0000
0000
0000
1000
0010
0000
0010
0000
0100
0010
0100
0000
,
0001
1000
0100
1000
0001
1000
0010
0000
,
1000
0100
1000
0001
0100
0001
0010
0000
,
0100
0010
0001
0100
0010
1000
0100
0000
,
0010
0001
0000
0010
0100
0000
0010
0001
0000
0010
0100
0000
1000
0000
0001
0000
,
0100
1000
0100
0001
1001
0000
1000
0000
,
1100
0000
0000
0000
0001
0000
0000
0000
0110
0000
0000
0000
1000
0000
0000
0001
,
0100
0000
0010
0000
1000
0000
0000
0000
0100
0000
0000
0010
0001
0000
0000
0000
,
1000
0001
0000
0001
0100
0000
0010
0000
0010
1000
0000
1000
0100
0000
0010
0000
,
0001
0000
0010
0000
0100
0000
1000
0000
0010
0100
0000
0000
0001
0000
0000
0000
,
1010
0000
0000
0000
0001
0000
0000
0000
1100
0000
0000
0000
0001
0000
0000
0010
,
0100
0010
0001
0000
1000
0010
0110
0000
,
0101
0000
0000
0011
0000
0000
0101
0000
0001
0100
0000
0010
0000
1000
0100
0000
,
0010
0000
0000
0001
0000
0000
0010
0000
0100
0000
0000
1000
0000
0000
0100
0000
,
1000
0010
0000
0100
0000
0000
0010
0000
1000
0001
0000
0010
0000
0100
0010
0000
,
0001
0000
0000
1000
0000
0000
0100
0000
1000
0000
0000
0010
0000
0000
0100
0000
,
0010
1000
0000
0010
0000
0100
0001
0000
0010
0100
0000
1000
0000
0001
0000
0000
,
1000
0000
0000
0010
0000
0000
1000
0000
0100
0000
0000
0010
0000
0000
0100
0000
,
0010
0001
0000
0010
0000
0000
0001
0000
0100
0010
0000
1000
0000
0001
0010
0000
,
0100
0000
0000
0010
0000
0000
0001
0000
0100
0000
0000
0010
0000
0000
1000
0000
,
0001
0100
1000
0100
0001
0010
1000
0010
,
0001
0000
0000
0010
0000
0000
0100
0000
0020
0000
0000
0000
0031
0000
0100
0000
,
2000
0000
3100
0010
2000
0000
3010
0100
,
0002
0000
0010
0000
0010
0000
1003
0001
,
0100
0000
0000
0100
0000
0000
0100
0000
0010
0000
0000
0010
0000
0000
0010
0000
,
1000
0001
0000
0010
0000
0000
0100
0000
0010
0100
0000
1000
0000
0010
0000
0100
,
0001
0100
0010
1000
0001
0010
0100
1000
,
0020
1000
0100
2030
,
0002
0000
0000
3003
,
1001
0000
0000
0110
0000
0000
1001
0000
0000
0110
0000
0000
0001
1000
0001
1000
,
0020
0000
0000
0000
0030
0000
0100
0100
,
0001
0000
0000
0001
0000
0000
0010
0000
0000
0100
0000
0000
1000
0000
1000
0000
,
0001
0000
0000
0010
0000
0000
0001
0000
0000
1000
0000
0000
0100
0000
0100
0000
,
0010
0001
1000
0010
0001
0010
0100
0001
,
1000
0000
0000
1000
0001
0000
0001
0000
0000
0001
1000
0000
0110
0000
0010
0000
,
1000
0001
0000
0001
1000
0000
1000
0001
0000
1000
0001
0000
1000
0000
0001
0000
,
0100
0000
0000
0100
0000
0000
0010
1000
0001
0000
0000
0010
0000
0000
0100
0010
,
0001
0010
0001
0100
0010
1000
0100
0010
,
0011
0000
0000
0000
0000
0010
0100
0100
,
1000
0000
0000
0001
0000
0000
1000
0000
0000
0000
0010
0000
0000
0000
0100
0001
,
1000
0000
0100
0010
0000
1001
0000
0110
,
0000
0000
0101
0000
0000
0000
1001
0000
0000
0000
0011
0000
0000
0000
0100
0010
,
0001
0000
0000
0000
0000
0000
1000
0001
0010
0000
0100
0000
0010
0000
0011
0000
,
0000
1100
0000
0011
0000
0000
0000
0001
,
0200
0000
0000
0000
,
0010
0000
0000
0010
0000
0000
0310
0000
0100
0000
0001
0000
1000
0000
0100
0000
,
0010
0001
0100
0010
1000
0001
0010
0100
,
0010
0001
0100
0010
1000
0100
0010
0001
,
1000
0010
1000
0001
0010
0001
0010
0100
,
1000
0100
1000
0010
0100
0001
0010
0001
,
0100
0010
0100
0010
1000
0010
0100
0001
,
0010
0100
0010
0100
0010
0001
0100
0010
,
1000
0001
0010
0001
1000
0100
0010
0100
,
1000
0000
0000
1000
0000
0000
1000
0000
0001
0000
0000
0100
0010
0000
0000
0000
,
1001
1000
0100
0010
0011
0000
0010
0000
,
0110
0000
0000
0000
0100
0000
0000
0000
1100
0000
0000
0000
1000
0000
0000
0010
,
0100
0000
0000
0000
0010
0000
1000
0000
0001
0000
0000
0010
0001
0000
0000
0000
,
0011
0000
0000
0001
0010
0000
0000
0010
0100
0000
0000
0100
1000
0000
0000
1000
,
0010
0100
0010
1000
1001
0000
0001
0000
,
0011
0000
0000
0000
1000
0000
0000
0000
0110
0000
0000
0000
0001
0000
0000
1000
,
0100
1000
0001
0000
0100
0001
0011
0000
,
1100
0000
0000
1000
0000
0000
1000
0000
0100
0010
0000
0100
0000
1000
0001
0000
,
0100
0010
1000
0001
0010
0100
0010
0000
,
0100
0010
0001
0100
0010
1000
0100
0000
,
0010
0100
1000
0010
0100
0001
0010
0000
,
0100
0000
0000
0100
0000
0000
0100
0000
0010
0001
0000
0100
0000
0010
1000
0000
,
0002
1000
0100
1000
,
0100
1003
0201
0310
,
2010
0001
0010
3002
,
1003
0100
0001
0100
1000
0010
0001
0010
,
0200
0000
0000
0000
,
0000
0000
0000
0000
,
0300
0000
0000
0000
;

//--------------- dance-single - Pandemonium X ----------------
#NOTES:
     dance-single:
     Pandemonium X:
     Hard:
     16:
     0,0,0,0,0:
0000
0000
0000
0000
,
0000
0000
0000
0000
,
0000
0000
0000
0000
,
0000
0000
0000
0000
,
0000
0000
0000
0000
,
0001
0100
0001
0000
0010
0000
0000
0000
0000
0000
0100
0000
1000
0000
1000
0000
,
0001
0000
0000
0001
0000
0000
0001
0000
0000
0000
1000
0000
0010
0000
0100
0010
,
1000
0000
0000
0000
0000
0000
0000
0000
0000
0000
0000
0100
1000
0000
0000
0000
,
0010
0000
0000
0010
0100
0000
0010
0000
,
1002
0000
0000
0003
,
2000
0000
0000
3000
,
0020
0000
0000
0030
,
0100
0000
0001
0000
0010
0000
0100
1000
0000
1000
0100
0010
0001
1000
0001
1000
,
0001
0100
0010
0100
0001
1000
0100
0010
,
0001
1000
0100
1000
0010
0100
0001
0010
,
0100
1000
0100
1000
0001
0010
0100
0010
,
0001
0010
0000
0010
0100
0000
0100
1000
0000
1000
0100
0000
0010
0001
0010
0001
,
1000
0000
0010
0000
0100
0000
0010
1000
0001
0000
0020
0000
0130
0000
0000
0000
,
0010
0000
0001
0000
1000
0000
0010
1000
0100
0000
2000
0000
3001
0000
0000
1000
,
0010
0000
0100
0000
0001
0000
0010
0100
0010
0000
0002
0000
1003
0000
0000
0000
,
1001
0000
0000
0001
0010
0000
0000
0010
0100
0000
0000
0100
1000
0000
0000
1000
,
0010
0000
0100
0000
0001
0000
0010
0100
0010
0000
0200
0000
1300
0000
0000
0000
,
0100
0000
1000
0000
0010
0000
0100
0001
0100
0000
0002
0000
0013
0000
0000
0100
,
0010
0000
0001
0000
1000
0000
0100
0010
0100
0000
2000
0000
3010
0000
0000
0000
,
0101
0000
0000
1010
0000
0000
0101
0000
0001
0100
0000
0010
0000
1000
0001
0000
,
0001
1000
0000
0100
0000
0000
0010
0000
0001
0000
0000
1000
0000
0000
0100
0000
,
1000
0001
0000
0100
0000
0010
0100
0000
0001
1000
0000
0001
0000
0000
0100
0000
,
0001
1000
0000
0010
0000
0000
0100
0000
0001
0000
0000
1000
0000
0000
0010
0000
,
1000
0001
0000
0010
0000
0100
0010
0000
0001
1000
0000
0001
0000
0010
0000
0000
,
0001
1000
0000
0100
0000
0000
0010
0000
0001
0000
0000
1000
0000
0000
0100
0000
,
1000
0001
0000
0100
0000
0010
0100
0000
0001
1000
0000
0001
0000
0000
0100
0000
,
0001
1000
0000
0010
0000
0000
0100
0000
0001
0000
0000
1000
0000
0000
0010
0000
,
1000
0100
1000
0000
0001
1000
0001
0000
0010
0001
0010
0000
0100
0000
0100
0000
,
1000
0001
0000
0100
0000
0000
0010
0000
2000
0000
0000
0000
3100
0000
1000
0000
,
0020
0000
0130
0001
0020
0000
0130
1000
,
0002
0000
0000
0000
0100
0000
0000
0000
0010
0000
0000
0000
1003
0000
1000
0100
,
0010
0001
0000
0100
0000
0000
0010
0000
0100
0001
0000
1000
0000
0100
0000
0010
,
0100
1000
0000
0010
0000
0000
0100
0000
0010
1000
0000
0001
0000
0000
0010
0000
,
0100
1000
0000
0100
0000
1000
0010
0000
0100
0010
0000
1000
0000
0001
1000
0000
,
0100
0010
0000
0001
0000
0010
0001
0100
0010
0000
0100
0010
0000
1000
0001
0000
,
1000
0100
1000
0000
0001
0100
0001
0000
1000
0010
1000
0000
0100
0000
0100
0000
,
1001
0000
0000
0011
0000
0000
1001
0000
0000
1010
0000
0000
0001
0100
1000
0100
,
0002
0000
0000
0000
0000
0000
1003
1000
,
0100
0000
0000
0100
0010
0000
0010
0001
0000
0001
0010
0000
0100
0000
0100
0000
,
1000
0000
0000
1000
0001
0000
0001
0100
0000
0100
0001
0000
0010
0000
0010
0000
,
0100
1000
0100
0000
1000
0010
1000
0000
0001
0100
0001
0000
0010
0000
0010
0000
,
0100
0000
0000
0100
1000
0000
1010
0000
0000
0010
0100
0000
0001
0000
1000
0000
,
1000
0001
0000
0100
0010
0000
1000
0001
0000
0100
0010
0000
1000
0000
1000
0000
,
0001
0010
0000
0100
0000
0010
0001
0100
0001
1000
0000
0100
0000
0010
0100
0000
,
1000
0010
1000
0000
0001
0100
0001
0000
0010
0001
0010
0000
0100
0000
0100
0000
,
1001
0000
0000
0000
0000
0100
0010
0010
,
0010
0000
0000
0001
0000
0000
0001
0000
0000
0000
0100
0000
0000
0000
0010
0000
,
0010
0000
0000
0100
0000
0010
0000
0001
,
0000
0000
1000
0000
0000
0000
0001
0000
0000
0000
0100
0000
0000
0000
0010
0001
,
0010
0000
0100
0000
1000
0100
0010
0001
,
0000
1000
0000
1000
0000
0100
0010
0000
,
0001
0100
0001
0000
1000
0010
1000
0000
,
0010
0000
0001
0000
0010
0000
1000
0000
0010
0000
0100
0000
0001
1000
0001
0000
,
1000
0100
1000
0010
0100
0001
0010
0100
,
1100
0100
1000
0010
0110
0100
0001
0010
,
0011
0010
0001
0100
0101
0100
0010
1000
,
1010
0010
0100
0001
1001
1000
0100
0010
,
0011
0000
0000
0000
0010
0000
0100
1000
0100
0000
0010
0000
0001
0000
0100
0000
,
0110
0000
0010
0000
1000
0000
0001
0010
0001
0000
0010
0000
0100
0000
1000
0100
,
0010
0000
0100
0000
1000
0000
0001
0000
0100
0000
0010
1000
0100
0000
0010
0001
,
1000
0000
0000
1000
0100
0000
0000
0100
0010
0000
0000
0010
0001
0000
0000
0001
,
1000
0010
0000
0100
0000
0000
0010
0100
0001
0000
0000
1000
0000
0000
0100
0000
,
1000
0100
0000
0010
0000
0100
0010
0100
1000
0001
0000
0100
0000
0001
1000
0000
,
0100
1000
0000
0010
0000
0000
0100
0010
1000
0000
0000
0001
0000
0000
0010
0000
,
0100
0000
0000
0100
0010
0000
0000
0010
0001
0000
0000
0001
1000
0000
0000
1000
,
0010
0100
0000
0010
0000
0000
0100
0000
0001
1000
0000
0100
0000
0010
0100
0000
,
0010
0001
0000
0100
0000
0010
0100
0000
0001
1000
0000
0100
0000
0010
0100
0000
,
1000
0100
0000
0010
0000
0000
0100
0000
1000
0001
0000
0100
0000
0010
1000
0000
,
0011
0000
0000
1100
0000
0000
0011
0000
0001
0100
0010
1000
0001
0100
0010
1000
,
0001
1000
0100
1000
0010
0100
0010
1000
,
0001
0010
0100
0010
0001
0100
0010
0100
,
0001
1000
0100
0010
0100
1000
0001
0100
,
0110
0000
0000
1010
0000
0000
0110
0000
0100
0000
0001
0000
1000
0000
0100
0000
,
0010
0000
0100
0000
1000
0000
0010
0000
0100
0010
0100
0000
0010
0100
0010
0000
,
0100
0000
0001
0000
1000
0000
0100
0000
1000
0001
1000
0000
0001
1000
0001
0000
,
1000
0000
0010
0000
0100
0000
0001
0000
0010
0100
0010
0000
0100
0010
0100
0000
,
0010
0001
0100
0010
1000
0010
0100
0010
1000
0100
0010
0001
0010
0100
0010
0002
,
2000
0000
0000
0000
,
0000
0000
0000
0000
,
3003
0000
0000
0000
;

//--------------- dance-single - Pandemonium X ----------------
#NOTES:
     dance-single:
     Pandemonium X:
     Challenge:
     18:
     0,0,0,0,0:
0000
0000
0000
0000
,
0000
0000
0000
0000
,
0000
0000
0000
0000
,
0000
0000
0000
0000
,
0000
0000
0000
0000
,
0001
0100
0001
1000
0010
0000
0000
0000
0000
0000
0100
0000
0001
0000
0001
0000
,
1001
0000
0000
0000
0000
0000
0000
0000
0000
1000
0000
0000
0000
0000
0000
0000
0000
0000
1000
0000
0000
0000
0000
0000
0000
0000
0000
0000
0000
0000
0001
0000
0000
0000
0000
0000
0010
0000
0000
0000
0000
0000
0010
0000
0001
0000
1000
0000
,
0001
0000
0100
0000
0001
0000
0010
0000
0000
0000
0000
0100
0100
0000
0000
0000
,
1100
0000
0000
1100
1010
0000
0110
0000
,
0201
0000
0000
0300
,
0020
0000
0000
0030
,
2000
0000
0000
3000
,
0001
0000
0010
0000
0100
0000
1000
0010
0100
0000
0100
0010
1000
0001
0010
0001
,
1000
0000
0100
0000
1000
0000
0100
0000
0010
0001
0100
0001
1000
0001
1000
0001
,
0100
0000
0010
0000
1000
0000
0010
0000
0100
0001
0010
0100
1000
0100
1000
0001
,
0010
0000
0100
0000
0010
0000
0001
0000
0010
0100
1000
0010
1000
0010
0100
0001
,
0100
0010
0000
0100
0001
0000
0100
0010
0000
0100
0001
0000
0100
0001
1000
0100
,
0010
0000
0001
0000
0011
0000
0010
0001
0100
0000
0002
0000
1003
0000
0000
0000
,
0010
0000
1000
0000
0100
0000
0010
0100
1000
0000
0020
0000
0130
0000
0000
0010
,
1000
0000
0100
0000
0010
0000
0001
0010
0100
0000
0200
0010
0300
0000
0000
0000
,
0001
1000
0000
1000
0100
0010
0000
0010
0100
1000
0000
1000
0001
0100
0000
0100
,
0010
0000
1000
0000
0100
0000
0010
0100
1000
0000
0002
0000
0103
0000
0000
0000
,
0100
0000
0001
0000
1000
0000
0001
0010
0100
0000
2000
0000
3010
0000
0000
0100
,
0100
0000
0010
0000
1000
0000
0001
0010
0100
0000
0020
0000
0130
0000
1000
0000
,
1100
0000
0000
0011
0000
0000
0101
0000
0100
0010
1000
0001
0010
0100
1000
0001
,
0100
0010
0000
0001
0000
0010
0100
0001
1000
0000
1000
0100
0000
0100
0010
0000
,
0001
0010
0000
1000
0000
0010
0100
0010
0001
0100
0000
1000
0000
0100
0010
0000
,
1000
0100
0000
0010
0000
0001
0010
0001
0100
0000
0010
0100
0000
0100
0001
0000
,
1000
0010
0000
0001
0000
0010
0100
0010
0001
0100
0000
0100
0000
0010
0000
1000
,
0001
0010
0000
1000
0000
0000
0010
0001
0100
0000
1000
0100
0000
0100
0010
0000
,
0100
1000
0000
0100
0000
1000
0100
0010
1000
0001
0000
0010
0000
0001
0010
0000
,
0001
0100
0000
1000
0000
0100
0010
1000
0001
0000
0010
0100
0000
0010
0001
0000
,
1000
0100
0001
0100
1000
0010
0001
0010
0100
0010
1000
0001
1000
0100
0010
0001
,
1000
0010
0000
0100
0000
0001
0010
0000
0200
0000
0000
1000
0000
0000
0310
0000
,
0002
0000
0000
0010
0000
0000
1003
0100
0020
0100
0000
0130
0000
0010
0100
0000
,
0020
0000
0000
0001
0000
0000
0130
0000
0001
1000
0000
0010
0000
0100
0010
0000
,
2000
0001
0000
3001
0000
0001
1000
0100
0010
0100
0000
1000
0000
0100
0010
0000
,
0001
0010
0000
0100
0000
0010
0001
1000
0001
0100
0001
1000
0100
1000
0010
0100
,
0001
1000
0100
0010
0100
1000
0001
0100
0001
0010
0100
0010
0001
1000
0010
1000
,
0002
0000
0000
0100
0000
0000
1000
0000
1000
0000
0000
0100
0003
0100
0001
0000
,
1000
0100
0001
0100
1000
0010
0001
0010
1000
0100
0010
0001
0010
0100
1000
0001
,
1001
0000
0000
1010
0000
0000
1100
0000
0000
1001
0000
0000
0010
0010
0010
0010
,
0020
0000
0000
0000
0000
0030
1001
1001
,
1000
0100
0000
1000
0100
0000
1000
0100
0000
1000
0100
0000
0011
0000
0011
0000
,
0001
0100
0000
0001
0100
0000
0001
0100
0000
0001
0100
0000
0101
0000
0101
0000
,
0001
1000
0010
1000
0001
0010
0100
0010
0001
1000
0100
0010
0100
1000
0001
0100
,
0001
0000
0000
0001
1001
0000
1010
0000
0000
1000
0100
0000
1001
0000
1001
0000
,
1001
1000
0000
1000
0010
0000
0010
0100
0000
0100
0001
0010
0001
0000
1000
0000
,
0100
0010
0000
0001
0000
1000
0010
0100
0010
1000
0001
0100
0001
1000
0001
1000
,
0100
0001
0100
1000
0001
0010
0100
1000
0100
0010
0100
0010
0100
1000
0100
0010
,
0001
0000
0000
0000
0000
1000
0010
0100
,
0010
0000
0000
0100
0000
0000
0101
0000
0000
0000
1010
0000
0000
0000
0001
0010
,
0100
0000
0010
0011
0000
1010
0000
0110
,
0000
0000
0000
0000
0000
0000
0101
0000
0000
0000
0000
0000
0000
0000
0000
0000
0000
0000
0011
0000
0000
0000
0000
0000
0010
0000
0000
0100
0000
0000
0010
0000
0100
0000
0010
0000
0100
0000
0000
1000
0000
0000
0001
0000
0000
1000
0000
0000
,
0001
0000
0000
0000
0000
0100
0010
1000
0001
0000
0010
0000
0001
0000
1001
0000
,
1000
0000
0000
0001
0000
0000
0000
0000
0000
1000
0000
0000
0001
0000
0000
0000
0000
0000
1000
0000
0000
0001
0000
0000
0000
0000
0000
1000
0000
0000
0001
0000
1000
0000
0001
0000
1000
0000
0000
0001
0000
0000
1000
0000
0000
0000
0000
0000
,
0001
0010
0100
1000
0001
0100
0010
0100
0001
1000
0001
0010
0100
0010
0001
1000
,
0010
0001
0010
1000
0100
0001
0100
1000
0010
0100
0001
0010
1000
0010
0001
0010
,
0100
0000
0010
0000
0001
0000
0100
0000
0010
1000
0010
0100
0010
1000
0010
0100
,
0001
0000
0010
0000
0100
0000
1000
0000
0001
0100
0001
0010
0001
0100
0001
0010
,
0001
0000
1000
0000
0010
0000
0100
0000
0001
0010
1000
0010
0001
0010
0100
1000
,
0001
0000
0100
0000
0010
0000
1000
0000
0100
1000
0100
0001
0100
0010
1000
0001
,
0010
0000
0100
0000
0010
0000
0001
0000
0100
0001
0010
0100
1000
0001
0100
0010
,
1000
0000
0010
0000
1000
0000
0100
0000
0010
0100
1000
0010
0100
0001
0010
0100
,
1000
0000
0100
0000
1000
0000
0010
0000
0100
0010
1000
0001
0010
0100
1000
0001
,
1001
0000
0001
1000
1010
0000
1000
0001
0011
0000
0001
1000
1010
0000
0100
0000
,
1001
0001
0000
0010
0000
0000
0100
0010
0001
0100
0000
0100
0000
0100
0010
0000
,
1000
0010
0000
0100
0000
1000
0100
0010
1000
0001
0000
0010
0000
1000
0010
0000
,
0001
0010
0000
0100
0000
0010
0001
0000
1000
0010
0000
0100
0000
0001
0010
0000
,
0100
0010
0000
0001
0000
1000
0100
1000
0010
0100
0000
0010
0000
1000
0001
0000
,
0010
0100
0000
2000
0000
0000
3100
0010
0001
0000
0010
0001
0000
0100
0010
0000
,
0100
0001
0000
0020
0000
0000
0130
0010
0001
0000
1000
0010
0000
0100
0001
0000
,
1000
0100
0000
0020
0000
0000
0130
1000
0010
0000
0100
0001
0000
0010
0100
0000
,
0010
0001
0100
0010
1000
0001
0010
0100
0010
0001
0100
0010
1000
0100
0010
0001
,
1000
0000
0010
0000
0100
0000
0001
0000
0010
0100
0010
0001
0010
0001
1000
0010
,
1000
0000
0010
0000
1000
0000
0001
0000
0010
0001
0100
0010
1000
0001
0010
0100
,
1000
0000
0010
0000
1000
0000
0001
0000
0010
0100
0010
0001
0100
0010
1000
0001
,
1001
0000
0000
1010
0000
0000
0101
0000
0001
0010
0100
1000
0010
0100
0001
0000
,
1000
0100
1000
0000
0100
0010
0100
0000
0010
0001
0010
0000
0001
0100
0001
0000
,
0100
0010
0100
0000
0010
1000
0010
0000
1000
0001
1000
0000
0001
0010
0001
0000
,
1000
0010
1000
0001
0010
0100
0010
0001
0100
0010
1000
0001
0010
0100
0010
0001
,
0011
0000
0000
1100
0000
0000
0011
0000
0001
0010
0100
1000
0100
0010
0001
1000
,
2002
0000
0000
0000
,
0000
0000
0000
0000
,
3003
0000
0000
0000
;

//--------------- dance-double - Pandemonium X ----------------
#NOTES:
     dance-double:
     Pandemonium X:
     Easy:
     10:
     0,0,0,0,0:
00000000
00000000
00000000
00000000
,
00000000
00000000
00000000
00000000
,
00000000
00000000
00000000
00000000
,
00000000
00000000
00000000
00000000
,
00000000
00000000
00000000
00000000
,
00010000
00000100
00001000
00000000
00000000
00000010
00000100
00000000
,
00001001
00000000
00000000
00000000
00000000
00000100
00010000
00001000
,
00011000
00000000
00000000
00000000
00000000
00000000
00000000
00000000
00000000
00000000
00000000
00001000
00010000
00000000
00000000
00000000
,
00001000
00000000
00000000
01000000
00100000
00000000
01000000
00000000
,
10010000
00000000
00000000
00000000
,
00010000
00000000
00000000
00000000
,
00100000
00000000
00000000
00000000
,
00001000
00000000
00000000
00000000
,
00010000
00010000
00010000
00010000
,
00000100
00000100
00000100
00000100
,
00001000
00001000
00001000
00001000
,
00000010
00000100
00000001
00001000
,
00000100
00010000
00011000
00000000
,
01001000
00000000
01100000
00000000
,
10010000
00000000
00000000
10000000
,
11000000
01100000
00110000
00101000
,
00011000
00000000
00010100
00000000
,
00001100
00000000
00001010
00000000
,
00001001
00000000
00000000
00000110
,
00001001
00000000
00000101
00000000
,
00000001
00000000
00001000
00000000
,
00000100
00010000
00001000
01000000
,
00010000
00000000
00100000
00000000
,
01000000
00100000
00010000
00001000
,
00010000
00000000
00000100
00000000
,
00001000
00000010
00000100
00000010
,
00001000
00000000
00000100
00000000
,
00010000
00001000
01000000
00001000
,
00010000
00000100
00002000
00000000
,
00003020
00000000
00000230
00000000
,
00000302
00000000
00000000
00000000
00000000
00000000
00000000
00000013
,
00000200
00000320
00000032
00002003
,
00003020
00000000
00002030
00000000
,
00003200
00020300
00032000
02003000
,
03200000
00000000
00000000
01300000
,
20020000
00000000
00000000
30030000
,
10000000
00000000
00000000
00010000
00000000
00000000
01000000
00000000
00000000
00100000
00000000
00000000
10000000
00000000
00010000
00000000
,
02200000
00000000
00000000
00000000
03300000
00000000
01000000
01000000
,
00010000
00000000
00100000
00000000
00001000
00000000
00010000
00010000
,
00000100
00000000
00001000
00000000
00000010
00000000
00000100
00000100
,
00000001
00000010
00001000
00000010
,
00000001
00000000
00000000
00000010
00000000
00000000
00001100
00000000
,
00000100
00000000
00000000
00010000
00000000
00000000
01001000
00000000
,
01000000
00000000
00000000
01000000
00000000
00000000
00100000
00000000
10000000
00000000
00000000
10000000
00000000
00000000
10000000
00000000
,
00010000
00000000
00000000
00010000
00000000
00000000
00010000
00000000
00100000
00000000
00000000
00000000
01000000
00000000
00000000
00000000
,
10010000
00000000
00000000
10000000
,
00010000
00000000
00000000
00100000
00000000
00001000
00000000
00010000
,
00000000
00000000
00000100
00001000
00000000
00000010
00000000
00000100
,
00000000
00000001
00000000
00000010
00000000
00000100
00000000
00000010
,
00000001
00000000
00000100
00000000
00000010
00001000
00000100
00010000
,
00000000
00001000
00000000
01000000
00000000
00000000
00000000
00100000
,
20020000
00000000
00000000
30030000
,
00100000
00000000
00000000
00100000
00000000
00000000
00100000
00000000
00100000
00000000
00000000
00000000
00000000
00000000
00000000
00000000
,
10010000
00010000
00100000
00001000
,
00011000
00010000
00010100
00000100
,
00001100
00001000
00001010
00000010
,
00000110
00000000
00000100
00000000
00000101
00000000
00000001
00001000
,
00000100
00010000
00011000
00001000
,
01001000
01000000
01100000
01000000
,
10010000
10000000
01000000
00100000
,
00110000
00011000
00001100
00000110
,
00000011
00000001
00000110
00000000
,
00001010
00000000
00001100
00000000
,
00010100
00000000
00000000
00011000
,
01001000
01001000
01100000
01100000
,
10000000
01000000
00110000
00000000
,
00101000
00000000
00011000
00000000
,
00010100
00000000
00000000
00001100
,
00000011
00000000
00001001
00000000
,
00000001
00000100
00000010
00001000
,
00000100
00010000
00001000
01000000
,
00100000
00000000
10000000
00000000
01000000
00000000
00100000
01000000
,
10000000
00010000
00100000
00001000
,
00020000
00000000
00000000
00000000
,
00000000
00030000
00000020
00000000
,
00000230
00000000
00000000
00000302
,
00002000
00000000
00000000
00000003
,
00003010
00000000
00000000
00000000
;

//--------------- dance-double - Pandemonium X ----------------
#NOTES:
     dance-double:
     Pandemonium X:
     Medium:
     14:
     0,0,0,0,0:
00000000
00000000
00000000
00000000
,
00000000
00000000
00000000
00000000
,
00000000
00000000
00000000
00000000
,
00000000
00000000
00000000
00000000
,
00000000
00000000
00000000
00000000
,
00001000
00010000
00001000
00010000
00000010
00000000
00000000
00000000
00000000
00000000
00001000
00000000
00000001
00000000
00000001
00000000
,
00000010
00000000
00000000
00000100
00000000
00000000
00001000
00000000
00000000
00000000
00000100
00000000
00010000
00000000
00001000
00010000
,
00001000
00000000
00000000
00000000
00000000
00000000
00000000
00000000
00000000
00000000
00000000
00010000
00000100
00000000
00000000
00000000
,
00010000
00000000
00000000
00001000
01000000
00000000
00100000
00000000
,
10010000
00000000
00000000
00000000
,
10000000
00000000
00000000
00000000
,
01000000
00000000
00000000
00000000
,
00100000
00000000
00000000
00000000
00000000
00000000
00000000
00001000
00010000
00000000
00010000
00000100
00001000
00000000
00000010
00000000
,
00000100
00000100
00000001
00001000
00000100
00010000
00001000
00000000
,
00100000
00100000
00010000
10000000
01000000
00100000
00010000
00000000
,
01000000
01000000
00001000
00010000
00000100
00001000
00000010
00000000
,
00001000
00000001
00000000
00000001
00001000
00000000
00001000
00000001
00000000
00000001
00001000
00000000
00000100
00000000
00010000
00000000
,
00001000
01000000
00100000
10000000
10010000
00000000
10000000
00000000
,
00110000
00000000
00000000
00000000
00100000
00000000
00000000
00000000
00101000
00000000
00000000
00000000
00010000
00000000
00000000
00000010
,
00000100
00000000
00000000
00000000
00000001
00000000
00000000
00000000
00000010
00000000
00000000
00000100
00001000
00000000
00000000
00000000
,
00000100
00000000
00000000
00010000
00001000
00000000
00000000
01000000
00100000
00000000
00000000
10000000
00010000
00000000
00000000
00100000
,
01000000
00000000
00100000
00001000
00011000
00000000
00000100
00000000
,
00001010
00000000
00000000
00000000
00001000
00000000
00000000
00000000
00000011
00000000
00000000
00000000
00000001
00000000
00000000
00001000
,
00000100
00010000
00001000
01100000
,
01010000
00000000
00000000
10100000
00000000
00000000
01010000
00000000
10000000
01000000
00000000
01000000
00000000
01000000
00100000
00000000
,
00010000
00000000
00000000
01000000
00000000
00000000
00010000
00000000
10000000
00000000
00000000
01000000
00000000
00000000
00100000
00000000
,
00010000
00000000
00000000
00100000
00000000
00000000
00001000
00000000
00010000
00000100
00000000
00001000
00000000
00000000
00000010
00000000
,
00000100
00000000
00000000
00000001
00000000
00000000
00000010
00000000
00000100
00000000
00000000
00001000
00000000
00000000
00000100
00000000
,
00010000
00001000
00000000
01000000
00000000
00000000
00100000
00000000
10000000
01000000
00000000
00100000
00000000
01000000
00000000
00000000
,
00100000
00000000
00000000
00001000
00000000
00000000
00010000
00000000
00000100
00000000
00000000
00001000
00000000
00000000
00000010
00000000
,
00000100
00000001
00000000
00000010
00000000
00000000
00000100
00000000
00001000
00000100
00000000
00010000
00000000
00000000
00001000
00000000
,
01000000
00000000
00000000
00100000
00000000
00000000
10000000
00000000
00010000
00000000
00000000
00100000
00000000
00000000
01000000
00000000
,
10000000
01000000
00100000
00010000
00001000
00000100
00001000
00000010
,
00000100
00000010
00000000
00001000
00000000
00000000
00000100
00000000
00020000
00000000
00000000
00000000
00031000
00000000
01000000
00000000
,
00200000
00000000
01300000
00010000
00200000
00000000
00301000
00010000
,
00000200
00000000
00000000
00002300
,
00003020
00000000
00000000
00000130
00000000
00000000
00000001
00000000
00002000
00000000
00000000
00003100
00000000
00000000
00000010
00000000
,
00000002
00000000
00000000
00000013
00000000
00000000
00000010
00000000
00000200
00000000
00000000
00001300
00000000
00000000
00000200
00000000
,
00010300
00001000
01000000
00100000
10000000
01000000
00100000
00010000
,
20000000
00010000
00100000
30010000
,
02010000
00001000
00010000
03001000
,
00012000
00000000
00000000
00013000
00000000
00000000
00021000
00000000
00000000
00031000
00000000
00000000
00010000
00001000
00010000
00001000
,
02000000
00000000
00000000
00000000
03000000
00000000
00100000
00100000
,
10000000
00000000
00000000
10000000
00000000
00000000
00010000
00000000
00000000
00010000
00000000
00000000
00100000
00000000
00100000
00000000
,
00001000
00000000
00000000
00001000
00000000
00000000
00010000
00000000
00000000
00010000
00000000
00000000
00000100
00000000
00001000
00000000
,
00000010
00000001
00000010
00000100
00000001
00001000
00000100
00010000
,
00001000
00000000
00000000
00100000
00010000
00000000
10000000
00000000
00000000
00100000
01000000
00000000
00010000
00000000
00010000
00000000
,
10000000
01000000
00000000
01000000
00100000
00000000
00100000
00010000
00000000
00000000
10000000
00000000
00010000
00000000
01000000
00000000
,
00100000
00000000
00000000
10000000
00000000
00000000
00100000
00000000
01000000
00000000
00000000
00001000
00000000
00000000
00010000
00000000
,
00000100
00001000
00000010
00000001
00000010
00001000
00000100
00010000
,
00011000
00000000
00000000
00000000
00000000
00010000
00000100
00001000
,
00000010
00000000
00000000
00000100
00000000
00000000
00000001
00000000
00000000
00000000
00001000
00000000
00000000
00000000
00000100
00010000
,
00001000
00000000
00010000
00001000
00000000
01000000
00000000
00100000
,
00000000
00000000
10000000
00000000
00000000
00000000
01000000
00000000
00000000
00000000
00100000
00000000
00000000
00000000
00010000
00100000
,
01000000
00000000
00000000
00000000
00000000
00000000
00100000
00001000
00010000
00000000
00000100
00000000
00001000
00000000
00000010
00000000
,
00000000
00000010
00000000
00000010
00000000
00000000
00000000
00000100
,
00002002
00000000
00000000
00003003
,
00000001
00000100
00001000
00010000
00100000
10000000
00010000
10000000
,
01000000
00100000
00001000
00010000
00000100
00002000
00003010
00000000
,
00000001
00000100
00000000
00000000
00000010
00000000
00000000
00000000
00001000
00000100
00000000
00000000
00010000
00000000
00000000
00000000
,
00001000
01000000
00000000
00000000
00100000
00000000
00000000
00000000
10000000
01000000
00000000
00000000
00100000
00000000
00000000
00000000
,
00001000
00010000
00000000
00000000
00000100
00000000
00000000
00000000
00001000
00000010
00000000
00000000
00000100
00000000
00000001
00000000
,
00001001
00000000
00000001
00000000
00001000
00000000
00000100
00010000
00001000
00000000
00000000
00000000
00010000
00000000
00000000
00000000
,
00001000
01000000
00000000
00000000
00100000
00000000
00000000
00000000
10000000
00010000
00000000
00000000
00100000
00000000
01000000
10000000
,
00100000
00000000
00000000
00000000
01000000
00000000
00000000
00000000
00100000
00000000
00000000
00000000
10000000
00010000
00000000
00000000
,
00100000
00010000
00000000
00100000
00001000
00010000
00000000
00010000
00000100
00001000
00000000
00001000
00000010
00000100
00000000
00000100
,
00000001
00000000
00000000
00000010
00000000
00000000
00000001
00000000
00001000
00000000
00000000
00000100
00000000
00000000
00010000
00000000
,
00001000
01000000
00000000
00100000
00000000
00000000
01000000
00000000
00010000
10000000
00000000
01000000
00000000
00000000
00100000
00000000
,
01000000
00000000
00000000
10000000
00000000
00000000
00100000
00000000
01000000
00000000
00000000
00010000
00000000
00000000
00100000
00000000
,
00001000
00000000
00000000
00010000
00000100
00000000
00000000
00000100
00001000
00000000
00000000
00001000
00000010
00000000
00000000
00000010
,
00000100
00000001
00000000
00000010
00000000
00000000
00000100
00000000
00000010
00000000
00000000
00000001
00000000
00000000
00001000
00000000
,
00000100
00010000
00000000
00001000
00000000
00000000
01000000
00000000
00100000
10000000
00000000
00010000
00000000
00100000
00000000
01000000
,
00100000
00010000
00000000
10000000
00000000
00000000
00100000
00000000
01000000
00000000
00000000
00010000
00000000
00000000
00100000
00000000
,
00011000
00000000
00000000
00010100
00000000
00000000
00011000
00000000
00010000
00000000
00001000
00000000
01000000
00000000
00100000
00000000
,
10000000
01000000
00100000
00010000
00100000
00001000
00010000
00000000
,
00000100
00001000
00000010
00000100
00000001
00000010
00000100
00000000
,
00000010
00000001
00000100
00000001
00001000
00000100
00010000
00000000
,
00011000
00000000
00000000
00101000
00000000
00000000
00011000
00000000
00001000
01000000
00000000
00100000
00000000
10000000
01000000
00000000
,
00100000
00000000
00001000
00000000
00010000
00000000
00000100
00000000
00001000
00000010
00001000
00000000
00000001
00000000
00000000
00000000
,
00001000
00000000
00000100
00000000
00010000
00000000
00001000
00000000
01000000
00100000
01000000
00000000
00010000
00000000
00000000
00000000
,
10000000
00000000
00010000
00000000
00100000
00000000
00001000
00000000
00010000
00000100
00010000
00000000
00000100
00000000
00000000
00000000
,
00011000
00000000
00000000
00010100
00000000
00000000
00011000
00000000
00001000
00000000
01000000
00000000
00100000
00000000
10000000
00000000
,
20020000
00000000
00000000
00000000
,
00000000
00000000
00000000
00000000
,
30030000
00000000
00000000
00000000
;

//--------------- dance-double - Pandemonium X ----------------
#NOTES:
     dance-double:
     Pandemonium X:
     Hard:
     16:
     0,0,0,0,0:
00000000
00000000
00000000
00000000
,
00000000
00000000
00000000
00000000
,
00000000
00000000
00000000
00000000
,
00000000
00000000
00000000
00000000
,
00000000
00000000
00000000
00000000
,
00100000
00001000
00010000
00001000
00100000
00000000
00000000
00000000
00000000
00000000
00010000
00000000
01000000
00000000
01000000
00000000
,
00100000
00000000
00000000
10000000
00000000
00000000
00010000
00000000
00000000
00000000
00100000
00000000
00001000
00000000
00010000
00000100
,
00001000
00000000
00000010
00000000
00000100
00000000
00000010
00000000
00000000
00000000
00000000
00001000
00000001
00000000
00000000
00000000
,
00001000
00000000
00000000
00000100
00010000
00000000
00001000
00000000
,
00011000
00000000
00000000
00000000
,
00101000
00000000
00000000
00000000
,
01100000
00000000
00000000
00000000
,
10000000
01000000
00100000
00001000
00010000
00000100
00001000
00000010
,
00000100
00000000
00000001
00000000
00000010
00000000
00000001
00000000
00001000
00000001
00001000
00000000
00000100
00000000
00000100
00000000
,
00010000
00000000
00001000
00000000
01000000
00000000
00001000
00000000
00010000
00001000
00010000
00000000
00001000
00000000
00100000
00000000
,
00010000
00000000
10000000
00000000
01000000
00000000
10000000
00000000
00010000
10000000
00010000
00000000
10000000
00000000
00100000
00000000
,
01000000
00010000
00000000
00100000
00001000
00000000
00010000
00000100
00000000
00001000
00000010
00000000
00000100
00000001
00000010
00000100
,
00001000
00000000
00000100
00000000
00010000
00000000
00001000
01000000
00100000
00000000
20000000
00000000
31000000
00000000
00000000
00000000
,
00100000
00000000
01000000
00000000
10000000
00000000
00010000
00100000
00001000
00000000
00020000
00000000
00030010
00000000
00000000
00000100
,
00000010
00000000
00001000
00000000
00000001
00000000
00000010
00000100
00001000
00000000
00000200
00000000
00010300
00000000
00000000
00000000
,
00011000
00000000
00000000
00001000
01000000
00000000
00000000
01000000
00010000
00000000
00000000
00010000
00100000
00000000
00000000
01000000
,
10000000
00000000
00100000
00000000
01000000
00000000
00010000
00100000
00001000
00000000
00020000
00000000
00031000
00000000
00000000
00000000
,
00010000
00000000
00000010
00000000
00000100
00000000
00000001
00000010
00000100
00000000
00000020
00000000
00000130
00000000
00000000
00000010
,
00000001
00000000
00000100
00000000
00000010
00000000
00001000
00000100
00010000
00000000
00002000
00000000
00013000
00000000
00000000
00000000
,
00011000
00000000
00000000
00101000
00000000
00000000
00011000
00000000
00010000
00000100
00000000
00001000
00000000
00000010
00000100
00000000
,
00000001
00000010
00000000
00000100
00000000
00000000
00000010
00000001
00001000
00000010
00000000
00000100
00000000
00000010
00010000
00000000
,
00001000
00100000
00000000
00001000
00000000
00010000
00001000
01000000
00100000
10000000
00000000
00010000
00000000
00100000
01000000
00000000
,
10000000
00100000
00000000
01000000
00000000
00000000
00010000
00100000
01000000
00000000
00000000
10000000
00000000
01000000
00000000
00000000
,
00100000
00001000
00000000
00010000
00000000
00000100
00001000
00000010
00000100
00000001
00000000
00001000
00000000
00000100
00000000
00000000
,
00000010
00000001
00000000
00001000
00000000
00000000
00000010
00000100
00000001
00000000
00000000
00001000
00000000
00000000
00000100
00000000
,
00010000
00001000
00000000
01000000
00000000
00100000
10000000
00010000
00100000
01000000
00000000
00100000
00000000
00001000
00000000
00010000
,
00000100
00001000
00000000
00000010
00000000
00000100
00000010
00000000
00001000
00000100
00000000
00010000
00000000
00001000
01000000
00000000
,
01100000
00000000
00000000
01010000
00000000
00000000
01100000
00000000
00100000
01000000
00000000
00010000
00000000
10000000
01000000
00000000
,
00100000
00010000
00000000
01000000
00000000
00001000
00010000
00000000
00000200
00000000
00000000
00000000
00010300
00000000
00001000
00000000
,
02000000
00000000
03001000
00010000
00000020
00000000
00010030
00001000
,
00200000
00000000
00000000
00000000
00010000
00000000
00000000
00000000
00001000
00000000
00000000
00000000
00310000
00000000
00010000
10000000
,
00100000
00000000
00100000
01000000
00000000
00100000
01000000
00000000
00010000
00000000
10000000
00010000
00000000
10000000
00010000
00000000
,
00100000
00001000
00000000
00010000
00000000
00000100
00000000
00001000
00000010
00000000
00000100
00000000
00000001
00000000
00001000
00000000
,
00000100
00010000
00000100
00000000
00010000
00001000
00010000
00000000
00001000
01000000
00001000
00000000
01000000
00100000
01000000
00000000
,
00020000
00100000
01000000
10030000
,
11000000
00000000
00000000
00110000
00000000
00000000
11000000
00000000
10000000
00010000
00000000
00100000
00000000
00001000
00010000
00000000
,
00011000
00000000
00000000
00001100
00000000
00000000
00011000
00000000
00000000
01001000
00000000
00000000
00001000
00010000
00000010
00000100
,
00000002
00000000
00000000
00000000
00000003
00000000
00001000
00001000
,
00000100
00010000
00000000
00000100
00010000
00000000
00000100
00010000
00000000
00000100
00010000
00000000
00001000
00000000
00001000
00000000
,
00100000
00001000
00000000
00100000
00001000
00000000
00100000
00001000
00000000
00100000
00001000
00000000
00010000
00000000
00010000
00000000
,
00001000
01000000
00100000
00010000
00100000
01000000
00010000
10000000
,
11000000
00000000
00000000
00100000
00001000
00000000
00011000
00000000
00000000
00010000
00000100
00000000
00001100
00000000
00000100
00000000
,
00000100
00000010
00000000
00000010
00000001
00000000
00000001
00000100
00000000
00000100
00000010
00000000
00001000
00000000
00000100
00000000
,
00010000
00001000
00000000
00100000
00000000
00010000
00100000
01000000
10000000
00010000
00000000
01000000
00000000
01000000
00100000
00000000
,
01100000
00000000
00000000
10100000
00000000
00000000
01100000
00000000
01000000
00010000
00100000
00001000
00010000
00000100
00001000
00000010
,
00000100
00000000
00000000
00000000
00000000
00000100
00000010
00000010
,
00010000
00000000
00000000
00001000
00000000
00000000
01000000
00000000
00000000
00000000
00100000
00000000
00000000
00000000
01000000
00010000
,
00100000
00000000
01000000
10000000
00000000
00010000
00000000
00100000
,
00000000
00000000
00001000
00000000
00000000
00000000
00010000
00000000
00000000
00000000
00000010
00000000
00000000
00000000
00000100
00000001
,
00000010
00000000
00000000
00000000
00000010
00000001
00001000
00000100
00000010
00000000
00000100
00000000
00001000
00000000
00000100
00000000
,
00000000
00010000
00000000
00000100
00000000
00000000
00000000
00010000
,
00022000
00000000
00000000
00033000
,
00011000
00000000
00000000
00001100
00000000
00000000
00011000
00000000
00001000
01000000
00100000
01000000
00001000
00010000
00000100
00001000
,
00000010
00000100
00000010
00001000
00000100
00010000
00001000
01000000
,
01100000
01000000
00010000
00100000
01100000
01000000
10000000
00010000
,
10010000
00100000
00001000
00010000
00011000
00010000
00000010
00000100
,
00000101
00000001
00000010
00000001
00001001
00001000
00000010
00010000
,
00012000
00000000
00000000
00000000
01003000
00000000
00100000
10000000
00100000
00000000
01000000
00000000
00010000
00000000
00100000
00000000
,
00101000
00000000
00001000
00000000
00010000
00000000
00000100
00001000
00000100
00000000
00001000
00000000
00000010
00000000
00000100
00000001
,
00000010
00000000
00001000
00000000
00000010
00000000
00000001
00000000
00000100
00000000
00001000
00020000
00000000
00000000
00000000
00000000
,
00031000
00000000
00000000
01000000
00100000
00000000
00000000
10000000
01000000
00000000
00000000
00100000
00001000
00000000
00000000
00010000
,
00001000
00010000
00000000
00000010
00000000
00000100
00000001
00001000
00000100
00000010
00000000
00000100
00000000
00010000
00001000
00000000
,
00010000
00001000
00000000
01000000
00000000
00100000
10000000
00100000
01000000
00010000
00000000
00100000
00000000
01000000
10000000
00000000
,
00010000
00100000
00000000
00001000
00000000
00000000
00010000
00000100
00001000
00000010
00000000
00000100
00000000
00000010
00001000
00000000
,
00000001
00000000
00000000
00000001
00000010
00000000
00000000
00000010
00000100
00000000
00000000
00000100
00010000
00000000
00000000
00010000
,
00001000
01000000
00000000
00100000
00000000
00000000
01000000
00100000
10000000
00000000
00000000
00010000
00000000
00000000
00100000
00000000
,
01000000
00001000
00000000
00010000
00000000
00000000
00001000
00010000
00000100
00001000
00000000
00000010
00000000
00000100
00000001
00000000
,
00001000
00000100
00000000
00000010
00000000
00000000
00000100
00001000
00000001
00000000
00000000
00000100
00000000
00000000
00000010
00000000
,
00010010
00000000
00000000
00011000
00000000
00000000
00101000
00000000
00100000
00001000
00010000
00001000
00010000
00000010
00000100
00000001
,
00001000
00000100
00010000
00001000
01000000
00100000
10000000
00010000
,
00100000
00000000
01000000
00000000
10000000
00000000
00100000
00000000
01000000
00010000
00100000
00000000
01000000
00000000
10000000
00000000
,
00010000
00100000
00001000
00000000
00010000
00000000
00000010
00000000
00000100
00000000
00000001
00000000
00000010
00000000
00000100
00000000
,
00001100
00000000
00000000
00000011
00000000
00000000
00001100
00000000
00000100
00010000
00000000
00001000
00000000
01000000
00100000
00000000
,
10000000
00010000
10000000
00010000
00100000
00001000
00100000
00001000
,
00010000
00001000
00010000
00001000
00010000
00000100
00010000
00000100
,
00001000
00000010
00001000
00000010
00000100
00000001
00000100
00000001
,
00000010
00000001
00001000
00000010
00010000
00001000
01000000
00100000
10000000
00010000
00100000
01000000
10000000
00010000
00100000
00002000
,
00020000
00000000
00000000
00000000
,
00000000
00000000
00000000
00000000
,
00033000
00000000
00000000
00000000
;

//--------------- dance-double - Pandemonium X ----------------
#NOTES:
     dance-double:
     Pandemonium X:
     Challenge:
     18:
     0,0,0,0,0:
00000000
00000000
00000000
00000000
,
00000000
00000000
00000000
00000000
,
00000000
00000000
00000000
00000000
,
00000000
00000000
00000000
00000000
,
00000000
00000000
00000000
00000000
,
10000000
01000000
00100000
00010000
10000000
00000000
00000000
00000000
00000000
00000000
00100000
00000000
01100000
00000000
01010000
00000000
,
01001000
00000000
00000000
00000000
00000000
00000000
00000000
00000000
00000000
00011000
00000000
00000000
00000000
00000000
00000000
00000000
00000000
00000000
00010100
00000000
00000000
00000000
00000000
00000000
00000000
00000000
00000000
00000000
00000000
00000000
00000010
00000000
00000000
00000000
00000000
00000000
00000001
00000000
00000000
00000000
00000000
00000000
00001000
00000000
00000010
00000000
00001000
00000000
,
00000100
00000000
00010000
00000000
00001000
00000000
00010000
00000000
00000000
00000000
00000000
00000100
00010000
00000000
00000000
00000000
,
00011000
00000000
00000000
00001000
01001000
00000000
00001100
00000000
,
00022000
00000000
00000000
00033000
,
02002000
00000000
00000000
03003000
,
02200000
00000000
00000000
03300000
,
10000000
00000000
01000000
00000000
00100000
00000000
00010000
00001000
00000000
00001000
00000100
00000010
00000001
00001000
00000010
00001000
,
00000100
00000000
00000100
00000000
00010000
00000000
00010000
00000000
00001000
01000000
00100000
00000000
01000000
00000000
10010000
00000000
,
10000000
00000000
10000000
00000000
01000000
00000000
01000000
00000000
00100000
00001000
00010000
00000000
00000010
00000000
00001010
00000000
,
00000010
00000000
00000100
00000000
00000001
00000000
00001000
00000000
00000100
00010000
00001000
00000000
00010000
00000000
00011000
00000000
,
00001000
00000000
00000000
01000000
00000000
00000000
00000000
00000000
00000000
01000000
00000000
00000000
00100000
00000000
00000000
00000000
00000000
00000000
00100000
00000000
00000000
01000000
00000000
00000000
00000000
00000000
00000000
00010000
00000000
00000000
10000000
00000000
00000000
00000000
00000000
00000000
01000000
00000000
00100000
00000000
00010000
00000000
10000000
00000000
00000000
00010000
00000000
00000000
,
01000000
00000000
00010000
00000000
00100000
00000000
00001000
00010000
00000100
00000000
00002000
00000000
00003010
00000000
00000000
00000000
,
00000100
00000000
00000010
00000000
00001000
00000000
00000100
00010000
00001000
00000000
00200000
00000000
00310000
00000000
00000000
10000000
,
01000000
00000000
00100000
00000000
00010000
00000000
00010000
10000000
01000000
00000000
00100000
00001000
00010000
00000000
00000000
00000000
,
00000100
00001000
00000000
00001000
00000100
00000010
00000000
00000010
00000001
00000100
00000000
00000100
00000010
00001000
00000000
00001000
,
00000100
00000000
00010000
00000000
00001000
00000000
01000000
00100000
01000000
00000000
00020000
00000000
00130000
00000000
00000000
00000000
,
01000000
00000000
10000000
00000000
00100000
00000000
01000000
00001000
01000000
00000000
00020000
00000000
00130000
00000000
00000000
00001000
,
00010000
00000000
00000100
00000000
00001000
00000000
00000010
00000100
00000010
00000000
00002000
00000000
00003001
00000000
00000010
00000000
,
00001100
00000000
00000000
00011000
00000000
00000000
01010000
00000000
01000000
00100000
10000000
00010000
00100000
01000000
10000000
00010000
,
10000000
01000000
00000000
00100000
00000000
00000000
01000000
00000000
10000000
00100000
00000000
00010000
00000000
00100000
01000000
00000000
,
00001000
00010000
00000000
00000100
00000000
00001000
00000010
00000100
00000001
00000010
00000000
00001000
00000000
00000010
00000001
00000000
,
00001000
00000010
00000000
00001000
00000000
00000000
00000100
00010000
00001000
00000000
00000000
00010000
00000000
00001000
01000000
00000000
,
00100000
01000000
00000000
00010000
00000000
10000000
01000000
00100000
00010000
01000000
00000000
10000000
00000000
01000000
00010000
00000000
,
10000000
01000000
00000000
10000000
00000000
00000000
00010000
00100000
00001000
00010000
00000000
00000100
00000000
00001000
00000010
00000000
,
00000100
00000010
00000000
00001000
00000000
00000001
00000010
00000100
00001000
00000100
00000000
00010000
00000000
00001000
01000000
00000000
,
00100000
01000000
00000000
00010000
00000000
00000000
10000000
01000000
00100000
00000000
00000000
01000000
00000000
10000000
00100000
00000000
,
01000000
00010000
00100000
00001000
00010000
00000100
00001000
00000010
00000100
00000001
00000010
00000100
00001000
00000100
00010000
00001000
,
01000000
00010000
00000000
00100000
00000000
00000000
01000000
10000000
00020000
00000000
00000000
01000000
00000000
00000000
10030000
00000000
,
02000000
00000000
00000000
00100000
00000000
00000000
13000000
00000000
00100000
01000000
00000000
00010000
00000000
00100000
00001000
00000000
,
00020000
00000000
00000000
00000100
00000000
00000000
00001000
00000000
00032000
00000000
00000000
00100000
00000000
00000000
00013000
00000000
,
00010000
00000100
00000000
00001000
00000000
00000010
00000100
00000001
00000010
00000100
00000000
00000010
00000000
00000001
00000010
00000000
,
00000100
00001000
00000000
00000100
00000000
00010000
00001000
01000000
00100000
10000000
00010000
00100000
00010000
10000000
00100000
10000000
,
00010000
00100000
00001000
00010000
00000100
00001000
00000010
00001000
00000001
00001000
00000100
00010000
00001000
01000000
00010000
00100000
,
02000000
10000000
00100000
23000000
,
30010000
01000000
00010000
00100000
00001000
00010000
00000010
00000100
00000001
00000010
00000100
00001000
00000100
00010000
00001000
00000000
,
01000100
00000000
00000000
01000100
00000000
00000000
00100010
00000000
00000000
00100010
00000000
00000000
00011000
00001000
00011000
00010000
,
00022000
00000000
00000000
00000000
00033000
00000000
00110000
00110000
,
00100000
01000000
00000000
01000000
10000000
00000000
10000000
00100000
00000000
00100000
01000000
00000000
01010000
00000000
01010000
00000000
,
00010000
00100000
00000000
00100000
00001000
00000000
00001000
00010000
00000000
00010000
00000100
00000000
00001100
00000000
00001100
00000000
,
00000001
00000010
00000100
00001000
00000100
00010000
00000100
00010000
00000010
00000100
00000010
00010000
00001000
01000000
00100000
10000000
,
01000000
00000000
00000000
00100000
00010000
00000000
01010000
00000000
00000000
00100000
01000000
00000000
10010000
00000000
10010000
00000000
,
00100000
00001000
00000000
00010000
00000010
00000000
00000100
00000001
00000000
00000010
00000100
00000000
00001100
00000000
00001100
00000000
,
00000001
00000010
00000000
00000110
00000000
00000100
00000010
00000001
00001000
00000010
00000000
00000110
00000000
00000010
00000100
00000001
,
00001000
00000100
00010000
00001000
01000000
00100000
10000000
00010000
00100000
01000000
10000000
00010000
00100000
00001000
00010000
00000100
,
00001000
00000000
00000000
00000000
00000000
00000100
00010000
00001000
,
01000000
00000000
00000000
00100000
00000000
00000000
01000000
00000000
00000000
00000000
00010000
00000000
00000000
00000000
10000000
01000000
,
00100000
00000000
00100000
00100000
00001000
00010000
00000000
00000100
,
00000000
00000000
00001000
00000000
00000000
00000000
00000010
00000000
00000000
00000000
00000001
00000000
00000000
00000000
00000010
00000100
,
00000001
00000000
00000000
00000000
00000000
00000010
00000100
00001000
00000100
00010000
00001000
00000000
00100000
00000000
00010000
00000000
,
00000000
11000000
00000000
10100000
00000000
00000000
00000000
00100000
,
10000000
01000000
00100000
00010000
00100000
01000000
10000000
01000000
00100000
00010000
00001000
00000100
00000010
00000001
00000010
00000100
,
00000010
00000001
00000100
00000010
00001000
00000100
00000010
00000001
00001000
00000010
00010000
00001000
01000000
00100000
10000000
01000000
,
00100000
00000000
00010000
00000000
01000000
00000000
00001000
00010000
00000100
00000000
00002000
00000000
00003010
00000000
00000100
00000000
,
00000101
00000000
00000001
00000000
00001000
00000000
00000100
00010000
00001000
00000000
00200000
00000000
00310000
00000000
00100000
00000000
,
01100000
00000000
01000000
00000000
10000000
00000000
00100000
10000000
00010000
00000000
00200000
00000000
00301000
00000000
00010000
00000000
,
00010100
00000000
00010000
00000000
00000100
00000000
00001000
00000010
00000100
00000000
00000002
00000000
00000013
00000000
00000100
00000000
,
00010100
00000000
00010000
00000000
00001000
00000000
01000000
00100000
10000000
00000000
02000000
00000000
03100000
00000000
01000000
00000000
,
11000000
00000000
10000000
00000000
00100000
00000000
01000000
00001000
00010000
00000000
00000200
00000000
00001300
00000000
00001000
00000100
,
00000010
00000000
00000001
00000000
00000010
00000000
00000100
00001000
00000010
00000000
00000200
00000000
00000301
00000000
00001000
00000000
,
00001001
00000000
00000000
00000001
00001000
00000000
00000000
00001000
00010000
00000000
00000000
00000000
00010000
10000000
00000000
00000000
,
00010000
01000000
00000000
00010000
00000000
00000000
00100000
01000000
10000000
00000000
00000000
01000000
00000000
00000000
10000000
00000000
,
00100000
01000000
00000000
00010000
00000000
00100000
00001000
00010000
00000010
00000100
00000000
00000001
00000000
00000010
00000001
00000000
,
00001000
00000100
00000000
00010000
00000000
00001000
01000000
00010000
00100000
00000000
00000000
01000000
00000000
00000000
10000000
00000000
,
00010000
00100000
00000000
00001000
00000000
00010000
00000010
00000100
00000010
00001000
00000000
00000100
00000000
00010000
00001000
00000000
,
01000000
00100000
00000000
10000000
00000000
00000000
01000000
00100000
00010000
00000000
00000000
00100000
00000000
00000000
01000000
00000000
,
10000000
00010000
00000000
00100000
00000000
00001000
00010000
00000100
00001000
00000010
00000000
00000100
00000000
00000001
00000010
00000000
,
00000100
00000010
00000000
00000001
00000000
00000000
00000100
00000010
00001000
00000100
00000000
00010000
00000000
00001000
01000000
00000000
,
00100000
00010000
00100000
10000000
01000000
00010000
01000000
10000000
01000000
00100000
00001000
00010000
00000100
00001000
00000010
00000100
,
00000001
00000000
00001000
00000000
00000100
00000000
00010000
00000000
00001000
00100000
00010000
00100000
00001000
00010000
00000100
00001000
,
00000010
00000000
00000100
00000000
00000010
00000000
00010000
00000000
00001000
01000000
00100000
01000000
00001000
00010000
00001000
00100000
,
00010000
00000000
01000000
00000000
00100000
00000000
10000000
00000000
01000000
00100000
01000000
10000000
01000000
00100000
00010000
00100000
,
00001000
00000000
00000000
00010100
00000000
00000000
00011000
00000000
00001000
01000000
00100000
10000000
01000000
00100000
00010000
00001000
,
00000100
00001000
00000100
00000000
00001000
00000010
00001000
00000000
00000010
00000100
00000010
00000000
00000100
00000001
00000100
00000000
,
00000001
00001000
00000001
00000000
00001000
00000100
00001000
00000000
00000100
00010000
00000100
00000000
00010000
00001000
00010000
00000000
,
00001000
01000000
00001000
00000000
01000000
00100000
01000000
00000000
00100000
10000000
00100000
00000000
01000000
00010000
01000000
00000000
,
00010000
00100000
10000000
00100000
00001000
00010000
00000100
00001000
00000010
00000001
00000010
00000100
00000001
00001000
00000100
00020000
,
00002000
00000000
00000000
00000000
,
00000000
00000000
00000000
00000000
,
00033000
00000000
00000000
00000000
;
