#TITLE:A thing called LOVE;
#SUBTITLE:;
#ARTIST:D-crew 2 US;
#TITLETRANSLIT:;
#SUBTITLETRANSLIT:;
#ARTISTTRANSLIT:;
#GENRE:;
#CREDIT:;
#MUSIC:A thing called LOVE.ogg;
#BANNER:A thing called LOVE.png;
#BACKGROUND:A thing called LOVE-bg.png;
#CDTITLE:./CDTITLES/DanceDanceRevolution SuperNOVA2.png;
#SAMPLESTART:16.120;
#SAMPLELENGTH:15.000;
#SELECTABLE:YES;
#OFFSET:0.000;
#BPMS:0.000=160.010;
#STOPS:;
#BGCHANGES:;
#FGCHANGES:;

//--------------- dance-single - Pandemonium X ----------------
#NOTES:
     dance-single:
     Pandemonium X:
     Beginner:
     4:
     0,0,0,0,0:
0000
0000
0000
0000
,
0000
0000
0000
0000
,
0000
0000
0000
0000
,
0001
0001
0000
0000
,
1000
1000
0000
0000
,
0010
0000
0000
0000
,
0100
0000
0000
0000
,
0001
0001
0000
0000
,
1000
1000
0000
0000
,
0100
0000
0000
0000
,
0110
0000
0000
0010
,
0010
0000
0000
0001
,
0001
0000
0000
1000
,
1000
0000
0000
0000
,
0001
0000
0000
0100
,
0100
0000
0000
0010
,
0010
0000
0000
1000
,
1000
0000
0000
0000
,
1001
0000
0000
0001
,
0001
0000
0000
0010
,
0010
0000
0000
0100
,
0100
0000
0000
0000
,
1000
0000
0000
0010
,
0010
0000
0000
0100
,
0100
0000
0000
0001
,
0001
0000
0000
0000
,
0000
0000
0000
0000
,
1000
0000
1000
0000
,
1000
0000
1000
0000
,
0001
0000
0001
0000
,
0001
0000
0000
0000
,
0100
0000
0100
0000
,
0100
0000
0100
0000
,
0010
0000
0010
0000
,
0010
0000
0000
0000
,
1000
0000
0001
0000
,
0100
0000
0001
0000
,
0010
0000
0001
0000
,
1000
0000
0000
0000
,
0100
0000
1000
0000
,
0010
0000
1000
0000
,
1001
0000
0000
0000
,
0000
0000
0000
0001
,
0001
0000
0000
0000
,
1000
0000
0000
0000
,
0100
0000
0000
0000
,
0000
0000
0010
0000
,
0100
0000
0000
0000
,
1000
0000
0000
0000
,
0001
0000
1000
0000
,
1001
0000
0000
0010
,
0010
0000
0000
0000
,
1000
0000
0001
0000
,
0010
0000
0000
0000
,
0000
0000
0000
0000
,
0100
0000
0010
0000
,
0001
0000
0000
0000
,
0100
0000
0010
0000
,
1001
0000
0000
0000
,
1000
1000
0000
0000
,
0001
0001
0000
0000
,
0100
0000
0000
0000
,
0010
0000
0000
0000
,
1000
1000
0000
0000
,
0100
0100
0000
0000
,
0010
0000
0001
0000
,
1000
1000
1000
0000
,
0110
0000
0000
0000
;

//--------------- dance-single - Pandemonium X ----------------
#NOTES:
     dance-single:
     Pandemonium X:
     Easy:
     6:
     0,0,0,0,0:
0000
0000
0000
0000
,
0000
0000
0000
0000
,
0000
0000
0000
0000
,
0001
0002
0000
0003
,
1000
2000
0000
3000
,
0010
1000
0100
1000
,
0001
0100
0001
0010
,
0100
0200
0000
0300
,
0010
0020
0000
0030
,
0100
0000
1000
0000
,
1001
0000
0000
0001
,
0200
0010
0000
0320
,
2030
0100
0000
3200
,
0320
0000
0000
0000
,
0200
0000
0330
0100
,
2000
0001
0000
3200
,
0320
0100
0000
0230
,
2300
0000
0000
0000
,
0002
0000
3003
0001
,
0020
0001
0000
0230
,
0320
0001
0000
0130
,
2000
0000
0000
0000
,
3002
0000
0000
0103
,
0020
1000
0000
0230
,
0302
1000
0000
1003
,
0200
0000
0000
0000
,
0310
0000
0100
0010
,
0002
0000
0203
0000
,
0302
0000
2003
0000
,
3200
0000
0320
0000
,
0032
0000
0203
0000
,
0302
0000
2003
0000
,
3200
0000
2300
0000
,
3020
0000
0230
0000
,
0302
0000
0013
0100
,
2000
0000
3200
0000
,
2300
0000
3002
0000
,
0203
0000
0302
0000
,
0023
0000
0230
0000
,
2300
0000
3200
0000
,
0320
0000
0032
0000
,
2000
0000
0000
0000
,
3003
0000
0000
0001
,
2000
0000
0000
3100
,
1000
0010
0100
0001
,
0020
0130
0010
0001
,
1000
0001
0100
0001
,
1000
1000
0001
0001
,
0100
0000
0010
0010
,
0200
0000
0302
0000
,
2000
0000
3003
0001
,
0020
0000
0030
0100
,
1000
0010
0100
0001
,
0020
0130
0100
0010
,
0010
0001
0100
0001
,
1000
0100
0010
0001
,
0010
0000
0100
0010
,
0002
0000
2003
0000
,
0200
0000
3300
0000
,
1000
2000
0000
3000
,
0010
0020
0000
0030
,
0100
0001
0100
0000
,
0010
1000
0010
0000
,
1000
2000
0000
3000
,
0001
0002
0000
0003
,
0010
0001
0100
0000
,
2002
0000
0000
3003
,
0100
0000
0000
0000
;

//--------------- dance-single - Pandemonium X ----------------
#NOTES:
     dance-single:
     Pandemonium X:
     Medium:
     9:
     0,0,0,0,0:
0000
0000
0000
0000
,
0000
0000
0000
0000
,
0000
0000
0000
0000
,
0001
1020
0000
0030
,
1000
0021
0000
0030
,
0100
0000
0000
0100
0000
0000
0100
0000
0000
0000
0010
0000
0100
0000
0000
0000
,
1000
0000
0000
1000
0000
0000
1000
0000
0000
0000
0001
0000
1000
0000
0000
0000
,
0001
0210
0000
0300
,
1000
0210
0000
0300
,
1001
0000
0000
0001
0000
0000
0001
0000
0000
0000
1000
0000
1000
0000
0000
0000
,
0201
0000
0000
0310
,
1010
0000
0101
0000
0001
0010
0100
0000
,
1100
0000
0011
0000
0001
0100
0010
0000
,
1000
0000
0000
1000
0000
0000
1000
0000
0000
0000
0100
0000
0010
0000
0000
0000
,
0100
0000
0000
0100
0000
0000
0100
0000
0000
0000
0010
0000
0001
0000
0000
0000
,
0011
0000
1001
0000
0001
1000
0010
0000
,
0101
0000
1001
0000
1000
0010
0100
0000
,
0001
0000
0000
0001
0000
0000
0001
0000
0000
0000
0100
0000
0010
0000
0000
0000
,
1002
0000
0000
0000
0000
0000
0000
0000
1003
0000
0000
0001
1000
0000
0100
0000
,
0010
2100
0100
3001
,
0011
0201
0010
0301
,
1000
0000
0000
0010
0000
0000
0100
0000
0000
0000
0001
0000
0010
0000
0000
0000
,
0100
0000
0000
0010
0000
0000
0001
0000
0000
0000
1000
0000
0001
0000
0000
0000
,
0101
0021
0100
0031
,
0110
1002
1000
0013
,
1001
0000
0000
0001
0000
0000
0010
0000
0000
0000
0100
0000
0010
0000
0000
0000
,
0220
0000
0000
0000
0000
0330
0000
0000
1000
0000
0000
0000
0001
0000
0000
0000
,
0020
0000
0032
0000
,
0203
0000
2300
0000
,
3200
0000
0320
0000
,
2030
0000
3002
0000
,
0023
0000
2030
0000
,
3020
0000
0230
0000
,
0320
0000
0032
0000
,
2003
0000
3002
0203
,
0320
0000
0032
0000
,
0023
0000
2030
0000
,
3200
0000
0302
0000
,
0203
0000
0320
0000
,
0032
0000
0203
0000
,
2300
0000
3020
0000
,
0200
0000
0000
0330
,
1001
0000
0000
0001
,
1020
0000
0000
0000
0030
1000
1000
0100
,
0010
0200
0320
0032
,
1003
0101
1001
1100
,
1001
0000
0001
0000
1000
0100
0010
0001
,
0020
2030
3020
0032
,
0203
0300
2000
3200
,
0302
0000
2003
0000
,
0002
0000
3003
0100
,
1020
0000
0000
0000
0000
0130
0100
0010
,
2000
3002
2003
3200
,
0310
0110
1100
0110
,
0011
0000
0001
0000
0010
0001
0010
0100
,
2000
3200
0302
0203
,
2300
3000
0020
0032
,
0023
0000
0230
0000
,
0002
0000
0000
0303
,
1010
2200
0000
3300
,
1001
0022
0000
0033
,
0001
0000
0000
0001
0000
0000
0001
0000
0000
0000
0100
0000
0010
0000
0000
0000
,
1000
0000
0000
1000
0000
0000
1000
0000
0000
0000
0100
0000
0010
0000
0000
0000
,
0110
2200
0000
3300
,
0011
0202
0000
0303
,
0001
0000
0000
0001
0000
0000
0001
0000
0000
0000
1000
0000
0001
0000
0000
0000
,
1000
0000
0000
1000
0000
0000
1000
0000
0000
0000
0000
0000
0000
0000
0000
0000
,
0110
0000
0000
0000
;

//--------------- dance-single - Pandemonium X ----------------
#NOTES:
     dance-single:
     Pandemonium X:
     Hard:
     12:
     0,0,0,0,0:
0000
0000
0000
0000
,
0000
0000
0000
0000
,
0000
0000
0000
0000
,
0102
0020
0000
0033
,
2100
0020
0000
3030
,
0100
0000
0001
1000
0000
1000
0200
0000
0000
0000
0010
0000
0310
0000
0000
0000
,
0100
0000
1000
0010
0000
0010
0200
0000
0000
0000
0010
0000
0310
0000
0000
0000
,
1020
0200
0000
0330
,
0102
2000
0000
3003
,
0001
0000
0010
0001
0000
0001
0200
0000
0000
0000
0010
0000
0310
0000
0000
0000
,
2002
0000
0000
0000
3003
0000
0000
0000
0101
0000
0000
1000
0010
0000
1000
0000
,
0100
0000
0021
0000
0130
1000
0010
0000
,
1010
0000
0210
0000
0301
1000
0100
0000
,
0010
0000
0001
0010
0000
0001
2000
0000
0000
0000
0010
0000
3010
0000
0000
0000
,
0100
0000
0010
1000
0000
0100
0020
0000
0000
0000
0100
0000
0130
0000
0000
0000
,
1001
0000
0021
0000
0130
1000
0001
0000
,
1010
0000
1200
0000
0310
0100
1000
0000
,
0100
0000
0010
0100
0000
1000
0020
0000
0000
0000
0100
0000
0130
0000
0000
0000
,
2002
0000
0000
0000
3003
0000
0000
0000
1010
0000
0000
0001
0100
0000
0001
0000
,
0010
0000
0001
1000
0020
0000
0000
0000
1000
0000
0000
0000
0130
0000
0000
0000
,
0010
0000
0100
0001
2000
0000
0000
0000
0010
0000
0000
0000
3001
0000
0000
0000
,
1001
0000
0001
0100
0000
0001
2000
0000
0000
0000
3100
0000
1100
0000
0000
0000
,
0100
0000
0010
0001
0000
0100
0020
0000
0000
0000
0130
0000
1001
0000
0000
0000
,
1100
0000
0100
0010
0002
0000
0000
0000
1000
0000
0000
0000
0203
0000
0000
0000
,
0310
0000
1000
0001
0020
0000
0000
0000
0100
0000
0000
0000
0031
0000
0000
0000
,
1100
0000
0000
1100
0000
0000
2100
0000
0000
0000
0001
0000
3001
0000
0000
0000
,
0110
0000
0002
2003
,
3020
0000
0130
0001
0020
0000
0130
0010
,
0002
0000
0013
0100
2000
0000
3100
0010
,
0002
0000
0013
0001
0200
0000
0310
1000
,
0002
0000
1003
0010
0200
0000
0301
0000
,
2000
0000
3001
0100
0020
0000
0130
0001
,
2000
0000
3100
0010
0002
0000
0013
0100
,
2000
0000
3100
1000
0020
0000
0130
0001
,
2000
0010
3002
0203
,
0320
0000
0130
0001
0020
0000
1030
0010
,
0002
0000
0103
1000
0200
0000
0310
0100
,
0002
0000
0013
1000
0020
0000
0031
1000
,
0020
0000
0130
0001
2000
0000
3001
0000
,
2100
0000
3001
0100
2000
0000
3100
0010
,
2000
0000
3010
0100
0002
0000
0013
0100
,
1002
0013
2001
3010
,
1001
0010
0010
1001
,
0201
0000
0000
0000
0000
0301
0100
1000
,
0100
0002
0023
0230
,
2300
0000
0000
3001
0010
0000
0000
0010
0100
0000
0000
0100
1000
0000
0000
1000
,
0001
0000
1000
0000
0010
0100
0001
1000
,
2010
3100
0021
0130
,
2001
3100
0021
0130
,
2100
0000
3020
0000
,
0200
0000
0000
0000
0000
0000
0000
0000
0330
0000
0000
0010
0100
0000
0001
0000
,
2001
0000
0000
0000
0000
3001
0010
1000
,
0010
0200
0320
0032
,
2003
0000
0000
3001
1000
0000
0000
1000
0010
0000
0000
0010
0100
0000
0000
0100
,
0001
0000
0010
0000
1000
0010
0001
1000
,
1020
0130
0102
0013
,
2100
3001
0101
1010
,
2002
3003
0220
0330
,
2002
0000
0000
0000
3000
0000
0000
0000
1003
0000
0000
0001
0010
0000
0001
0000
,
0100
0000
1020
0000
0130
0001
1000
0000
,
0100
0000
0021
0000
0031
1000
0100
0000
,
0010
0000
0010
0001
0000
1000
0020
0000
0000
0000
0100
0000
0130
0000
0000
0000
,
0010
0000
0010
0100
0000
0100
0002
0000
0000
0000
1000
0000
1003
0000
0000
0000
,
0001
0000
2100
0000
3001
0100
0010
0000
,
1000
0000
0021
0000
0130
0010
0001
1000
,
0010
0000
0100
0001
0000
0010
0200
0000
0000
0000
0010
0000
0310
0000
0000
0000
,
0011
0000
0001
0010
0000
0100
1000
0000
0010
0000
0000
0100
0001
0000
1000
0000
,
1001
0000
0000
0000
;

//--------------- dance-double - Pandemonium X ----------------
#NOTES:
     dance-double:
     Pandemonium X:
     Easy:
     5:
     0,0,0,0,0:
00000000
00000000
00000000
00000000
,
00000000
00000000
00000000
00000000
,
00000000
00000000
00000000
00000000
,
00001000
00002000
00000000
00003000
,
00010000
00020000
00000000
00030000
,
00001000
00100000
00010000
00100000
,
00010000
01000000
00010000
10000000
,
01000000
02000000
00000000
03000000
,
00100000
00200000
00000000
00300000
,
01000000
00000000
00010000
00000000
,
00011000
00000000
00000000
00001000
,
00020000
00000000
00000000
00030100
,
00002000
00000000
00000000
00003010
,
00000200
00000000
00000000
00000000
,
00000002
00000000
00000303
00001000
,
00000200
00000000
00000000
00010300
,
00002000
00000000
00000000
00013000
,
00002000
00000000
00000000
00000000
,
02003000
00000000
03000000
00100000
,
20000000
00000000
30000000
01000000
,
00200000
00000000
00000000
00301000
,
00020000
00000000
00000000
00000000
,
00000200
00000000
00030300
00001000
,
00000020
00000000
00000030
00000100
,
00000002
00000000
00000000
00001003
,
00002002
00000000
00000000
00000000
,
00003003
00000000
00000001
00000100
,
00000010
00000000
00001000
00000000
,
00000100
00000000
00010000
00000000
,
00001000
00000000
00100000
00000000
,
00010000
00000000
10000000
00000000
,
01000000
00000000
00100000
00000000
,
00010000
00000000
00001000
00000000
,
00010000
00000000
00000100
00000000
,
00001000
00000000
00000010
00000100
,
00000001
00000000
00001000
00000000
,
00000100
00000000
00010000
00000000
,
00001000
00000000
01000000
00000000
,
00100000
00000000
10000000
00000000
,
01000000
00000000
00100000
00000000
,
00001000
00000000
00010000
00000000
,
00022000
00000000
00000000
00000000
,
00000000
00033000
00000000
00000000
00000000
00000000
00000000
00000000
00000000
00000000
00000000
00000000
00000000
00000000
00000000
00000000
00000000
00000000
00000000
00000000
00000000
00000000
00000000
00000000
00000000
00000000
00000000
00000000
00000000
00000000
00000000
00000000
00000000
00000000
00000000
00000000
00000000
00000000
00000000
00000000
00000000
00000000
00000000
00000000
00000000
00000000
00000000
00000000
00000000
00000000
00000000
00000000
00000000
00000000
00000000
00000000
00000000
00000000
00000000
00000000
00000000
00000000
00000000
00000000
00000000
00000000
00000000
00000000
00000000
00000000
00000000
00000000
00000000
00000000
00000000
00000000
00000000
00000000
00000000
00000000
00000000
00000000
00000000
00000000
00000000
00000000
00000000
00000000
00000000
00000000
00000000
00000000
00000000
00000000
00000000
00000000
00000000
00000000
00000000
00000000
00000000
00000000
00000000
00000000
00000000
00000000
00000000
00000000
00000000
00000000
00000000
00000000
00000000
00000000
00000000
00000000
00000000
00000000
00000000
00000000
00000000
00000000
00000000
00000000
00000000
00000000
00000000
00000000
00000000
00000000
00000000
00000000
00000000
00000000
00000000
00000000
00000000
00000000
00000000
00000000
00000000
00000000
00000000
00000000
00010000
00000000
00000000
00000000
00000000
00000000
00000000
00000000
00000000
00000000
00000000
00000000
00000000
00000000
00000000
00000000
00000000
00000000
00000000
00000000
00000000
00000000
00000000
00000000
00000000
00000000
00000000
00000000
00000000
00000000
00000000
00000000
00000000
00000000
00000000
00000000
00000000
00000000
00000000
00000000
00000000
00000000
00000000
00000000
00000000
00000000
00000000
00000000
,
00020000
00000000
00030000
00000100
,
00001000
00000010
00000100
00000001
,
00002000
00000000
00003000
00000000
,
00000000
00000100
00010000
00001000
,
01000000
00000000
00001000
00000000
,
00010000
00000000
00000100
00010000
,
00001000
00000000
00010000
00000000
,
00011000
00000000
00000000
00010000
,
00000200
00000000
00000000
00001300
,
00000010
00000100
00000001
00000010
,
00000200
00000000
00000300
00000000
,
00000000
00010000
00001000
01000000
,
00100000
00000000
10000000
00000000
,
00010000
00000000
00100000
00010000
,
01000000
00000000
00001000
00000000
,
00011000
00000000
00000000
00000000
,
00001000
00002000
00000000
00003000
,
00010000
00020000
00000000
00030000
,
00000100
00000100
00000100
00000000
,
00001000
00001000
00001000
00000000
,
00000010
00000020
00000000
00000030
,
00000100
00000200
00000000
00000300
,
00000010
00000010
00001000
00000000
,
00000100
00000100
00010000
00000000
,
00011000
00000000
00000000
00000000
;

//--------------- dance-double - Pandemonium X ----------------
#NOTES:
     dance-double:
     Pandemonium X:
     Medium:
     10:
     0,0,0,0,0:
00000000
00000000
00000000
00000000
,
00000000
00000000
00000000
00000000
,
00000000
00000000
00000000
00000000
,
00100000
00011000
00000000
00000000
,
00000010
00010200
00000000
00000300
,
00010000
00000000
00000000
00010000
00000000
00000000
00010000
00000000
00000000
00000000
00001000
00000000
00001000
00000000
00000000
00000000
,
01000000
00000000
00000000
01000000
00000000
00000000
01000000
00000000
00000000
00000000
00100000
00000000
00100000
00000000
00000000
00000000
,
10000000
02020000
00000000
03030000
,
00100000
00022000
00000000
00033000
,
00000100
00000000
00000000
00000100
00000000
00000000
00000100
00000000
00000000
00000000
00001000
00000000
00000010
00000000
00000000
00000000
,
00000101
00000000
00000000
00000000
00000000
00000000
00000000
00000000
00001001
00000000
00000000
00000001
00001000
00000000
00000001
00000000
,
00000010
00002100
00000000
00003100
,
00011000
02001000
00000000
03100000
,
10000000
00000000
00000000
00100000
00000000
00000000
02000000
00000000
00000000
00000000
03010000
00000000
01010000
00000000
00000000
00000000
,
00010000
00000000
00000000
00100000
00000000
00000000
00002000
00000000
00000000
00000000
00013000
00000000
00011000
00000000
00000000
00000000
,
00010100
00002020
00000000
00003030
,
00000110
00000202
00000000
00000303
,
00001000
00000000
00000000
00000100
00000000
00000000
00020000
00000000
00000000
00000000
00001000
00000000
00031000
00000000
00000000
00000000
,
00022000
00000000
00033000
00001000
,
01000000
00100000
10000000
00000000
00010000
00000000
00100000
00000000
,
01000000
00100000
00010000
00000000
00100000
00000000
00001000
00000000
,
00010000
00000000
00000000
00010000
00000000
00000000
00002000
00000000
00000000
00000000
01000000
00000000
01003000
00000000
00000000
00000000
,
00100000
00000000
00000000
10000000
00000000
00000000
02000000
00000000
00000000
00000000
00100000
00000000
03100000
00000000
00000000
00000000
,
00110000
00202000
00000000
00303000
,
00011000
00020200
00000000
00030300
,
00001000
00000000
00000000
00001000
00000000
00000000
00000020
00000000
00000000
00000000
00000100
00000000
00000130
00000000
00000000
00000000
,
00002002
00003003
00000001
00000100
,
00000010
00000000
00001000
00000100
00001000
00000000
00000100
00010000
,
00000100
00000000
00010000
00001000
00010000
00000000
00001000
01000000
,
00001000
00000000
01000000
00100000
01000000
00000000
00010000
01000000
,
01010000
00000000
00020000
00000000
,
10030000
00000000
00010000
00100000
00010000
00000000
00100000
00001000
,
00100000
00000000
00001000
00010000
00001000
00000000
00010000
00000100
,
00010000
00000000
00000010
00001000
00000010
00000000
00000100
00000001
,
00000100
00001001
00000002
00002003
,
00003100
00000000
00010000
00001000
01000000
00000000
00100000
10000000
,
01000000
00000000
00100000
00010000
01000000
00000000
00001000
00010000
,
00000100
00000000
00001000
00000010
00000100
00000000
00000001
00000010
,
00000100
00000010
00000002
00001003
,
00000201
00000310
00002010
00003100
,
00020100
00031000
02001000
03100000
,
20020000
00000000
00000000
00000000
,
30030000
00000000
00000000
01000000
,
20010000
00000000
00000000
00000000
00000000
31000000
00100000
00001000
,
00010000
00011000
00001100
00000110
,
00001002
00000100
00001000
00000100
,
00001003
00000000
00000001
00000000
00000010
00000001
00000100
00000010
,
00001000
00000100
00010000
00001000
,
00100000
00000000
00010000
01000000
,
01010000
00000000
10100000
00000000
,
20020000
00000000
30030000
01000000
,
10020000
00000000
00000000
00000000
00000000
00130000
00001000
00010000
,
00000010
00000100
00001000
00000100
,
00000002
00000010
00000100
00000010
,
00001003
00000000
00000001
00000000
00000001
00000010
00000100
00001000
,
00000100
00010000
00001000
00100000
,
00001000
00000000
00010000
00000010
,
00001001
00000000
00000110
00000000
,
00002002
00000000
00003003
00000000
,
00000101
00000022
00000000
00000033
,
00000110
00002200
00000000
00003300
,
00000100
00000000
00000000
00000100
00000000
00000000
00020000
00000000
00000000
00000000
00001000
00000000
00031000
00000000
00000000
00000000
,
00010000
00000000
00000000
00010000
00000000
00000000
00002000
00000000
00000000
00000000
01000000
00000000
01003000
00000000
00000000
00000000
,
01100000
20020000
00000000
30030000
,
11000000
20020000
00000000
30030000
,
00010000
00000000
00000000
00010000
00000000
00000000
00200000
00000000
00000000
00000000
00001000
00000000
00301000
00000000
00000000
00000000
,
00010000
00000000
00000000
00010000
00000000
00000000
00000010
00000000
00000100
00000000
00000000
00000010
00001000
00000000
00000001
00000000
,
00001001
00000000
00000000
00000000
;

//--------------- dance-double - Pandemonium X ----------------
#NOTES:
     dance-double:
     Pandemonium X:
     Hard:
     13:
     0,0,0,0,0:
00000000
00000000
00000000
00000000
,
00000000
00000000
00000000
00000000
,
00000000
00000000
00000000
00000000
,
00110000
00202000
00000000
00303000
,
00011000
00020200
00000000
00030300
,
00000100
00000000
00000000
00001000
00000000
00000000
00000010
00000000
00000000
00000000
00000100
00000000
00001001
00000000
00000000
00000000
,
00000001
00000000
00000000
00000010
00000000
00000000
00000100
00000000
00000000
00000000
00001000
00000000
00000101
00000000
00000000
00000000
,
00001100
00020200
00000000
00030300
,
00011000
02002000
00000000
03003000
,
00010000
00000000
00000000
00100000
00000000
00000000
00010000
00000000
00000000
00000000
01000000
00000000
00010000
00000000
00000000
00000000
,
10010000
00000000
00000000
00000000
00000000
00000000
00000000
00000000
11000000
00000000
00000000
00010000
01000000
00000000
00001000
00000000
,
00021000
00000000
00030200
00000000
00001300
00000010
00000100
00000000
,
00000201
00000000
00000320
00000000
00001030
00000010
00000100
00000000
,
00000010
00000000
00001000
00000100
00000000
00000100
00020000
00000000
00000000
00000000
00001000
00000000
00031000
00000000
00000000
00000000
,
00010000
00000000
00001000
01000000
00000000
01000000
00200000
00000000
00000000
00000000
10000000
00000000
10300000
00000000
00000000
00000000
,
12000000
00000000
03200000
00000000
00310000
01000000
00001000
00000000
,
00021000
00000000
00030100
00000000
00001000
00000010
00000100
00000000
,
00000001
00000000
00001000
00000100
00000000
00000100
00000020
00000000
00000000
00000000
00000100
00000000
00000130
00000000
00000000
00000000
,
00002002
00000000
00000000
00000000
00003003
00000000
00000000
00000000
00000101
00000000
00000000
00000010
00001000
00000000
00000100
00000000
,
00010000
00000000
00001000
01000000
00200000
00000000
00000000
00000000
00010000
00000000
00000000
00000000
10300000
00000000
00000000
00000000
,
01000000
00000000
00100000
00010000
02000000
00000000
00000000
00000000
00010000
00000000
00000000
00000000
03100000
00000000
00000000
00000000
,
00010000
00000000
00100000
00001000
00000000
00010000
00001000
00000000
00010000
00000100
00010000
00000000
00002000
00000000
00000000
00000000
,
00003010
00000000
00000100
00000010
00000000
00000010
00001000
00000000
00000100
00001000
00000100
00000000
00020000
00000000
00000000
00000000
,
00031000
00000000
00010000
00000100
00002000
00000000
00000000
00000000
00000010
00000000
00000000
00000000
00003100
00000000
00000000
00000000
,
00000100
00000000
00000010
00000001
00000200
00000000
00000000
00000000
00001000
00000000
00000000
00000000
00000301
00000000
00000000
00000000
,
00000101
00000000
00000001
00000100
00000000
00000100
00000010
00000000
00000100
00000010
00001000
00000000
00000100
00000000
00000000
00000000
,
00012000
00000000
00000000
00010000
00000000
00000000
00013000
00000000
00002000
00000000
00000000
00000000
00023000
00000000
00000000
00000000
,
00030200
00000000
00000000
00010300
00001000
00000000
01000000
00000000
00200000
00000000
00000000
10300000
01000000
00000000
00100000
00000000
,
02000000
00000000
00000000
03100000
00001000
00000000
00010000
00000000
00000200
00000000
00000000
00001300
00000010
00000000
00000100
00000000
,
00000020
00000000
00000000
00000130
00000001
00000000
00001000
00000000
00000200
00000000
00000000
00010300
00001000
00000000
01000000
00000000
,
00020000
00100000
20030000
00100000
,
30020000
00000000
00000000
00130000
00001000
00000000
00010000
00000000
00000200
00000000
00000000
00001300
00000010
00000000
00001000
00000000
,
00000200
00000000
00000000
00001300
00000010
00000000
00001000
00000000
00000002
00000000
00000000
00000013
00000001
00000000
00001000
00000000
,
00000200
00000000
00000000
00001300
00000010
00000000
00010000
00000000
00001000
00000000
00000000
01000000
00010000
00000000
00100000
00000000
,
00020000
00100000
20030000
31000000
,
00120000
00000000
00000000
00130000
00001000
00000000
00010000
00000000
00000020
00000000
00000000
00000130
00000001
00000000
00001000
00000000
,
00000002
00000000
00000000
00000013
00000001
00000000
00001000
00000000
00000200
00000000
00000000
00010300
00001000
00000000
01000000
00000000
,
00200000
00000000
00000000
01300000
00010000
00000000
00100000
00000000
02000000
00000000
00000000
03100000
00001000
00000000
00010000
00000000
,
00000020
00000130
00000002
00001003
,
00001200
00000000
00000000
00010300
00001000
00000000
01000000
00000000
00200000
00000000
00000000
01300000
00010000
00000000
00100000
00000000
,
02000000
00000000
00000000
03100000
00001000
00000000
00010000
00000000
00000200
00000000
00000000
00001300
00000010
00000000
00000100
00000000
,
00000102
00000100
00000010
00001003
,
00000220
00000000
00000300
00010030
,
00021000
00000000
00000000
00000000
00000000
00031000
01000000
00100000
,
10000000
01000000
00100000
00010000
,
00021000
00030100
00001000
00000010
,
00001001
00000000
00000001
00000000
00000001
00000010
00000100
00010000
,
00002000
02003000
03200000
00320000
,
00230000
00000000
00300000
00000000
02000000
00000000
00020000
03030000
,
00220000
00330000
00002020
00003030
,
00022000
00000000
00033000
00011000
,
00210000
00000000
00000000
00000000
00000000
01300000
01000000
10000000
,
00010000
00100000
00001000
00010000
,
00000100
00001000
00010000
00000010
,
00001010
00000000
00000001
00000000
00000001
00000100
00000010
00010000
,
00002000
00103000
00210000
01300000
,
20020000
30030000
10000000
00100000
,
02020000
03030000
00002200
00003300
,
00022000
00000000
00000000
00033000
,
00010100
00002200
00000000
00003300
,
00000011
00002002
00000000
00003003
,
00001010
00000000
00000010
00010000
00000000
00010000
00001000
00000000
00010000
00001000
01000000
00000000
00020000
00000000
00000000
00000000
,
00130000
00000000
00001000
00010000
00000000
00010000
00000100
00000000
00001000
00000010
00000100
00000000
00000002
00000000
00000000
00000000
,
00000013
00002200
00000000
00003300
,
00000010
00022000
00000000
00033000
,
00001000
00000000
00001000
01000000
00000000
01000000
00100000
00000000
01000000
00010000
00100000
00000000
01000000
00000000
00000000
00000000
,
01100000
00000000
00000000
00110000
00000000
00000000
00101000
00000000
00001000
00000000
00000000
00010000
00000100
00000000
00001000
00000000
,
00001001
00000000
00000000
00000000
;
