#TITLE:7 00 AM Going on Midnight;
#SUBTITLE:;
#ARTIST:Discoholic;
#TITLETRANSLIT:;
#SUBTITLETRANSLIT:;
#ARTISTTRANSLIT:;
#GENRE:;
#CREDIT:;
#MUSIC:7 00 AM Going on Midnight.ogg;
#BANNER:;
#BACKGROUND:;
#CDTITLE:;
#SAMPLESTART:18.928;
#SAMPLELENGTH:15.010;
#SELECTABLE:YES;
#OFFSET:-0.177;
#BPMS:0.000=128.000;
#STOPS:;
#BGCHANGES:;
#FGCHANGES:;

//--------------- dance-single - Pandemonium X ----------------
#NOTES:
     dance-single:
     Pandemonium X:
     Beginner:
     3:
     0,0,0,0,0:
0000
0000
0000
0000
,
0000
0000
0000
0000
,
0000
0000
0000
0000
,
0000
0000
0000
0000
,
0000
0000
0000
0000
,
0000
0000
0000
0000
,
0000
0001
0000
1000
,
0000
0001
0000
1000
,
0000
0100
0000
0010
,
0100
0100
0100
0000
,
0020
0000
0000
0000
,
0000
0000
0030
0000
,
0001
0000
1000
0000
,
0001
0001
1000
1000
,
0200
0000
0000
0000
,
0000
0000
0300
0000
,
0010
0000
0100
0000
,
0010
0000
0001
1000
,
0001
0000
0000
0100
,
0100
0000
0010
0000
,
1000
0000
0100
0000
,
0010
0000
0002
0000
,
2003
0000
0000
0000
,
3000
0000
0010
0000
,
0200
0000
0000
0000
,
0310
0010
0100
0100
,
0001
0000
1000
0000
,
0100
0000
0010
0000
,
0100
0000
1000
0000
,
0001
0000
0100
0000
,
0020
0000
0000
0000
,
0030
0000
0100
0000
,
0002
0000
0000
0000
,
0000
0000
0000
0003
,
1000
0000
0100
0000
,
1000
0000
0000
0000
0001
0000
0000
0100
,
0000
0000
0001
0000
,
1000
0000
0100
0000
,
0010
0010
0000
0100
,
0000
0100
0000
1000
,
0000
0001
0000
0001
,
0000
0001
0000
0100
,
0010
0000
0000
0000
,
1000
0000
0000
0000
,
0100
0000
0000
0000
,
0010
0000
0000
0000
,
0001
1000
0001
1000
,
0001
0000
0100
0000
,
0001
0000
1000
0000
,
0100
0000
0010
0100
,
0020
0000
0000
0000
,
0030
0000
0000
0000
0000
0000
0000
0200
,
0000
0000
0000
0300
,
0000
0000
0000
0000
0000
0000
0000
2000
,
0000
0000
0000
0000
0000
0000
0000
3000
,
0000
0000
0000
0000
0000
0000
0000
2002
,
0000
0000
0000
0000
,
0000
0000
0000
0000
,
3003
0000
0000
0000
;

//--------------- dance-single - Pandemonium X ----------------
#NOTES:
     dance-single:
     Pandemonium X:
     Easy:
     5:
     0,0,0,0,0:
0000
0000
0000
0000
,
0000
0000
0000
0000
,
1000
0000
0001
0000
,
1000
1000
1000
0000
,
0001
0000
1000
0000
,
0010
0010
0100
0100
,
0000
1001
0000
0001
,
0000
1000
0000
0100
,
0000
0010
0000
0001
,
0100
0100
0100
0020
,
1030
0000
0100
0000
,
1000
0001
0100
0000
,
0010
0000
1000
0000
,
0001
0001
1000
1000
,
0010
0000
0100
0000
,
0001
0010
0001
0000
,
1000
0000
0001
0000
,
1000
0000
0010
0200
,
0302
0000
0000
2003
,
3200
0000
0310
0001
,
1000
0000
0010
0000
,
0100
0000
0001
1000
,
0020
0100
0000
0100
,
0000
0130
0001
1000
,
0200
0010
0000
0310
,
0100
0100
1000
1000
,
0001
0000
0100
0000
,
0010
1000
0100
0000
,
0010
0000
0001
0000
,
1000
0001
0010
0100
,
2000
0000
0000
0000
,
3000
0000
0000
0000
0001
0000
0000
0200
,
0000
0000
0000
0000
,
0000
0000
0000
0310
,
1001
0000
0001
0000
,
1000
0000
0000
0000
0100
0000
0000
0010
,
0000
0000
0100
0000
,
1000
0000
0001
0000
,
0100
0001
0000
1000
,
0000
0000
0100
0000
0000
0000
0010
0001
,
0000
1000
0000
0001
,
0000
0100
0000
0010
,
1000
0001
0010
0001
,
1000
0000
0100
0000
,
1000
0001
0010
0100
,
0010
0000
0001
0000
,
1000
0001
0010
0001
,
1000
0000
0100
0000
,
1000
0010
0100
0001
,
0010
0100
0010
0001
,
2000
0000
0000
0000
,
3000
0000
0010
0000
0100
0000
0000
0002
,
0000
0000
0000
0003
,
0000
0000
0010
0000
0100
0000
0000
0020
,
0000
0000
0000
0030
,
0000
0000
0100
0000
1000
0000
0000
2002
,
0000
0000
0000
0000
,
0000
0000
0000
3003
,
0001
0001
0001
0001
,
0001
0000
0000
0000
;

//--------------- dance-single - Pandemonium X ----------------
#NOTES:
     dance-single:
     Pandemonium X:
     Medium:
     8:
     0,0,0,0,0:
0000
0000
0000
0000
,
0000
0000
0000
0000
,
0001
0000
1000
0000
,
0001
0001
1001
0000
,
1000
0000
0001
0000
,
1010
0101
1010
0101
,
0010
1001
0001
0010
,
0100
1000
0100
1000
,
0010
0100
0001
0010
,
0100
1000
0100
1000
0100
0000
0020
0000
,
0031
0100
1000
0100
,
0001
0000
0100
0010
1000
0000
0000
0000
,
0001
0000
0010
0100
1000
0000
0100
0010
,
0011
0000
1100
0000
0011
0000
1100
0100
,
0000
1000
0010
0000
0100
0000
0001
0000
,
0010
1000
0010
0000
,
0100
0000
1000
0010
0100
0000
0010
0100
,
0001
0000
0010
0100
1000
0001
2000
0000
,
3020
0130
0001
0020
,
0230
0000
1300
0000
0100
0010
0001
0000
,
1000
0010
0001
0010
,
1000
0000
0000
0000
0100
0000
0000
0000
0001
0000
0000
0100
0000
0000
1000
0000
,
0002
1003
0001
0010
,
0001
0000
1000
0000
0001
0010
0100
1000
,
0001
0010
1000
0010
,
0011
0101
1010
1100
,
1001
1000
0100
0010
,
0100
1000
0001
0100
,
0001
0010
1000
0010
,
0001
0000
0000
0000
0100
0000
0000
0000
0010
0000
0000
0010
0000
0000
0010
0000
,
2000
0000
0000
0000
,
0000
0000
3000
0000
0010
0100
0010
1002
,
0000
0000
0000
0000
,
0000
0000
0000
0103
,
1010
0001
0011
1000
,
0110
0000
0010
0000
1100
0000
1000
0010
,
0000
0100
0101
0001
,
1001
1000
1100
0100
,
0010
0001
1000
0000
0001
0000
0101
0000
,
0001
1000
0100
0000
0010
0000
0100
2000
,
0000
3010
0100
0001
,
0010
0000
0100
0000
0010
0001
1000
0000
,
0001
1001
0110
1001
,
0110
1000
0100
0001
,
0100
0010
0001
0010
,
1000
0010
0100
0010
,
0001
1001
0110
1001
,
0110
0000
0001
0000
1000
0000
0100
1000
,
0001
1000
0100
0010
,
0100
1000
0010
0100
,
1002
0000
0000
0000
,
0003
1000
0100
0000
1000
0000
0010
0200
,
0000
0000
0000
0300
,
0000
0000
0010
0000
0100
0000
0001
0020
,
0000
0000
0000
0030
,
0000
0000
0100
0000
1000
0000
0010
2002
,
0000
0000
0000
0000
,
0000
0000
3003
0000
,
0001
1000
0001
1000
,
0001
0000
0000
0000
;

//--------------- dance-single - Pandemonium X ----------------
#NOTES:
     dance-single:
     Pandemonium X:
     Hard:
     11:
     0,0,0,0,0:
0000
0000
0000
0000
,
0000
0000
0000
0000
,
0001
0000
0000
1000
0001
0000
0000
0000
,
0100
0010
0100
0001
0100
0000
0000
0000
,
0001
0000
0000
1000
0001
0000
0000
0000
,
0021
0130
1020
0130
,
0001
0000
1100
0100
0010
0001
0100
0010
,
1000
0100
0010
0100
1000
0100
0010
0001
,
1000
0010
1000
0001
0010
0100
0010
0000
,
0010
0100
1000
0001
0100
0000
0020
0000
,
1030
0100
0010
0001
0010
1000
0010
0001
,
0100
1000
0100
0001
1000
0000
0000
0000
,
0001
0100
0010
0010
0100
0001
0010
0010
,
0012
0000
1003
0000
2100
0000
3010
0100
,
0000
0010
1000
0001
0010
0100
0010
0001
,
1000
0001
0100
0001
1000
0000
0000
0000
,
0001
1000
0100
0100
1000
0001
0100
0100
,
0010
1000
0100
0100
0020
0032
2000
3003
,
0201
0001
0010
0302
,
0023
0000
0032
0000
1003
0100
0010
0100
,
1000
0100
0010
0001
0100
1000
0100
0001
,
1000
0000
0100
0000
1000
0000
0010
0000
0100
0000
0000
0100
0000
0000
0100
0000
,
0020
1000
0000
0100
,
0000
0000
1030
0000
0001
0010
0100
1000
,
0001
0100
0010
0010
1000
0100
0010
0010
,
0021
0230
2300
3001
,
0100
0001
0010
0001
1000
0010
0100
0010
,
1000
0100
0010
0001
1000
0010
0001
0010
,
1000
1000
0010
0100
0001
0001
0010
0100
,
1000
0000
1000
0000
0100
0000
0010
0000
0100
0000
0000
0100
0000
0000
0100
0000
,
2000
0001
0000
0010
,
0000
0000
3001
0000
1000
0100
0010
1002
,
0000
1000
1000
0100
,
0100
1003
0110
1001
,
0201
0310
1020
0130
,
0210
0000
0301
0000
0012
0000
0103
2001
,
0000
3001
1020
0130
,
0201
0310
0120
1030
,
0100
0010
0001
0000
0100
0000
0010
0000
,
0100
0010
1000
0000
0001
1000
0100
0020
,
0001
0100
0001
0100
,
0031
0000
0000
0000
1000
0000
0010
0100
0010
0000
1000
0000
0001
0000
1000
0000
,
0001
0010
0100
1000
0100
0010
0100
1000
,
0001
0100
0001
1000
0100
0010
0100
1000
,
0010
0010
0000
0100
0100
0010
0010
0100
,
0001
0001
0000
1000
1000
0000
0100
0100
,
0010
0011
1100
0011
,
1100
0000
0001
0000
0100
0010
1000
0001
,
1000
1010
0101
1010
,
0101
0000
0000
0000
0001
0000
1000
0001
1000
0000
0100
0000
0010
0000
0100
0000
,
2100
0000
0000
0000
0000
0000
0000
3000
,
0000
0000
0100
1000
0100
0000
0010
0000
0001
0000
0100
0000
0001
0000
2001
0000
,
0000
0000
0000
3000
,
0000
0000
0100
1000
0100
0000
0010
0000
0001
0000
0100
0000
0010
0000
2000
0000
,
0000
0000
0000
3000
,
0000
0000
0010
0100
0010
0000
0100
0000
0010
0000
1000
0000
0001
0000
2002
0000
,
0000
0000
0000
0000
,
0000
0000
0000
3003
,
0200
0300
0200
0300
0200
0300
0200
0300
,
0200
0300
0000
0000
0000
0000
0000
0000
0000
0000
0000
0000
0000
0000
0000
0000
0000
0000
0000
0000
0000
0000
0000
0000
0000
0000
0000
0000
0000
0000
0000
0000
0000
0000
0000
0000
0000
0000
0000
0000
0000
0000
0000
0000
0000
0000
0000
0000
;

//--------------- dance-double - Pandemonium X ----------------
#NOTES:
     dance-double:
     Pandemonium X:
     Easy:
     5:
     0,0,0,0,0:
00000000
00000000
00000000
00000000
,
00000000
00000000
00000000
00000000
,
00000000
00000000
00000000
00000000
,
00000000
00000000
00000000
00000000
,
00000000
00000000
00000000
00000000
,
00001000
00010000
00001000
00010000
,
00000000
00011000
00000000
00001000
,
00000000
01000000
00000000
00100000
,
00000000
10000000
00000000
01000000
,
00100000
00100000
00100000
00002000
,
00013000
00000100
00010000
00001000
,
00010000
00000010
00000100
00000000
,
00000001
00000001
00001000
00001000
,
00000100
00010000
00000100
00010000
,
00001000
00000000
00100000
00000000
,
00010000
10000000
01000000
00000000
,
00100000
00001000
00100000
00001000
,
00100000
00001000
00010000
00000100
,
00002000
00000000
00000000
00003010
,
00020000
00000000
00030100
00001000
,
00000001
00000000
00001000
00000000
,
00000100
00010000
00001000
00000000
,
02010000
00000000
00000000
03100000
,
00000000
00100000
00100000
10000000
,
01000000
00100000
01000000
10000000
,
00020000
01030000
00200000
10300000
,
10000000
00010000
00100000
00001000
,
00010000
00000100
00001000
00000010
,
00000100
00000001
00000100
00000010
,
00000100
00000001
00001000
00000100
,
00020000
00000000
00000000
00000000
,
00030000
00000000
00000000
00000000
00001000
00000000
00000000
00200000
,
00000000
00000000
00000000
00000000
,
00000000
00000000
00000000
00300000
,
00001000
00000000
00010000
00000000
,
00000100
00000000
00000000
00000000
00001000
00000000
00000000
00000010
,
00000000
00000000
00000100
00000000
,
00000001
00000000
00001000
00000000
,
00000100
00010000
00000000
00001000
,
00000000
01000000
00010000
00100000
,
01000000
10000000
00000000
01000000
,
00000000
00100000
00000000
00001000
,
00010000
00000100
00000100
00000100
,
00000100
00000000
00001000
00000000
,
00000010
00010000
00010000
00010000
,
00010000
00000000
00000100
00000000
,
00010000
00001000
00001000
00001000
,
00001000
00000000
01000000
00000000
,
00100000
01000000
00010000
10000000
,
01000000
00100000
00001000
00010000
,
00000200
00000000
00000000
00000000
,
00000300
00000000
00010000
00000000
00001000
00000000
00000000
02000000
,
00000000
00000000
00000000
03000000
,
00000000
00000000
00100000
00000000
10000000
00000000
00000000
00020000
,
00000000
00000000
00000000
00030000
,
00000000
00000000
00100000
00000000
00001000
00000000
00000000
00022000
,
00000000
00000000
00000000
00000000
,
00000000
00000000
00000000
00000000
,
00030000
00000000
00000000
00000000
,
00003000
00000000
00000000
00000000
;

//--------------- dance-double - Pandemonium X ----------------
#NOTES:
     dance-double:
     Pandemonium X:
     Medium:
     8:
     0,0,0,0,0:
00000000
00000000
00000000
00000000
,
00000000
00000000
00000000
00000000
,
00001000
00000000
00000000
00010000
00001000
00000000
00000000
00000000
,
00010000
00010000
00011000
00000000
,
00001000
00000000
00000000
00010000
00001000
00000000
00000000
00000000
,
00110000
00110000
11000000
11000000
,
01000000
10010000
00010000
01000000
,
00001000
00010000
00000100
00001000
,
00000100
00001000
00010000
00100000
,
01000000
00010000
10000000
12000000
,
03100000
00010000
00001000
00000100
,
00000010
00000000
00000001
00000100
00000010
00000000
00000000
00000000
,
00000100
00000001
00000100
00000010
,
00001001
00000110
00001001
00000110
,
00000010
00000100
00001000
00010000
,
00100000
01000000
00010000
00000000
,
10000000
01000000
10000000
00010000
,
01000000
00000000
00010000
00000000
00100000
00001000
00010000
00000000
,
00000200
00001000
00000310
00000200
,
00002300
00000000
00000010
00000000
00003001
00001000
00000100
00000000
,
00010000
00000000
00001000
01000000
00001000
00000000
01000000
00000000
,
00100000
00000000
00000000
00000000
10000000
00000000
00100000
00000000
01000000
00000000
00000000
01000000
00000000
00000000
01000000
00000000
,
00010000
00100000
00000000
01000000
,
00000000
00000000
10000000
00000000
01000000
00100000
00010000
00001000
,
00010000
00010000
00000100
00000100
,
00001100
00001100
00000101
00001001
,
00000001
00001000
00000100
00010000
,
00001000
00000000
01000000
00000000
00010000
00100000
01000000
10000000
,
00010000
01000000
00010000
10000000
,
01000000
00000000
00000000
00000000
00100000
00000000
00000000
00000000
00001000
00000000
00000000
00010000
00000000
00000000
00000100
00000000
,
00002000
00000000
00000000
00000000
,
00003000
00000000
00000000
00000000
00000010
00000100
00000010
00020000
,
00000000
00000000
00000000
00000000
,
00000000
00000000
00000000
00031000
,
01010000
00000000
10100000
00000000
,
10010000
00000000
00000000
00000000
00110000
00000000
00000000
00101000
,
00000000
00000000
00011000
00000000
,
00001100
00000000
00001010
00000000
,
00000100
00000001
00000010
00000000
00000000
00000000
00000110
00000000
,
00000000
00000000
00001100
00000000
00000100
00010000
00001000
01000000
,
00000000
01100000
00000000
10010000
,
00000000
11000000
01000000
10000000
,
00010000
01010000
00110000
01010000
,
00110000
00100000
00001000
00010000
,
00000100
00001010
00001100
00001010
,
00001100
00001000
00000001
00000010
,
00000100
00001100
00000110
00001100
,
00000110
00000100
00001000
00000100
,
00010000
00001000
01000000
00100000
,
10000000
00000000
01000000
00000000
00100000
01000000
10000000
00000000
,
10020000
00000000
00000000
00000000
,
00030000
01000000
00010000
00000000
00100000
00000000
00001000
00021000
,
00000000
00000000
00000000
00030000
,
00000000
00000000
00000100
00000000
00001000
00000000
00000010
00000210
,
00000000
00000000
00000000
00000300
,
00000000
00000000
00000010
00000000
00010000
00000000
00001000
00022000
,
00000000
00000000
00000000
00000000
,
00000000
00000000
00000000
00033000
,
00000100
00000100
00000100
00000100
,
00000100
00000000
00000000
00000000
;

//--------------- dance-double - Pandemonium X ----------------
#NOTES:
     dance-double:
     Pandemonium X:
     Hard:
     11:
     0,0,0,0,0:
00000000
00000000
00000000
00000000
,
00000000
00000000
00000000
00000000
,
00001000
00000000
00000000
00100000
00100000
00000000
00000000
00000000
,
00001000
00010000
00011000
00000000
,
00010000
00000000
00000000
00000010
00000010
00000000
00000000
00000000
,
00001100
00011000
00001100
00011000
,
00002000
00000000
01003000
00100000
00010000
00100000
10000000
00010000
,
00100000
00001000
00010000
00001000
01000000
00001000
00010000
00000100
,
00001000
00000010
00000100
00000001
00000010
00000001
00001000
00000100
,
00010000
00010000
00001000
01000000
00100000
10000000
02000000
00000000
,
03100000
00001000
00010000
00000010
00000100
00000001
00001000
00000100
,
00010000
00001000
00100000
00010000
10000000
00000000
00000000
00000000
,
00010000
01000000
00100000
10000000
00010000
01000000
00100000
10000000
,
10010000
00000000
01100000
00000000
10010000
00000000
01100000
10000000
,
00000000
00010000
00100000
00001000
00010000
00000100
00010000
00001000
,
00010000
00000010
00000100
00000001
00000010
00000100
00001001
00000000
,
00001000
00000100
00000010
00000001
00001000
00000100
00000010
00000001
,
00001000
00000100
00000010
00000001
00000010
00001000
00000020
00000000
,
00000230
00010000
00001300
00020000
,
00032000
00000000
00023000
00000000
00031000
00010000
00001000
01000000
,
00100000
01000000
00100000
10000000
01000000
00100000
01000000
00100000
,
00010000
00000000
10000000
00000000
01000000
00000000
00100000
00000000
00001000
00000000
00000000
00001000
00000000
00000000
00001000
00000000
,
00020000
00001000
00000100
00001000
,
00000100
00000000
00031000
00000000
00010000
00000010
00000100
00000001
,
00000010
00001000
00000010
00000010
00000001
00000100
00000010
00000010
,
00000101
00001010
00001100
00010100
,
00001000
01000000
00100000
10000000
00010000
00100000
00001000
01000000
,
00001000
00010000
00000100
00001000
00000010
00000001
00000010
00001000
,
00000100
00010000
00001000
00001000
00010000
00001000
01000000
01000000
,
00100000
00000000
10000000
00000000
01000000
00000000
00100000
00000000
00010000
00000000
00000000
00010000
00000000
00000000
00010000
00000000
,
00021000
00000000
00000000
00000000
,
00000000
00000000
00030000
00000000
00000100
00010000
00001000
00201000
,
00000000
00001000
00001000
00001000
,
00001000
00010000
00001000
00310000
,
00021000
00030100
00001020
00000130
,
00002001
00000000
00003100
00000000
00012000
00000000
00103000
00210000
,
00000000
01300000
21000000
30100000
,
01020000
10030000
12000000
03100000
,
00001000
00010000
00000100
00000000
00001000
00000000
00000011
00000000
,
00000001
00000100
00000010
00000000
00001000
00000100
00000001
00000100
,
00001000
00000000
00010100
00000000
00000100
00010000
00001000
00000000
,
01000000
00000000
00000000
00000000
01001000
00000000
00001000
00010000
00001000
00000000
00010000
00000000
00000100
00000000
00010000
00000000
,
00001000
00100000
00010000
10000000
01000000
10000000
00010000
01000000
,
00001000
00010000
00000000
00000100
00001000
00000000
00000100
00000010
,
00000001
00000100
00000000
00000001
00001000
00000000
00000100
00001000
,
00000100
00010000
00000000
00001000
00100000
00000000
00001000
00010000
,
00000100
00010000
00011000
00000000
00001100
00000000
00011000
00000000
,
01001000
00000000
00001000
00000000
00010000
00001000
00011000
00001000
,
00010000
00011000
00101000
00011000
,
00001010
00000110
00000101
00001001
,
00001200
00001000
00000000
00010000
,
00000000
00000000
00001300
00000010
00000100
00000000
00001000
00000000
00000100
00000000
00000001
00000000
00001000
00000000
00000200
00000000
,
00000000
00010000
00000000
00010300
,
00000000
00000000
00001000
00010000
00001000
00000000
00010000
00000000
00001000
00000000
00100000
00000000
00010000
00000000
20000000
00000000
,
00000000
01000000
00000000
31000000
,
00000000
00000000
01000000
00100000
01000000
00000000
00100000
00000000
00001000
00000000
00010000
00000000
00000100
00000000
00001200
00000000
,
00000000
00000000
00000000
00000000
,
00000000
00000000
00000000
00000300
,
00020000
00030000
00020000
00030000
00020000
00030000
00020000
00030000
,
00020000
00030000
00000000
00000000
00000000
00000000
00000000
00000000
00000000
00000000
00000000
00000000
00000000
00000000
00000000
00000000
00000000
00000000
00000000
00000000
00000000
00000000
00000000
00000000
;
