#TITLE:100% minimoo-G;
#SUBTITLE:;
#ARTIST:Sota Fujimori;
#TITLETRANSLIT:;
#SUBTITLETRANSLIT:;
#ARTISTTRANSLIT:;
#GENRE:;
#CREDIT:;
#MUSIC:100% minimoo-G.ogg;
#BANNER:100% minimoo-G.png;
#BACKGROUND:;
#CDTITLE:;
#SAMPLESTART:0.441;
#SAMPLELENGTH:13.557;
#SELECTABLE:YES;
#OFFSET:0.265;
#BPMS:0.000=252.000;
#STOPS:;
#BGCHANGES:;
#FGCHANGES:;

//--------------- dance-single - Pandemonium X ----------------
#NOTES:
     dance-single:
     Pandemonium X:
     Beginner:
     6:
     0,0,0,0,0:
0000
0000
0000
0000
,
0000
0000
0000
0000
,
0000
0000
0000
0000
,
0000
0000
0000
0000
,
0000
0000
0000
0000
,
0000
0000
0000
0000
,
0000
0001
0000
0000
0000
0000
0000
0000
,
0000
1000
0000
0000
0000
0000
0000
0000
,
0000
0000
0010
0000
0000
0000
0000
1000
,
0000
0000
0000
0000
,
0000
0000
0000
0001
,
0000
0000
0100
0000
,
0000
0010
0000
0000
,
0100
0000
1001
0000
,
0000
0000
0000
0000
,
0000
0001
0000
0000
,
0000
0000
0000
0000
0000
1000
0000
0000
,
0000
0000
0000
0000
,
0010
0000
0000
0000
,
0000
0000
0000
0100
,
0000
0000
0000
0000
0000
0010
0000
0000
,
0000
0000
0000
0000
,
1000
0000
0000
0000
,
0000
0000
0000
0000
,
0000
0000
0000
0000
,
0001
0000
0000
0000
,
1000
0000
0000
1000
0000
0000
1000
0000
,
0000
0000
0000
0001
,
0000
0001
0000
0000
0000
0000
0000
0000
,
0100
0000
0000
0100
0000
0000
0100
0000
,
0000
0010
0000
0000
0000
0000
0000
0100
,
0000
0000
0000
0000
0000
0001
0000
0000
,
0000
0000
0000
0000
1000
0000
0000
1000
,
0000
0000
1000
0000
0000
1000
0000
0000
,
0000
0000
0000
0000
0001
0000
0000
0001
,
0000
0000
0001
0000
0000
0001
0000
0000
,
0000
0000
0220
0000
,
0000
0000
0000
0000
,
0000
0000
0000
0000
,
0000
0000
0000
0000
,
0000
0330
0001
0000
,
1000
0000
0001
0000
,
0000
0000
0100
0000
,
0010
0000
0100
0000
,
0000
0000
0001
0000
,
0100
0000
0001
0000
,
0000
0000
1000
0000
,
0010
0000
1000
0000
,
0000
0000
0001
0001
,
0000
0000
0001
0000
,
0000
0000
1000
1000
,
0000
0000
1000
0000
,
0000
0000
0000
0000
,
0000
0000
0000
0000
,
0000
0000
0000
0000
,
0000
0000
0000
0000
,
0000
0000
0000
0000
,
0000
0000
0000
0001
,
0000
0000
0000
0100
,
0000
0000
0000
0010
,
0000
0000
0000
1000
,
0000
0100
0000
0010
,
0000
0001
0000
0000
,
1000
0000
0000
0000
,
0000
0001
0000
0000
,
0000
0100
0000
0000
,
0000
0010
0000
0000
,
0000
0100
0000
0001
,
0000
0000
0000
0000
,
1000
0000
0000
0000
,
0001
0000
0000
0000
,
0010
0000
0000
0000
,
0100
0000
0000
0000
,
0010
0000
0000
0000
,
0001
0000
0000
0000
,
1000
0000
0000
0000
,
0010
0000
0000
0000
,
0100
0000
0000
0000
,
0001
0000
0000
0000
,
0010
0000
0000
0000
,
0100
0000
0000
0000
,
1000
1000
1000
0000
,
0001
0000
0000
0000
,
1000
0000
0000
0000
,
0010
0000
0000
0000
,
0100
0100
0100
0000
,
0010
0000
0000
0000
,
0100
0000
0000
0000
,
0001
0000
0000
0000
,
1001
0000
0000
0000
,
0000
0001
0000
0000
0000
0000
0000
0000
,
0000
0000
0000
1000
,
0000
0000
0000
0001
0000
0000
0000
0000
,
0000
0000
0000
0000
,
1000
0000
0000
0000
,
0000
0000
0001
0000
,
0000
1000
0000
0000
,
0000
0000
0000
0000
0000
0000
0000
0001
,
0000
0000
0000
0000
,
0000
0000
0000
1000
0000
0000
0000
0001
,
0000
0000
0000
0000
,
0000
0000
0000
0000
,
0000
0000
0000
0000
,
1000
0000
0000
0000
,
0010
0000
0000
0000
,
0100
0000
0000
0000
,
0001
0000
0000
0000
,
0010
0000
0000
0000
,
0100
0000
0000
0000
,
0000
1000
0000
0000
0000
0000
0000
0000
,
0000
0001
0000
0000
,
0000
0100
0000
0000
0000
0000
0000
0000
,
0000
0010
0000
0000
0000
0000
0000
0000
,
0000
0100
0000
0000
0000
0000
0000
0000
,
0000
0001
0000
0000
0000
0000
0000
1000
,
0000
0000
0000
0000
,
0000
0000
0000
0000
,
0000
0000
0000
0000
,
0000
0001
0000
0000
0000
0000
0000
0000
,
0000
0000
0000
0000
0000
1000
0000
0000
,
0000
0000
0000
0000
,
1001
0000
0000
0000
;

//--------------- dance-single - Pandemonium X ----------------
#NOTES:
     dance-single:
     Pandemonium X:
     Easy:
     10:
     0,0,0,0,0:
0000
0000
0000
0000
,
0000
0000
0000
0000
,
0000
0000
0000
0000
,
0000
0000
0000
0000
,
0000
0000
0000
0000
,
0000
0000
0000
0000
0000
0000
0000
1000
,
0000
0001
0000
0000
0000
0010
0000
0000
,
0100
0010
0001
1000
,
0010
0000
0100
0000
0001
0000
0000
1000
,
0000
0000
0000
0100
0000
0000
1000
0000
,
0000
0010
0000
0000
0100
0000
0001
0000
,
0000
0010
0000
0000
0100
0000
0000
0010
,
0000
0000
0001
0000
0000
1000
0000
0000
,
0010
0100
2002
0000
,
0000
0000
0000
3003
,
0000
0001
0000
1000
,
0000
0000
0100
0000
0000
0010
0000
0001
,
0000
2000
0000
0000
0000
0000
3000
0000
,
0100
0000
0000
1000
0000
0000
0010
0000
,
0100
0001
0000
0010
,
0000
0100
0000
1001
0000
0001
0000
1000
,
0000
0100
0000
0010
0000
0100
0000
0000
,
1000
0100
0010
0001
,
0100
0010
1000
0001
,
1000
0001
0000
0001
,
1000
0100
0010
0001
,
0010
0100
1000
0001
,
0000
1000
0001
0100
,
0000
0010
0000
0200
0000
0000
0000
0000
,
0310
0000
0000
1000
0000
0000
0001
0000
,
0000
1000
0000
0000
0100
0000
0000
0010
,
0000
0000
0001
0000
0000
0100
0000
0010
,
0000
1000
0000
0000
1000
0000
0000
0001
,
0000
0000
0010
0000
0000
0100
0000
0000
,
1000
0000
0100
0000
1000
0000
0000
0010
,
0000
0000
0100
0000
0000
0001
0000
0000
,
1000
0001
0220
0000
,
0000
0000
0000
0000
,
0000
0000
0000
0000
,
0000
0000
0000
0000
,
0000
0330
0001
0001
,
0000
0000
0001
0000
0001
0000
0000
0001
,
0000
0001
1000
1000
,
0000
0000
1000
0000
1000
0000
0000
1000
,
0000
0000
0010
0010
,
0000
0000
0010
0000
0010
0000
0000
0010
,
0000
0010
0100
0100
,
0000
0000
0100
0000
0100
0000
0000
0100
,
0000
0000
1001
1001
,
0000
0000
0001
0000
1000
0000
0000
0010
,
0000
0100
0110
0110
,
0000
0000
0010
0000
0100
0000
0000
0001
,
0000
1000
0000
0000
,
0000
0000
0000
0000
,
0000
0000
0000
0000
,
0000
0000
0000
0000
,
0000
0000
0000
0000
,
0000
0000
0000
0001
,
0000
1000
0000
0100
,
0000
0010
0000
0100
,
0000
1000
0000
0010
,
0100
0001
0000
0010
,
0000
0100
0000
0010
,
0000
0001
0000
1000
,
0000
0100
1000
0100
,
0000
1000
0000
0010
,
0000
0100
0001
0100
,
0000
0001
0100
0010
,
0000
1001
0000
0000
0000
0000
0000
0000
,
1000
0000
0100
0000
,
0010
0100
0010
0000
,
0100
0000
1000
0000
,
0001
0100
0001
0000
,
0100
0000
0010
0000
,
1000
0001
1000
0000
,
0001
0000
0010
0000
,
0100
1000
0100
0000
,
1000
0000
0001
0000
,
0010
0100
1000
0100
,
0010
0000
0001
0000
,
0100
0000
0010
0000
,
1000
1000
0001
0001
,
0100
0100
0010
0010
,
1000
0000
0010
0000
,
0100
0000
0001
0000
,
1000
0000
0100
0000
,
0010
0000
0001
0000
,
0010
0010
0001
0001
,
1000
1000
0010
0010
,
0100
0000
0000
0100
0000
0000
0100
0000
,
0000
0010
0000
0000
1000
0000
0000
0001
,
0000
0000
1000
0000
0000
0100
0000
0000
,
0010
0000
0000
0100
0000
0000
1000
0000
,
0000
0001
0000
0000
0100
0000
0000
0001
,
0000
0000
0010
0000
0000
0100
0000
0000
,
0010
0000
0000
0001
0000
0000
0100
0000
,
0001
0000
1000
0000
0000
0001
0000
0000
,
0010
0000
0000
0100
0000
0000
0000
0010
,
0000
0000
0100
0000
0000
1000
0000
0000
,
0010
0000
0100
0001
,
0000
0000
0000
0000
,
0000
0000
0000
0000
,
0000
0000
0000
0000
,
1000
0000
0100
0000
,
0010
0000
0001
0100
,
0000
0010
1000
0000
,
0001
0000
1000
0000
,
0100
0000
0010
0001
,
0000
0100
0001
0000
,
1000
0000
0010
0000
,
1000
0000
0100
0010
,
0000
0100
1000
0000
,
0010
0100
0000
0001
,
0000
0010
0000
0001
,
1000
0000
0100
0010
,
0100
0000
0000
0000
,
0000
0000
0000
0000
,
0000
0000
0000
0000
,
0000
0010
0000
0000
0000
0001
0000
0000
,
0000
0100
0000
0000
0000
0010
0000
0000
,
0000
0100
0000
0000
0000
0001
0000
0000
,
1001
0000
0000
0000
;

//--------------- dance-single - Pandemonium X ----------------
#NOTES:
     dance-single:
     Pandemonium X:
     Medium:
     14:
     0,0,0,0,0:
0000
0000
0000
0000
,
0000
0000
0000
0000
,
0000
0000
0000
0000
,
0000
0000
0000
0000
,
0000
0000
0000
0000
,
0000
0000
0000
0000
0000
0000
0000
1000
,
0000
0001
0010
0000
0001
1000
0000
0100
,
0010
0100
1000
0010
,
1000
0000
0001
0000
0010
0000
0100
0010
,
0001
1000
0100
0010
0000
0100
1000
0000
,
0100
0010
0000
0100
1000
0000
0001
0100
,
0000
0010
0100
0000
1001
0000
0000
1010
,
0000
0000
1001
0000
0000
0011
0000
0000
,
0001
1000
0220
0000
,
0000
0000
0000
0000
0000
0000
0000
0330
,
0000
0000
2001
0000
0000
0000
3100
1000
,
0100
0010
0100
1000
0001
0100
0000
0001
,
0000
0020
0000
0000
0000
0000
0030
0000
,
0100
1000
0000
1001
0000
0001
0100
0000
,
0001
1000
0000
0100
,
0000
0011
0000
1100
0000
0001
1000
0000
,
0010
0001
0010
0100
,
0001
0010
1000
0010
,
0001
1000
0010
0100
,
1000
0000
0100
0001
0000
0001
0010
0100
,
2000
0000
0000
0000
,
3100
0010
0100
1000
0001
0100
0001
0000
,
0000
0001
0010
0100
1000
0001
1000
0000
,
0000
0110
0000
1000
0100
0010
0001
1000
,
0001
0000
0000
1010
0000
0000
0101
0000
,
0000
0001
0000
0000
0010
0000
0000
0100
,
0000
0000
0010
0000
0000
0001
0000
1000
,
0000
0010
0000
1000
0100
0000
0000
0011
,
0000
0000
0001
0000
0000
1010
0000
0000
,
0001
1000
0001
0000
0001
0000
0000
1100
,
0000
0000
1000
0000
0000
0101
0000
0000
,
0001
1000
0010
0000
0220
0000
0000
0000
,
0000
0000
0000
0000
,
0000
0000
0330
0000
0001
0100
0000
0001
,
0100
0000
0001
0100
0000
0001
0100
0000
,
0001
0100
0000
0000
1001
0000
1001
0000
,
0000
0000
1000
0000
0100
0000
0000
1000
,
0000
0010
0100
0000
0101
0000
0101
0000
,
0000
0000
0001
0000
0010
0000
0000
0100
,
0000
0010
0001
0100
0001
0000
1001
0000
,
0000
0000
0001
0000
0100
0000
0000
0010
,
0000
1000
0100
0000
0011
0000
0011
0000
,
0000
0000
0001
0000
0100
0000
0000
0001
,
0000
1000
0100
0000
0011
0000
0011
0000
,
0000
0000
0001
0000
0100
0001
1000
0100
,
0000
0100
1000
0000
1001
0000
1001
0000
,
0000
0000
0001
0000
1000
0100
0010
0100
,
0000
0100
0010
0000
0000
0000
0000
0000
,
0000
0000
0000
0000
,
0000
0000
0000
0000
0000
0000
0001
1000
,
0000
0001
1000
0000
0001
0000
0010
0000
,
0000
0100
0000
0000
1000
0000
0000
0010
,
0000
0100
0001
1000
,
0001
0010
0001
1000
,
0010
1000
0100
0010
,
0100
1000
0001
0100
,
0001
0010
0100
0010
,
0001
0100
0010
1000
,
0010
0100
0001
0000
0010
0000
0001
0000
,
0100
0000
0010
1000
0100
1000
0001
0000
,
1000
0001
0010
0001
,
0100
0000
0001
0010
0001
0100
0001
0000
,
0000
0001
0010
0001
1000
0010
0100
0000
,
0000
1001
0000
0000
0000
0000
0000
0000
,
0001
0010
0001
0100
,
0010
0100
0001
1000
,
0100
0010
0100
1000
,
0001
0100
0010
1000
,
0010
0100
0001
0010
,
0100
0010
0001
1000
,
0100
0010
0100
1000
,
0001
0100
0001
0010
,
0001
0100
0010
1000
,
0010
0100
0001
0010
,
0100
0100
1000
0010
,
0100
0100
0010
1000
,
1001
1001
0110
0110
,
0001
0100
1000
0100
,
0001
0010
1000
0010
,
0001
0010
0100
1000
,
0001
0001
1000
1000
,
0010
0010
0100
0100
,
1001
1001
0110
0110
,
0001
0100
0010
1000
,
1001
0000
0000
0001
0000
0000
1000
0000
,
0000
0001
0000
0000
1000
0000
0000
0001
,
0000
0000
1000
0000
0000
0001
2000
0000
,
0000
0000
0000
3001
0000
1000
0001
0000
,
1000
0001
0000
1000
0001
0000
1000
0000
,
0001
0000
1000
0001
0000
1000
0001
0000
,
1000
0001
0000
1000
0001
0000
1000
0001
,
1000
0001
1000
0000
1000
0001
0000
1000
,
0001
0000
1000
0001
0000
0001
0000
1000
,
0000
0001
1000
0000
1000
0001
0000
1000
,
0001
0000
1000
0001
0000
1000
0010
0100
,
0000
0000
0000
0000
,
0000
0000
0000
0000
,
0000
0000
0000
0000
,
0001
0000
0100
0010
0000
1000
0100
0000
,
0010
0001
0000
0100
0010
0000
1001
0000
,
0000
0000
0001
0010
0100
0000
0010
0000
,
0001
0000
1000
0100
0000
1000
0010
0000
,
0100
0001
0000
0010
0100
0000
1000
0010
,
0000
0000
0100
0001
1000
0000
0001
0000
,
1000
0100
0010
0100
,
1000
0001
0100
0001
0010
0000
0010
0100
,
0000
0000
0010
0001
1000
0000
0001
0100
,
0001
1000
0000
0100
0000
0010
0000
0100
,
0000
1000
0000
1000
0000
0010
0100
0001
,
0010
0000
0001
0010
0000
0100
0000
1000
,
0001
0100
0000
0000
0000
0000
0000
0000
,
0000
0000
0000
0000
,
0000
0000
0000
0000
,
0000
0001
0100
0010
1000
0001
0100
0010
,
1000
0001
0100
0010
1000
0001
0010
0100
,
1000
0100
0010
0001
0010
0100
1000
0001
,
1000
0000
0000
0000
;

//--------------- dance-single - Pandemonium X ----------------
#NOTES:
     dance-single:
     Pandemonium X:
     Hard:
     17:
     0,0,0,0,0:
0000
0000
0000
0000
,
0000
0000
0000
0000
,
0000
0000
0000
0000
,
0000
0000
0000
0000
,
0000
0000
0000
0000
,
0000
0000
0000
0000
0000
0000
0000
1000
,
0000
0001
0010
0000
1000
0010
0000
0100
,
0010
0000
0001
0000
0100
0001
1000
0010
,
0100
1000
0100
0001
1000
0001
0100
0010
,
0001
0010
1000
0001
0000
0001
0010
0000
,
0100
0000
1000
0000
0000
0000
0100
0000
0010
0000
0000
0000
0001
1000
0001
1000
,
0000
0001
0100
0000
1010
0000
0000
0101
,
0000
0000
0011
0000
0000
1100
0000
0000
,
1001
0110
2002
0000
,
0000
0000
0000
0000
,
3003
0000
0001
0000
0000
0010
0001
0100
,
1000
0010
1000
0100
0001
0100
0000
1000
,
0000
0002
0000
0000
0000
0000
0003
0000
,
1000
0010
0000
1001
0000
0001
0010
1000
,
0010
0100
1000
0001
0000
0000
1001
0000
,
0000
0101
0000
0011
0000
0010
1000
0010
,
0001
0100
1000
0100
0001
1000
0100
0000
,
0001
0100
1000
0010
0100
1000
0100
0001
,
0100
0010
1000
0100
0010
0001
0010
1000
,
0010
0001
0100
0001
0000
1000
0001
0100
,
0010
0001
0010
1000
0100
0001
0100
0010
,
0001
0100
1000
0100
0010
1000
1001
0000
,
0000
0001
0010
0100
1000
0100
0110
0000
,
0000
1100
0000
1000
0100
0001
0100
1000
,
1010
0000
0000
0101
0000
0000
1001
0000
,
0000
0001
1000
0010
1000
0001
0100
0001
,
1000
0100
1000
0001
0010
0001
1000
0100
,
0010
0100
1000
0001
0101
0000
0001
1001
,
0000
1000
1100
0000
0010
0110
0000
1000
,
0001
1000
0001
1000
0001
0000
0000
0000
1100
0000
0000
0000
0001
0000
0011
0000
,
0000
1000
1001
0000
0010
0110
0000
0001
,
1000
0100
1000
0100
1000
0000
0000
0000
1002
0000
0000
0000
0000
0000
0100
0000
,
0000
0000
0010
0000
0000
1000
0000
0000
,
0100
0000
0103
0000
0001
0001
1000
0010
,
0010
1000
0001
0001
1000
0010
0010
1000
,
0001
0001
0001
0001
1001
0000
1001
0000
,
1000
0100
0001
0100
1000
0100
0001
0100
,
1000
0100
0001
0100
1000
0010
0001
0010
,
1000
0010
0001
0010
1000
0010
0001
0010
,
1000
0000
0001
1000
0001
1000
0001
1000
0001
0000
0010
0000
1000
0000
0010
0000
,
0001
0010
1000
0010
0001
0010
1000
0010
,
0001
1000
0001
1000
0001
0100
1000
0100
,
0001
0100
1000
0100
0001
0100
1000
0100
,
0001
0000
1000
0001
1000
0001
1000
0001
1000
0000
0000
0000
1001
0000
0000
0000
,
0000
0000
0101
0000
1010
0010
0100
0101
,
0000
0001
1001
0000
1100
0000
1100
0000
,
0000
0000
0011
0000
1001
1000
0100
0010
,
0000
0100
1001
0000
0000
0000
0000
0000
,
0000
0000
0000
0000
,
0000
0000
0000
0000
0000
0000
0001
1000
,
0000
0000
0001
0000
1000
0001
1000
0001
1000
0000
0000
0000
2000
0000
3000
0000
,
0000
0200
0300
0000
0020
0030
0000
0002
,
0003
0000
0000
0100
0010
1000
0001
0010
0100
1000
0000
0000
,
0011
0000
0001
0100
0001
0000
0100
0000
,
1010
0000
1000
0001
0010
0000
0100
0000
,
0011
0000
0010
0001
1000
0000
0001
0000
,
1100
0000
1000
0001
0010
0000
0001
0000
,
0101
0000
0000
0000
0001
0000
1000
0001
1000
0001
1000
0001
1000
0000
1000
0000
,
0010
0001
0010
1000
0010
0001
0010
0100
,
1000
0100
0010
1000
0001
0010
0100
0000
,
0100
1000
0100
0001
0100
1000
0100
0010
,
0001
0010
0100
0001
1000
0010
0100
0000
,
0000
0010
0100
0001
1000
0100
0010
0000
,
0000
0000
0000
1001
0000
0000
0000
0000
0000
0000
0000
0000
0001
0000
0100
0000
0010
0000
1000
0000
0100
0000
0010
0000
,
0100
0000
0010
0001
1000
0010
1000
0100
,
0010
0100
1000
0001
1000
0001
0010
0001
,
1000
0010
1000
0001
0010
0100
0010
0001
,
1000
0010
1000
0001
0010
0100
0010
0001
,
1000
0010
0100
0001
1000
0100
0010
0010
,
0001
1000
0001
0010
0100
1000
0010
1000
,
0001
0010
0100
0010
0001
0100
0010
1000
,
0100
0010
0100
1000
0001
0100
0001
0010
,
0001
0100
0010
1000
0100
0010
0100
1000
,
0010
0100
0001
0010
0100
0010
0001
0100
,
0020
0230
0302
2003
,
3200
0320
0032
1003
,
1000
0001
0000
0000
0001
0100
0000
0000
0100
0010
0000
0000
0010
1000
0000
0000
,
1000
0100
0000
0000
0100
0010
0000
0000
0010
0001
0000
0000
0001
0100
0000
0000
,
0001
0010
0100
1000
0100
0001
0100
1000
,
0010
0100
1000
0100
0010
1000
0001
0010
,
0100
0010
0001
1000
0010
0100
0001
0010
,
0001
1000
0010
1000
0001
0010
0100
0010
,
0100
0010
0001
1000
0010
0100
0010
0100
,
0001
1000
0001
0010
0100
1000
0100
0010
,
1001
0000
0000
0001
0000
0000
1000
0000
,
0000
0001
0010
0100
1000
0000
1000
0001
,
0000
0000
1000
0000
0001
0000
0000
0000
1000
0000
0001
0000
1000
0001
1000
0001
,
1000
0001
1000
0001
0000
1000
0001
0000
,
1000
0001
0000
1000
0001
0000
0001
0000
,
1000
0000
0001
1000
1000
0001
1000
1000
,
0001
1000
1000
0001
1000
0001
0001
0001
,
0001
0001
1000
0000
0001
1000
0000
0001
,
1000
0000
0001
1000
0000
0001
0000
1000
,
0000
1000
0001
0001
1000
0001
0001
1000
,
0001
0000
0001
0000
1000
0000
1000
0000
1000
0000
0001
1000
0001
1000
0000
0000
,
0000
0000
0000
0000
,
0000
0000
0000
0000
,
0000
0000
0000
0000
,
0001
0100
0010
1000
0001
0010
0001
0100
,
0010
1000
0100
0010
0100
1000
0001
0100
,
0000
0000
0100
0000
0010
0000
1000
0000
0001
0000
0010
0000
0001
1000
0001
1000
,
0001
1000
0100
1000
0001
0100
0001
0010
,
0100
1000
0100
0010
0100
1000
0001
0100
,
0000
0000
1000
0000
0100
0000
0001
0000
1000
0000
0100
0000
0010
0001
0010
0001
,
0010
0100
1000
0100
1000
0001
0100
0001
,
1000
0100
0010
0001
0010
0100
1000
0001
,
0000
0001
0100
1000
0100
0001
1000
0100
,
0001
0100
0010
0001
1000
0100
1000
0100
,
0010
0001
0010
0100
1000
0010
0100
0001
,
0010
0100
0010
0001
0100
0010
1000
0100
,
0010
0001
0010
0001
1000
0000
0000
0000
0000
0000
0000
0000
0000
0000
0000
0000
,
0000
0000
0000
0000
,
0000
0000
0000
0000
,
0000
0001
0100
1000
0100
0001
1000
0100
,
0001
0100
1000
0010
0001
0010
0100
0001
,
0010
0000
1000
0000
0010
0000
0100
0000
1000
0000
0010
0100
0010
0100
0001
0000
,
1001
0000
0000
0000
;

//--------------- dance-double - Pandemonium X ----------------
#NOTES:
     dance-double:
     Pandemonium X:
     Easy:
     9:
     0,0,0,0,0:
00000000
00000000
00000000
00000000
,
00000000
00000000
00000000
00000000
,
00000000
00000000
00000000
00000000
,
00000000
00000000
00000000
00000000
,
00000000
00000000
00000000
00000000
,
00000000
00000000
00000000
00000000
,
00000000
00010000
00000000
00000000
00000000
00001000
00000000
00000000
,
00010000
00000000
00000100
00000000
,
00001000
00000000
00000000
00000000
00000010
00000000
00000000
00000100
,
00000000
00000000
00000000
00000001
00000000
00000000
00001000
00000000
,
00000000
00000100
00000000
00000000
00010000
00000000
00000000
00001000
,
00000000
00000000
01000000
00000000
00100000
00000000
00000000
00100000
,
00000000
00000000
01000000
00000000
00000000
01000000
00000000
00000000
,
00100000
01000000
20020000
00000000
,
00000000
00000000
30030000
00000000
,
00000000
20000000
00000000
31000000
,
00000000
00000000
00100000
00000000
00000000
01000000
00000000
10000000
,
00000000
00010000
00000000
00000000
00000000
00000000
00000000
00000000
,
00100000
00000000
00000000
00001000
00000000
00000000
00000000
00000000
,
00000000
00000000
00000000
00010000
,
00000000
00000100
00000000
00000100
00000000
00000000
00000000
00000000
,
00001000
00000000
00000010
00000000
,
00000100
00000000
00000001
00000000
,
00000010
00000000
00000100
00000000
,
00001000
00000000
00000000
00000100
,
00010000
00000000
00000000
00000000
,
00001000
00000000
00000000
01000000
00000000
00000000
00100000
00000000
,
00000000
00000000
00000000
01000000
,
00000000
00010000
00000000
00000000
00000000
00000000
00000000
00000000
,
00100000
00000000
00000000
00001000
00000000
00000000
00010000
00000000
,
00000000
00000100
00000000
00000000
00000100
00000000
00000000
00001000
,
00000000
00000000
00001000
00000000
00000000
00000001
00000000
00000000
,
00000100
00000000
00000000
00000000
00000010
00000000
00000000
00000100
,
00000000
00000000
00000001
00000000
00000000
00001000
00000000
00000000
,
00000100
00000000
00000100
00000000
00001000
00000000
00000000
00000100
,
00000000
00000000
00010000
00000000
00000000
00001000
00000000
00000000
,
01000000
01000000
00200000
00000000
,
00000000
00000000
00000000
00000000
,
00000000
00000000
00000000
00000000
,
00000000
00000000
00000000
00000000
,
00000000
00000000
01300000
01000000
,
00000000
00000000
01000000
00000000
01000000
00000000
00000000
01000000
,
00000000
00000000
00100000
00100000
,
00000000
00000000
00100000
00000000
00100000
00000000
00000000
00100000
,
00000000
00000000
10000000
10000000
,
00000000
00000000
10000000
00000000
10000000
00000000
00000000
10000000
,
00000000
00000000
00010000
00010000
,
00000000
00000000
00010000
00000000
00010000
00000000
00000000
00010000
,
00000000
00000000
00110000
00110000
,
00000000
00000000
00100000
00000000
00001000
00000000
00000000
00010000
,
00000000
00000100
00001100
00001100
,
00000000
00000000
00001000
00000000
00000010
00000000
00000000
00000100
,
00000000
00000001
00000000
00000000
,
00000000
00000000
00000000
00000000
,
00000000
00000000
00000000
00000000
,
00000000
00000000
00000000
00000000
,
00000000
00000000
00000000
00000000
,
00000000
00000000
00000000
00001000
,
00000000
00000001
00000000
00000100
,
00000000
00000010
00000000
00001000
,
00000000
00000100
00000000
00010000
,
00001000
01000000
00000000
00010000
,
00000000
00100000
01000000
10000000
,
00000000
00010000
00000000
01000000
,
00000000
00100000
10000000
00100000
,
00000000
01000000
00000000
00010000
,
00000000
00100000
00010000
00100000
,
00000000
00001000
00000000
00010000
,
00000000
00010100
00000000
00000000
00000000
00000000
00000000
00000000
,
00000100
00000000
00001000
00000000
,
00000010
00000000
00000100
00000000
,
00000001
00000000
00000010
00000000
,
00000001
00000000
00001000
00000000
,
00000100
00000000
00010000
00000000
,
00001000
00000000
01000000
00000000
,
00100000
00000000
10000000
00000000
,
01000000
00000000
00100000
00000000
,
00001000
00000000
00010000
00000000
,
00000010
00000000
00000100
00000000
,
00001000
00000000
00000100
00000000
,
00000001
00000000
00001000
00000000
,
00000100
00000100
00010000
00010000
,
00001000
00000000
01000000
00000000
,
00010000
00000000
00100000
00000000
,
01000000
00000000
00100000
00000000
,
00010000
00010000
10000000
10000000
,
00100000
00100000
01000000
01000000
,
00010000
00000000
00100000
00000000
,
00001000
00000000
00010000
00000000
,
00011000
00000000
00000000
00000000
,
00000000
00000000
00000000
00000000
00010000
00000000
00000000
00010000
,
00000000
00000000
00010000
00000000
00000000
00020000
00000000
00000000
,
00000000
00000000
00000000
00031000
00000000
00000000
00010000
00000000
,
00000000
00001000
00000000
00000000
00010000
00000000
00000000
00000000
,
00001000
00000000
00000000
00010000
00000000
00000000
00001000
00000000
,
00000000
00010000
00000000
00000000
00001000
00000000
00020000
00000000
,
00000000
00000000
00031000
00000000
00000000
00010000
00000000
00000000
,
00001000
00000000
00000000
00010000
00000000
00000000
00000000
00001000
,
00000000
00000000
00010000
00000000
00000000
00001000
00000000
00000000
,
00010000
00000000
00000000
00001000
00000000
00020000
00000000
00030000
,
00000000
00000000
00000000
00000000
,
00000000
00000000
00000000
00000000
,
00000000
00000000
00000000
00000000
,
00000100
00000000
00001000
00000000
,
00000010
00000000
00000100
00000001
,
00000000
00000001
00000010
00000000
,
00000100
00000000
00001000
00000000
,
00000100
00000000
00010000
00001000
,
00000000
00001000
01000000
00000000
,
00100000
00000000
10000000
00000000
,
01000000
00000000
00100000
01000000
,
00000000
01000000
00000000
10000000
00000000
00000000
00000000
00010000
,
00000000
00000000
00000000
01000000
00000000
00000000
00000000
00010000
,
00000000
00000000
00000000
00100000
00000000
00001000
00000000
00000000
,
00000000
00010000
00000000
00000000
00000000
00000100
00000000
00000000
,
00010000
00000000
00000000
00000000
,
00000000
00000000
00000000
00000000
,
00000000
00000000
00000000
00000000
,
00000000
00001000
00000000
01000000
00000000
00100000
00000000
10000000
,
00000000
01000000
00000000
00100000
00000000
00010000
00000000
00100000
,
00000000
00001000
00000000
00010000
00000000
00000010
00000000
00001000
,
00000001
00000000
00000000
00000000
;

//--------------- dance-double - Pandemonium X ----------------
#NOTES:
     dance-double:
     Pandemonium X:
     Medium:
     13:
     0,0,0,0,0:
00000000
00000000
00000000
00000000
,
00000000
00000000
00000000
00000000
,
00000000
00000000
00000000
00000000
,
00000000
00000000
00000000
00000000
,
00000000
00000000
00000000
00000000
,
00000000
00000000
00000000
00000000
00000000
00000000
00000000
00010000
,
00000000
00001000
00010000
00000000
00000000
00000100
00000000
00000000
,
00001000
00000010
00000100
00000001
,
00001000
00000000
00000100
00000000
00010000
00000000
00001000
01000000
,
00010000
00100000
01000000
00100000
00000000
00100000
01000000
00000000
,
01000000
10000000
00000000
10000000
00010000
00000000
00010000
01000000
,
00000000
00100000
10000000
00000000
10010000
00000000
00000000
00110000
,
00000000
00000000
00101000
00000000
00000000
00011000
00000000
00000000
,
00010000
00000100
00002000
00000000
,
00000000
00000000
00000000
00000000
,
00003000
00000000
00000020
00000000
00000000
00000000
00000130
00000001
,
00001000
00000100
00001000
00000010
00001000
00000001
00000000
00001000
,
00000000
00000200
00000000
00000000
00000000
00000000
00000300
00000000
,
00010000
00001000
00000000
00011000
00000000
00001000
01000000
00000000
,
00010000
00100000
00000000
11000000
,
00000000
00110000
00000000
11000000
00000000
01000000
00100000
00000000
,
00010000
00001000
00000100
00010000
,
00001000
01000000
10000000
01000000
,
00010000
00100000
00001000
00010000
,
00000100
00000000
00001000
00000001
00000000
00000100
00001000
00000100
,
00000002
00000000
00000000
00000000
,
00000013
00000100
00001000
00000100
00010000
00001000
00010000
00000000
,
00000000
00000100
00010000
00001000
01000000
00100000
10000000
00000000
,
00000000
01010000
00000000
00010000
00100000
01000000
10000000
00010000
,
10000000
00000000
00000000
01010000
00000000
00000000
00110000
00000000
,
00000000
00100000
00000000
00001000
00010000
00000000
00000100
00001000
,
00000000
00000010
00000100
00000000
00000010
00001000
00000000
00000001
,
00000000
00000010
00000000
00000001
00001000
00000000
00000000
00001100
,
00000000
00000000
00000100
00000000
00000000
00010100
00000000
00000000
,
00010000
00000000
00001000
00000000
01000000
00000000
00000000
01001000
,
00000000
00000000
01000000
00000000
00000000
01100000
00000000
00000000
,
00100000
10000000
20020000
00000000
,
00000000
00000000
00000000
00000000
,
00000000
00000000
30030000
00000000
10000000
00000000
00000000
01000000
,
00000000
00000000
00100000
00000000
00000000
00010000
00000000
00000000
,
00001000
00010000
00001000
00010000
00001000
00000000
00001000
00000000
,
00000000
00000000
00001000
00000000
00001000
00000000
00000000
00001000
,
00000000
00001000
00010000
00000000
00010000
00000000
00010000
00000000
,
00000000
00000000
00010000
00000000
00010000
00000000
00000000
00010000
,
00000000
00000000
00001000
00001000
,
00000000
00000000
00001000
00000000
00001000
00000000
00000000
00001000
,
00000000
00001000
00010000
00000000
00010000
00000000
00010000
00000000
,
00000000
00000000
00010000
00000000
00010000
00000000
00000000
00010000
,
00000000
00010000
00001000
00000000
00011000
00000000
00011000
00000000
,
00000000
00000000
00011000
00000000
00000100
00010000
00001000
01000000
,
00000000
01000000
00001000
00000000
00011000
00000000
00011000
00000000
,
00000000
00000000
00011000
00000000
00100000
00001000
00010000
00000010
,
00000000
00000010
00010000
00000000
00000000
00000000
00000000
00000000
,
00000000
00000000
00000000
00000000
,
00000000
00000000
00000000
00000000
,
00000000
00000000
00000000
00010000
,
00000000
00001000
00000000
00000000
00010000
00000000
00000000
00001000
,
00000000
00000200
00000000
00001300
,
00000010
00000100
00000001
00000010
,
00000100
00000010
00000001
00001000
,
00000010
00010000
00001000
01000000
,
00010000
00100000
01000000
10000000
,
00010000
01000000
00010000
00100000
,
00001000
00010000
00000100
00001000
,
00000010
00000000
00000100
00000001
00000010
00000001
00001000
00000000
,
00000010
00001000
00000100
00010000
,
00001000
01000000
00010000
01000000
00100000
01000000
00010000
00000000
,
00000000
10000000
01000000
00100000
01000000
10000000
00010000
00000000
,
00000000
00100000
00000000
00000000
00000000
00000000
00000000
00000000
,
00001000
00010000
00000100
00001000
,
00000010
00000100
00000001
00000010
,
00000100
00001000
00000100
00010000
,
00001000
01000000
00010000
00100000
,
01000000
10000000
00100000
01000000
,
00010000
00100000
00001000
00010000
,
00000100
00001000
00000010
00000100
,
00000001
00000010
00000001
00001000
,
00000100
00010000
00001000
01000000
,
00010000
00100000
01000000
00100000
,
00010000
10000000
00010000
00100000
,
00001000
00010000
00000100
00001000
,
00000010
00000010
00000010
00000010
,
00000100
00000010
00001000
00000100
,
00010000
00001000
01000000
00010000
,
00100000
01000000
10000000
00010000
,
10000000
00100000
00100000
01000000
,
00010000
00010000
00010000
00010000
,
00010000
00100000
00010000
01000000
,
00001000
00010000
00000100
00001000
,
00011000
00000000
00000000
00010000
00000000
00000000
00010000
00000000
,
00000000
00010000
00000000
00000000
00010000
00000000
00000000
00010000
,
00000000
00000000
00010000
00000000
00000000
00010000
00001000
00010000
,
00001000
00010000
00001000
00010000
00000000
00000000
00001000
00000000
,
00000000
00010000
00000000
00000000
00001000
00000000
00000000
00000000
,
00010000
00000000
00000000
00001000
00000000
00000000
00010000
00000000
,
00001000
00000000
00000000
00010000
00000000
00000000
00001000
00000000
,
00010000
00000000
00001000
00000000
00000000
00010000
00000000
00000000
,
00001000
00000000
00000000
00010000
00000000
00000000
00001000
00000000
,
00000000
00010000
00000000
00000000
00001000
00000000
00000000
00010000
,
00000000
00000000
00001000
00000000
00000000
00010000
00000000
00000100
,
00000000
00000000
00000000
00000000
,
00000000
00000000
00000000
00000000
,
00000000
00000000
00000000
00000000
,
00001000
00000100
00001000
00000010
,
00000100
00000000
00000001
00000000
00000010
00000001
00000010
00000100
,
00000000
00000010
00000001
00000000
00000100
00000000
00000010
00000000
,
00001000
00000100
00010000
00001000
,
01000000
00000000
00010000
00000000
00100000
01000000
10000000
00010000
,
00000000
00010000
10000000
00000000
00010000
00000000
01000000
00000000
,
00010000
00100000
00001000
00010000
,
00000100
00000000
00001000
00000000
00000010
00000100
00000010
00001000
,
00000000
00001000
00000100
00000000
00010000
00000000
00001000
00000000
,
01000000
00010000
00100000
01000000
,
10000000
00000000
01000000
00000000
00100000
00000000
01000000
10000000
,
00010000
01000000
00000000
01000000
00010000
00000000
00100000
00000000
,
00001000
00000000
00000000
00000000
,
00000000
00000000
00000000
00000000
,
00000000
00000000
00000000
00000000
,
00000000
00010000
00000100
00010000
00000100
00001000
00000010
00000100
,
00000010
00000100
00000010
00000100
00000001
00001000
00000100
00001000
,
00000100
00010000
00001000
00010000
00001000
01000000
00100000
10000000
,
00010000
00000000
00000000
00000000
;

//--------------- dance-double - Pandemonium X ----------------
#NOTES:
     dance-double:
     Pandemonium X:
     Hard:
     17:
     0,0,0,0,0:
00000000
00000000
00000000
00000000
,
00000000
00000000
00000000
00000000
,
00000000
00000000
00000000
00000000
,
00000000
00000000
00000000
00000000
,
00022000
00000000
00000000
00000000
,
00000000
00000000
00000000
00000000
00033000
00000000
00000000
00010000
,
00000000
00000100
00001000
00000000
00000001
00000100
00000000
00000001
,
00000010
00000000
00000100
00000000
00000010
00000001
00000100
00001000
,
00000100
00000000
00000010
00000000
00010000
00000000
00001000
00000000
00000000
00000000
01000000
00000000
00010000
00000000
10000000
01000000
,
10000000
01000000
10000000
01000000
10000000
00000000
00010000
00000000
00000000
00000000
01000000
00000000
00010000
00000000
00000000
00000000
,
00100000
00000000
10000000
00000000
00000000
00000000
00100000
00000000
00001000
00000000
00000000
00000000
00010000
00000100
00010000
00000100
,
00000000
00001000
00000010
00000000
00000101
00000000
00000000
00001010
,
00000000
00000000
00010100
00000000
00000000
00110000
00000000
00000000
,
10010000
01010000
02002000
00000000
,
00000000
00000000
00000000
00000000
,
03003000
00000000
02000000
00000000
00000000
13000000
01000000
00010000
,
00100000
01000000
10000000
01000000
00001000
00100000
00000000
00001000
,
00000000
00020000
00000000
00000000
00000000
00000000
00030000
00000000
,
00010000
00000100
00000000
00000011
00000000
00000001
00000100
00001000
,
00000100
00000001
00001000
00000010
00000000
00000000
00001010
00000000
,
00000000
00011000
00000000
01001000
00000000
01000000
00100000
00010000
,
00100000
10000000
01000000
00100000
00010000
00000100
00010000
00000000
,
00000100
00000001
00000100
00001000
00000010
00000001
00000010
00000100
,
00001000
00000100
00000001
00010000
00001000
00010000
00001000
01000000
,
00100000
00010000
00100000
10000000
00000000
10000000
01000000
00010000
,
01000000
00100000
00010000
00001000
00000100
00000010
00000001
00000001
,
00000100
00001000
00010000
00100000
10000000
00010000
10000000
00000000
,
00000000
01000000
00100000
00010000
00001000
00010000
00011000
00000000
,
00000000
00010010
00000000
00000010
00000001
00000010
00001000
00000100
,
00000110
00000000
00000000
00000011
00000000
00000000
00001100
00000000
,
00000000
00000100
00010000
00001000
00100000
00001000
00010000
00000010
,
00010000
00001000
01000000
00001000
00010000
00000100
00001000
00000010
,
00000100
00000001
00000010
00000100
00001100
00000000
00000000
00011000
,
00000000
00000000
01001000
00000000
00000000
01100000
00000000
00000000
,
00010000
10000000
00010000
10000000
00010000
00000000
00000000
00000000
00110000
00000000
00000000
00000000
00000000
00000000
00101000
00000000
,
00000000
00000000
00011000
00000000
00000000
00001010
00000000
00000000
,
00001000
00000001
00001000
00000001
00001000
00000000
00000000
00000000
00000001
00000000
00000100
00000000
00000000
00000000
00000001
00000000
,
00001000
00000000
00000001
00000010
00000000
00000001
00001000
00000000
,
00001001
00000000
00001001
00000000
00000001
00000100
00001000
00010000
,
00100000
10000000
00010000
00100000
10000000
00100000
00010000
00001000
,
00000100
00000010
00000001
00001000
00001001
00000000
00001001
00000000
,
00000000
00000000
00000101
00000000
00001010
00000000
00000000
00001010
,
00000000
00000010
00010000
00000000
00011000
00000000
00011000
00000000
,
00000000
00000000
01001000
00000000
01100000
00000000
00000000
10010000
,
00000000
00000000
10000000
00000000
01000000
00100000
01000000
00100000
01000000
00000000
00000000
00000000
01100000
00000000
00000000
00000000
,
00000000
00000000
00110000
00000000
00110000
00000000
00000000
00011000
,
00000000
00001000
01000000
00000000
01100000
00000000
01100000
00000000
,
00000000
00000000
10010000
00000000
00110000
00000000
00000000
10010000
,
00010000
10000000
00010000
10000000
00010000
10000000
00010000
10000000
00010000
00000000
00000000
00000000
00011000
00000000
00000000
00000000
,
00000000
00000000
00001001
00000000
00000001
00000100
00001000
00000100
,
00000000
00000001
00001000
00000000
00001001
00000000
00011000
00000000
,
00000000
00000000
10010000
00000000
00010000
00100000
10000000
00100000
,
00000000
00010000
10000000
00000000
00000000
00000000
00000000
00000000
,
00000000
00000000
00000000
00000000
,
00000000
00000000
00000000
00000000
00000000
00000000
00100000
00001000
,
00000000
00000000
00010000
00000000
00000010
00000000
00000100
00000001
00000100
00000000
00000000
00000000
00000020
00000000
00000030
00000000
,
00000000
00000200
00000300
00000000
00000002
00000003
00000000
00002000
,
00003000
00000000
00000000
00000000
00000000
00000000
00000100
00000000
00010000
00000000
00001000
00000000
00010000
00000000
00000100
00000000
00010000
00000000
00001000
00000000
00000000
01000000
00000000
00000000
,
00100000
10000000
00100000
10000000
00010000
00100000
00001000
00010000
,
00000100
00001000
00000010
00000100
00000001
00000010
00000100
00001000
,
00000100
00000000
00010000
00000000
00001000
00000000
01000000
00000000
00010000
00000000
00100000
01000000
00100000
00000000
00010000
00000000
,
10000000
00000000
00100000
00000000
01000000
00001000
01000000
00001000
00010000
00000000
00000100
00000000
00001000
00000000
00000001
00000000
,
00000100
00000000
00000010
00000000
00001000
00000000
00000100
00010000
00000100
00010000
00001000
00010000
00001000
00000000
01000000
00000000
,
00100000
00010000
00100000
10000000
00100000
00010000
00100000
10000000
,
00010000
00100000
01000000
00100000
00010000
00001000
00000100
00000000
,
00001000
00000100
00000001
00000100
00001000
00000100
00000001
00000100
,
00001000
00000010
00000100
00000010
00000100
00001000
00010000
00000000
,
00000000
00000100
00010000
00001000
01000000
00100000
10000000
00000000
,
00000000
00000000
00000000
00011000
00000000
00000000
00000000
00000000
00000000
00000000
00000000
00000000
00010000
00000000
00000100
00000000
00001000
00000000
00000010
00000000
00000100
00000000
00000001
00000000
,
00001000
00000100
00000010
00000100
00001000
00000001
00000100
00000010
,
00010000
00001000
01000000
00010000
00100000
01000000
10000000
00010000
,
10000000
00100000
01000000
00010000
00100000
00001000
00010000
00000010
,
00000100
00000001
00000010
00000100
00000010
00000001
00001000
00000010
,
00010000
00001000
01000000
00010000
00100000
01000000
10000000
00010000
,
01000000
00001000
00010000
00000010
00000100
00000001
00000010
00000100
,
00010000
00001000
01000000
00010000
00100000
01000000
10000000
00010000
,
01000000
00001000
00010000
00000100
00001000
00000010
00000100
00000001
,
00000010
00000001
00000100
00000010
00010000
00001000
01000000
00010000
,
00100000
01000000
10000000
00010000
01000000
00001000
00010000
00001000
,
00010000
00000100
00010000
00000100
00001000
00000100
00001000
00000100
,
00001000
00000010
00001000
00000010
00000100
00000010
00000100
00000010
,
00000110
00011000
01100000
10010000
,
10000000
01000000
10000000
00010000
01000000
00010000
00100000
00001000
,
00010000
00000100
00001000
00000010
00000100
00000001
00000010
00000001
,
00001000
00000100
00010000
00001000
01000000
00100000
10000000
01000000
,
00100000
00001000
00010000
00000010
00000100
00000001
00000010
00000100
,
00001000
00000100
00010000
00001000
01000000
00100000
10000000
01000000
,
00100000
00010000
00001000
00010000
00000100
00000010
00000100
00000001
,
00001000
00000100
00010000
00001000
01000000
00010000
00100000
01000000
,
11000000
00000000
00000000
00110000
00000000
00000000
01001000
00000000
,
00000000
00001000
00010000
00000100
00001000
00000010
00001000
00000100
,
00000010
00000000
00000001
00000000
00001000
00000000
00000010
00000000
00010000
00000000
00001000
00000000
01000000
00001000
01000000
00001000
,
01000000
01000000
01000000
01000000
00000000
10010000
10000000
00000000
,
00010000
00100000
00000000
00001000
00010000
00000000
00000010
00000000
,
00000100
00000000
00001000
00000001
00000010
00000100
00000010
00000001
,
00001000
00000010
00010000
00001000
01000000
00010000
00100000
00100000
,
00100000
00100000
01000000
00000000
00100000
01000000
00000000
10000000
,
00010000
00000000
01000000
00001000
00000000
00010000
00000000
00000010
,
00000000
00000100
00000001
00000010
00000001
00001000
00000100
00000010
,
00000001
00000000
00001000
00000000
00000100
00000000
00010000
00000000
00000100
00000000
00010000
00001000
00010000
00001000
00010000
00000000
,
00000000
00000000
00000000
00000000
,
00000000
00000000
00000000
00000000
,
00000000
00000000
00000000
00000000
,
00001000
01000000
00010000
00100000
01000000
10000000
00100000
00010000
,
00100000
10000000
00010000
00100000
00001000
00010000
00000010
00000100
,
00000000
00000000
00001000
00000000
00000100
00000000
00000001
00000000
00000010
00000000
00001000
00000000
00000010
00000001
00000010
00000001
,
00000010
00000100
00001000
00000100
00010000
00001000
01000000
00100000
,
00010000
00100000
10000000
01000000
00010000
00001000
00010000
00000100
,
00000000
00000000
00001000
00000000
00000010
00000000
00000001
00000000
00000010
00000000
00000100
00000000
00000001
00001000
00000001
00001000
,
00000100
00001000
00000100
00010000
00001000
01000000
00010000
00100000
,
10000000
00100000
00001000
00010000
00000100
00010000
00001000
01000000
,
00010000
00000000
10000000
00000000
00010000
00000000
00100000
00000000
01000000
00000000
10000000
00000000
01000000
00000000
00010000
00001000
,
00010000
00001000
00010000
00000000
00000010
00000000
00001000
00000000
00000010
00000000
00000100
00000000
00000001
00000000
00001000
00000000
,
00000100
00000001
00000100
00001000
00000100
00010000
00001000
01000000
,
00000000
00000000
10000000
00000000
01000000
00000000
00010000
00000000
00100000
00000000
10000000
00000000
00100000
00000000
00001000
00010000
,
00001000
00010000
00001000
00000000
00000000
00000000
00000000
00000000
00000000
00000000
00000000
00000000
00000000
00000000
00000000
00000000
,
00000000
00000000
00000000
00000000
,
00000000
00000000
00000000
00000000
,
00000000
00100000
00100000
00000010
00000010
00010000
00010000
00001000
,
00001000
01000000
01000000
00000100
00000100
00011000
00010000
00011000
,
00001000
00000000
00011000
00000000
00010000
00000000
00011000
00000000
00001000
00000000
00010000
00001000
01000000
00010000
00100000
00001000
,
00010000
00001000
00000000
00000000
00000000
00000000
00000000
00000000
00000000
00000000
00000000
00000000
00000000
00000000
00000000
00000000
;
