#TITLE:rainbow rainbow;
#SUBTITLE:;
#ARTIST:Ryu☆;
#TITLETRANSLIT:;
#SUBTITLETRANSLIT:;
#ARTISTTRANSLIT:;
#GENRE:;
#CREDIT:;
#BANNER:rainbow rainbow.png;
#BACKGROUND:rainbow rainbow-bg.png;
#LYRICSPATH:;
#CDTITLE:;
#MUSIC:rainbow rainbow.ogg;
#OFFSET:-0.007000;
#SAMPLESTART:55.601002;
#SAMPLELENGTH:21.698999;
#SELECTABLE:YES;
#BPMS:0.000000=177.024994
;
#STOPS:
;
#BGCHANGES:;
#KEYSOUNDS:;
#ATTACKS:;

//---------------dance-single - ----------------
#NOTES:
     dance-single:
     :
     Beginner:
     5:
     0.155500,0.280268,0.102851,0.000000,0.000000,127.000000,115.000000,12.000000,0.000000,0.000000,0.000000,0.155500,0.280268,0.102851,0.000000,0.000000,127.000000,115.000000,12.000000,0.000000,0.000000,0.000000:
// measure 0
0000
0000
0000
0000
,  // measure 1
0000
0000
0000
0000
,  // measure 2
0000
0000
0000
0000
,  // measure 3
0000
0000
0000
0000
,  // measure 4
0000
0000
0000
0000
,  // measure 5
1000
0000
0000
0000
,  // measure 6
0001
0000
0000
0000
,  // measure 7
1000
0000
0000
0000
,  // measure 8
0010
0000
0010
0000
,  // measure 9
0100
0000
0000
0000
,  // measure 10
0110
0000
0000
0000
,  // measure 11
0010
0000
0000
0000
,  // measure 12
0110
0000
0000
0000
,  // measure 13
1000
0000
0000
0000
,  // measure 14
0001
0000
0000
0000
,  // measure 15
0100
0000
0000
0000
,  // measure 16
0010
0000
0010
0000
,  // measure 17
0010
0000
0010
0000
,  // measure 18
0010
0000
0010
0000
,  // measure 19
0010
0000
0100
0000
,  // measure 20
0001
1000
0001
1000
,  // measure 21
1001
0000
0000
0000
,  // measure 22
0000
0000
0000
0110
,  // measure 23
0100
0000
0000
0000
,  // measure 24
0000
0000
0000
0000
,  // measure 25
0001
0000
0000
0000
,  // measure 26
1000
0000
0000
0000
,  // measure 27
0100
0000
0000
0000
,  // measure 28
1000
0000
0010
0000
,  // measure 29
1000
0000
0000
0000
,  // measure 30
0001
0000
0000
0000
,  // measure 31
0010
0000
0000
0000
,  // measure 32
0001
0000
1000
0000
,  // measure 33
0100
0000
0010
0000
,  // measure 34
0001
0000
0000
0000
,  // measure 35
0010
0000
0001
0000
,  // measure 36
0100
0000
0000
0000
,  // measure 37
0010
0000
0000
0000
,  // measure 38
1000
0000
0000
0000
,  // measure 39
0001
0000
0000
0000
,  // measure 40
0000
1001
0110
0000
,  // measure 41
1000
0000
0001
0000
,  // measure 42
1000
0000
0000
0000
,  // measure 43
0100
0000
0010
0000
,  // measure 44
0100
0000
0000
0000
,  // measure 45
0010
0000
0001
0000
,  // measure 46
0100
0000
0001
0000
,  // measure 47
1000
0000
0100
0000
,  // measure 48
0110
0000
0000
0100
,  // measure 49
1001
0000
1000
0000
,  // measure 50
0001
0000
0000
0000
,  // measure 51
0010
0000
0001
0000
,  // measure 52
0100
0000
0000
0000
,  // measure 53
0010
0000
0000
0000
,  // measure 54
1000
0000
0000
0000
,  // measure 55
0100
0000
0000
0000
,  // measure 56
0010
0000
0001
0000
,  // measure 57
1001
0000
0000
0000
,  // measure 58
0000
0000
0000
0000
,  // measure 59
0000
0000
0000
0000
,  // measure 60
0000
0000
0000
0000
,  // measure 61
1000
0000
0001
0000
,  // measure 62
1000
0000
0001
0000
,  // measure 63
1000
0001
1000
0110
,  // measure 64
0000
0100
0100
0000
,  // measure 65
0001
0000
1000
0000
,  // measure 66
0100
0000
0000
0000
,  // measure 67
0010
0000
0100
0000
,  // measure 68
1000
0000
0000
0000
,  // measure 69
0010
0000
0000
0000
,  // measure 70
0100
0000
0000
0000
,  // measure 71
0001
0000
0000
0000
,  // measure 72
1000
0000
0001
0110
,  // measure 73
1000
0000
0001
0000
,  // measure 74
1000
0000
0100
0000
,  // measure 75
0010
0000
0100
0000
,  // measure 76
1000
0000
0001
0000
,  // measure 77
0100
0000
0001
0000
,  // measure 78
0010
0000
0001
0000
,  // measure 79
0100
0000
0010
0000
,  // measure 80
1000
0000
0001
0000
,  // measure 81
0000
0100
0100
1001
;

//---------------dance-single - ----------------
#NOTES:
     dance-single:
     :
     Easy:
     7:
     0.284064,0.632532,0.368548,0.145705,0.000000,232.000000,189.000000,43.000000,17.000000,0.000000,0.000000,0.284064,0.632532,0.368548,0.145705,0.000000,232.000000,189.000000,43.000000,17.000000,0.000000,0.000000:
// measure 0
0000
0000
0000
0000
,  // measure 1
0000
0000
0000
0000
,  // measure 2
0000
0000
0000
0000
,  // measure 3
0000
0000
0000
0000
,  // measure 4
0000
0000
0000
0000
,  // measure 5
1000
0001
0000
1000
,  // measure 6
0000
0010
0200
0000
,  // measure 7
0310
1000
0000
0100
,  // measure 8
0020
0000
0230
0000
,  // measure 9
0310
0001
0000
1000
,  // measure 10
0002
0000
0000
0003
,  // measure 11
0100
0010
0000
1000
,  // measure 12
0220
0000
0000
0330
,  // measure 13
0010
0000
0001
0000
,  // measure 14
0100
0000
0010
0000
,  // measure 15
1000
0000
0001
0000
,  // measure 16
1001
0000
1001
0000
,  // measure 17
0110
0000
0110
0000
,  // measure 18
1001
0000
1001
0000
,  // measure 19
0110
0110
1001
1001
,  // measure 20
0110
1001
0110
1001
,  // measure 21
0220
0000
0000
0000
,  // measure 22
0000
0000
0000
0300
,  // measure 23
0030
0000
0000
0000
,  // measure 24
0000
0000
0000
0000
,  // measure 25
1000
0000
0000
0000
,  // measure 26
0100
0000
0000
0000
,  // measure 27
0010
0000
0000
0000
,  // measure 28
0001
0000
0100
0000
,  // measure 29
0010
0000
0000
0000
,  // measure 30
0100
0000
0000
0000
,  // measure 31
0001
0000
0000
0000
,  // measure 32
1000
0000
0001
0000
,  // measure 33
1000
0000
0100
0000
,  // measure 34
0010
0000
0000
0000
,  // measure 35
0100
0000
1000
0000
,  // measure 36
0010
0000
0000
0000
,  // measure 37
0100
0000
0010
0000
,  // measure 38
0100
0000
0001
0000
,  // measure 39
0100
0000
0010
0000
,  // measure 40
0000
0110
2002
3003
,  // measure 41
0001
1000
0100
1000
,  // measure 42
0010
0000
1000
0000
,  // measure 43
0100
0010
0001
0100
,  // measure 44
0010
0000
1000
0000
,  // measure 45
0001
1000
0100
0000
,  // measure 46
1000
0001
0100
0000
,  // measure 47
0001
1000
0100
0000
,  // measure 48
1000
0000
0001
0110
,  // measure 49
1000
0000
0001
0000
,  // measure 50
0010
0001
0100
0010
,  // measure 51
1000
0000
0001
0000
,  // measure 52
0011
0000
0000
1100
0000
0000
0011
0000
,  // measure 53
0001
0100
1000
0000
,  // measure 54
1000
0100
0001
0000
,  // measure 55
0001
0010
0100
0000
,  // measure 56
0010
0001
1000
0110
,  // measure 57
1001
0000
0000
0000
,  // measure 58
0000
0000
0000
0000
,  // measure 59
0000
0000
0000
0000
,  // measure 60
1001
0000
0110
0000
,  // measure 61
1001
1001
0110
0110
,  // measure 62
1001
0110
1001
0110
,  // measure 63
2002
0000
0000
3000
,  // measure 64
0003
0200
0020
0330
,  // measure 65
1001
1000
0001
0010
,  // measure 66
0100
0100
0100
0100
,  // measure 67
0010
0001
1000
0010
,  // measure 68
0100
0100
0100
0100
,  // measure 69
0010
1000
0001
0000
,  // measure 70
0010
0100
1000
0000
,  // measure 71
0100
1000
0010
0000
,  // measure 72
0100
0010
1000
0101
,  // measure 73
0011
0001
0010
0100
,  // measure 74
1000
1000
0001
0001
,  // measure 75
0100
0001
0010
0100
,  // measure 76
0110
0000
0000
1100
0000
0000
0110
0000
,  // measure 77
0100
1000
0010
0010
,  // measure 78
0100
0001
0010
0010
,  // measure 79
0110
1000
0010
0010
,  // measure 80
0100
0010
1000
0001
,  // measure 81
1000
0002
0103
2020
,  // measure 82
3030
0000
0000
0000
;

//---------------dance-single - ----------------
#NOTES:
     dance-single:
     :
     Medium:
     12:
     0.456706,0.597391,0.368548,0.325694,0.059996,373.000000,330.000000,43.000000,38.000000,4.000000,0.000000,0.456706,0.597391,0.368548,0.325694,0.059996,373.000000,330.000000,43.000000,38.000000,4.000000,0.000000:
// measure 0
0000
0000
0000
0000
,  // measure 1
0000
0000
0000
0000
,  // measure 2
0000
0000
0000
0000
,  // measure 3
0000
0000
0000
0000
,  // measure 4
0000
0000
0000
0000
,  // measure 5
0001
0100
0001
0100
0000
0010
0000
0010
,  // measure 6
0000
0010
0000
0010
1002
0000
0000
0000
,  // measure 7
1003
0100
1000
0100
0000
0010
0000
0010
,  // measure 8
2002
0000
0000
3003
0220
0000
0330
0000
,  // measure 9
0001
0100
0001
0100
0000
0100
0000
0100
,  // measure 10
0010
0000
0000
0010
0000
0000
0010
0000
1002
0000
0000
0000
0000
0000
0000
0000
,  // measure 11
1003
0100
1000
0100
0000
0100
0000
0100
,  // measure 12
0010
0000
0000
0010
0000
0000
0010
0000
0000
0010
0000
0000
2100
0000
0000
0000
,  // measure 13
3100
1000
0001
0100
0000
0001
0000
0010
,  // measure 14
0000
0100
0000
0010
0000
0001
0000
1000
,  // measure 15
0000
0100
0000
0010
0000
0001
0000
1000
,  // measure 16
0220
0000
0000
0330
2002
0000
0000
3003
,  // measure 17
0220
0000
0000
0330
2002
0000
0000
3003
,  // measure 18
0220
0000
0000
0330
2002
0000
0000
3003
,  // measure 19
0110
1001
0110
1001
,  // measure 20
0001
1000
0001
1000
0001
1000
0001
1000
,  // measure 21
0040
0400
0000
0000
0000
0000
0000
0000
0000
0000
0000
0000
0000
0000
0000
0000
,  // measure 22
0000
0000
0000
0000
,  // measure 23
0330
0000
0000
0000
,  // measure 24
0000
0000
0000
0000
,  // measure 25
0002
0000
0000
0003
,  // measure 26
2000
0000
0000
3000
,  // measure 27
0200
0000
0000
0300
,  // measure 28
2000
0000
3020
0000
,  // measure 29
2030
0000
0000
3000
,  // measure 30
0002
0000
0000
0003
,  // measure 31
0020
0000
0000
0030
,  // measure 32
0200
0000
0320
0000
,  // measure 33
0130
1000
0010
0100
,  // measure 34
0001
1000
0001
1000
,  // measure 35
0001
0010
0100
1000
,  // measure 36
0100
1000
0010
1000
,  // measure 37
0001
1000
0001
0000
0100
0000
0101
0000
,  // measure 38
0001
1000
0001
0000
1000
0000
1100
0000
,  // measure 39
1000
0010
1000
0000
0010
0000
0110
0000
,  // measure 40
0100
0010
2000
0000
3002
0000
0013
0000
,  // measure 41
1100
0100
0010
0000
0100
1000
0010
0000
,  // measure 42
0100
0010
0100
0000
0010
1000
0010
0000
,  // measure 43
1000
0001
0010
0000
0100
0010
0001
0000
,  // measure 44
1000
0001
1000
0000
0001
1000
0001
0000
,  // measure 45
1000
0001
0010
0000
0100
0000
1100
0000
,  // measure 46
0100
1000
0010
0000
0100
0000
0101
0000
,  // measure 47
0001
0100
0010
0000
1000
0000
1001
0000
,  // measure 48
0110
0000
0010
1001
,  // measure 49
1010
0010
0100
0000
0010
0100
0001
0000
,  // measure 50
0010
0100
0010
0000
0100
1000
0100
0000
,  // measure 51
1000
0010
0100
0000
0010
1000
0001
0000
,  // measure 52
1000
0000
0000
1000
0000
0000
0001
0000
0000
0001
0000
0000
1000
0000
0001
0000
,  // measure 53
1000
0001
0010
0100
1000
0000
1001
0000
,  // measure 54
1000
0100
0010
0001
1000
0000
1001
0000
,  // measure 55
0001
0010
0100
1000
0001
0000
1001
0000
,  // measure 56
0110
1000
1001
1010
,  // measure 57
0201
0000
0000
0000
,  // measure 58
0320
0000
0000
0000
,  // measure 59
2030
0000
0000
3000
,  // measure 60
1001
0000
0000
0000
0000
0000
0000
0000
0110
0000
0000
0000
0000
0000
0000
1000
,  // measure 61
0001
0000
0000
1000
0010
0000
0000
0010
0100
0000
0000
0100
0001
0000
0000
0001
,  // measure 62
1000
0100
0010
0001
1000
0100
0010
0001
,  // measure 63
4000
0004
0000
0000
0000
0000
0000
0000
0000
0000
0000
0000
0000
0000
0000
0000
,  // measure 64
3003
0000
0000
MMMM
,  // measure 65
0101
0100
0010
0000
0100
0010
1000
0000
,  // measure 66
0001
0010
0001
0010
0100
1000
0100
1000
,  // measure 67
0010
1000
0100
0000
0010
0001
0100
0000
,  // measure 68
0010
0100
0010
1000
0010
1000
0001
1000
,  // measure 69
0100
0010
0001
0000
0010
0000
0011
0000
,  // measure 70
0001
0100
0010
0000
1000
0000
0101
0000
,  // measure 71
0100
0010
1000
0000
0001
0000
1001
0000
,  // measure 72
0110
0000
0010
0200
,  // measure 73
0301
0010
0100
0010
0001
1000
0010
0100
,  // measure 74
0001
0100
0001
1000
,  // measure 75
0100
1000
0010
0100
0001
0010
0100
1000
,  // measure 76
0001
0000
0000
0001
0000
0000
1000
0000
0000
1000
0000
0000
0010
0000
0010
0000
,  // measure 77
1000
0100
1000
0010
1000
0000
1010
0000
,  // measure 78
0001
0100
0010
0100
0001
0000
0101
0000
,  // measure 79
0001
0010
0100
1000
0001
0000
0110
0000
,  // measure 80
1000
0000
0001
0000
0100
0010
1000
0001
,  // measure 81
0020
0100
0031
2200
,  // measure 82
3300
0000
0000
0000
;

//---------------dance-single - ----------------
#NOTES:
     dance-single:
     :
     Hard:
     16:
     0.718730,1.089360,0.282839,0.265698,0.582820,587.000000,554.000000,33.000000,31.000000,17.000000,0.000000,0.718730,1.089360,0.282839,0.265698,0.582820,587.000000,554.000000,33.000000,31.000000,17.000000,0.000000:
// measure 0
0000
0000
0000
0000
,  // measure 1
0000
0000
0000
0000
,  // measure 2
0000
0000
0000
0000
,  // measure 3
0000
0000
0000
0000
,  // measure 4
0000
0000
0000
0000
,  // measure 5
1000
0000
0100
0010
0001
0000
1000
0000
0000
0000
1000
0000
0000
0000
1000
0000
,  // measure 6
0000
1000
0000
0001
0200
0000
0000
0000
,  // measure 7
0310
0000
0100
0001
1000
0000
0010
0000
0000
0000
0010
0000
0000
0000
0100
0000
,  // measure 8
2002
0000
0000
0000
0000
0000
3003
0000
0220
0000
0000
0330
1MM1
0000
0000
0000
,  // measure 9
0101
0000
0001
0010
0100
0000
1000
0000
0000
0000
1000
0000
0000
0000
1000
0000
,  // measure 10
1100
0000
0000
0110
0000
0000
0012
0000
0020
0000
0000
0000
0000
0000
0033
0000
,  // measure 11
1100
0000
0100
0010
0001
0000
1000
0000
0000
0000
1000
0000
0000
0000
1000
0000
,  // measure 12
1100
0000
0000
0110
0000
0000
0011
0000
0000
1100
0000
0000
1002
0000
0000
0000
,  // measure 13
0013
0000
0100
1000
0010
0000
0100
0000
0000
0000
0001
0000
0000
0000
0100
0000
,  // measure 14
0000
1000
0000
0100
0000
0001
0000
0010
,  // measure 15
0000
1000
0000
0010
0000
0001
0000
1000
,  // measure 16
2002
0000
0000
3003
0220
0000
M00M
0330
,  // measure 17
2002
0000
0000
3003
M220
0000
000M
M330
,  // measure 18
2002
0000
0000
3003
0220
0000
M00M
0330
,  // measure 19
1001
0000
1000
0001
1000
0000
0001
1000
0001
0000
1000
0001
1000
0000
0001
1000
,  // measure 20
0001
0001
0001
0001
1000
1000
1000
1000
,  // measure 21
0001
1000
0001
1000
0001
1000
0001
1000
0001
1000
0001
1000
0001
1000
0001
1000
,  // measure 22
0001
1000
0001
1000
0001
1000
0001
1000
0001
1000
0001
1000
0040
0400
0000
0000
,  // measure 23
0330
0000
0000
0000
,  // measure 24
0000
0000
0000
0000
,  // measure 25
1000
0000
0001
0000
0000
0000
1000
0000
0000
1000
0000
0000
1000
0000
0000
1000
,  // measure 26
0001
0000
0010
0000
0000
0000
0100
0000
0000
0100
0000
0000
0010
0000
0010
0100
,  // measure 27
1000
0000
0001
0000
0000
0000
0100
0000
0000
0001
0000
0000
0010
0000
0000
0010
,  // measure 28
0100
0010
0000
0100
1000
1000
0010
0100
,  // measure 29
0010
0000
0010
0000
0000
0000
0100
0000
0000
0100
0000
0000
0001
0000
1000
0100
,  // measure 30
0010
0000
0010
0000
0000
0000
0100
0000
0000
0100
0000
0000
0010
0000
0010
0001
,  // measure 31
0100
0000
0100
0000
0000
0000
0010
0000
0000
0010
0000
0000
0010
0000
0000
1000
,  // measure 32
0001
0001
0000
0010
0100
0100
1000
0010
,  // measure 33
1000
0100
0010
0001
0100
0010
0100
0001
,  // measure 34
0010
0100
1000
0100
,  // measure 35
1000
0100
1000
0100
0010
0001
0100
0010
,  // measure 36
0100
0100
0001
0010
,  // measure 37
0001
0010
0001
0100
0001
0000
1001
0000
,  // measure 38
1000
0100
1000
0010
1000
0000
1001
0000
,  // measure 39
1000
0010
0100
0001
0010
0000
1100
0000
,  // measure 40
0100
0010
0100
0000
0002
0000
0000
0000
2000
0000
0000
3003
M22M
0000
0000
0330
,  // measure 41
1001
0000
0001
0000
0010
0000
0001
0000
0100
0000
0010
0100
0000
0100
0010
1000
,  // measure 42
0010
0010
1000
0010
0010
1000
0010
1000
,  // measure 43
0100
0000
0100
0000
0010
0000
0100
0000
1000
0000
0001
1000
0000
0100
1000
0010
,  // measure 44
0100
0100
0001
0100
0100
0010
0100
0100
,  // measure 45
0010
0000
1000
0000
0001
0000
0010
0000
0100
0000
1000
0100
0000
1000
0000
0100
,  // measure 46
0010
0000
0001
0000
0100
0000
0001
0000
1000
0000
0001
0010
0000
0001
0000
0010
,  // measure 47
0100
0000
0010
0000
0001
0000
0100
0000
0010
0000
1000
0001
0000
1000
0000
0001
,  // measure 48
0100
0000
0010
0000
0100
0000
0001
0000
1000
0100
0010
0100
1000
0001
0010
0100
,  // measure 49
1000
0000
0100
0000
1000
0000
0010
0000
0100
0000
0001
0010
0000
0100
0010
0001
,  // measure 50
1000
1000
0001
1000
1000
0010
1000
0010
,  // measure 51
0100
0000
0001
0000
0010
0000
0100
0000
0010
0000
0001
0010
0000
0100
0010
0001
,  // measure 52
1000
0000
0000
0011
0000
0000
0001
0000
0000
1010
0000
0000
0010
0000
0010
0000
,  // measure 53
1000
0000
0001
0000
0100
0000
0001
0000
0010
0000
0100
0010
0000
0001
0000
0010
,  // measure 54
0100
0000
1000
0000
0010
0000
0100
0000
0001
0000
1000
0010
0000
0100
0000
0010
,  // measure 55
1000
0000
0100
0000
0010
0000
0100
0000
1000
0000
0001
0010
0000
0100
0000
0010
,  // measure 56
0001
0000
1000
0000
0010
0000
0100
0000
0001
0100
0010
0100
0001
1000
0100
0010
,  // measure 57
0200
0000
0000
0300
,  // measure 58
2000
0000
0000
3000
,  // measure 59
0020
0000
0000
0030
,  // measure 60
0101
0000
0000
0000
0000
0000
0000
0000
0011
0000
0000
0000
0000
0000
1000
0001
,  // measure 61
1000
0000
0001
1000
0001
0000
1000
0001
1000
0000
0001
1000
0001
0000
1000
0001
,  // measure 62
1000
1000
1000
1000
0001
0001
0001
0001
,  // measure 63
1000
0001
1000
0001
1000
0001
1000
0001
1000
0001
1000
0001
0040
0400
0000
0000
,  // measure 64
0330
0000
0000
MMMM
,  // measure 65
1000
0000
0010
0000
0100
0000
0001
0000
0010
0000
0100
1000
0000
0100
0010
0001
,  // measure 66
1000
1000
0100
0001
0001
0100
1000
0001
,  // measure 67
0100
0000
0010
0000
1000
0000
0001
0000
0010
0000
0100
0010
0000
0100
1000
0001
,  // measure 68
0010
0010
1000
0010
0010
0100
0010
0010
,  // measure 69
0001
0000
0100
0000
0001
0000
0010
0000
0100
0000
1000
0100
0000
0010
0000
0100
,  // measure 70
1000
0000
0010
0000
0100
0000
0001
0000
0010
0000
0100
0010
0000
0100
0000
1000
,  // measure 71
0010
0000
0100
0000
0001
0000
0010
0000
0100
0000
1000
0100
0000
1000
0000
0010
,  // measure 72
0100
0000
0001
0000
0010
0000
1000
0000
0010
0001
0100
0010
4000
0004
0000
3003
,  // measure 73
0110
0000
1000
0000
0001
0000
0010
0000
0100
0000
0010
0001
0000
0010
0100
1000
,  // measure 74
0001
0001
0100
1000
1000
0100
0010
1000
,  // measure 75
0010
0000
0100
0000
0010
0000
1000
0000
0001
0000
0010
0100
0000
0010
0001
1000
,  // measure 76
0001
0000
0000
1100
0000
0000
0010
0000
0000
0101
0000
0000
0001
0000
1000
0000
,  // measure 77
0001
0000
0100
0000
1000
0000
0100
0000
0001
0000
1000
0001
0000
1000
0000
0001
,  // measure 78
1000
0000
0100
0000
0001
0000
0100
0000
1000
0000
0001
1000
0000
0001
0000
1000
,  // measure 79
0001
0000
0100
0000
1000
0000
0100
0000
0001
0000
1000
0001
0000
1000
0000
0001
,  // measure 80
0010
0000
0100
0000
1000
0000
0100
0000
0010
0001
0010
0100
1000
0100
0010
0001
,  // measure 81
1000
0000
0000
0000
0002
0000
0000
0000
2000
0000
0000
3003
M22M
0000
0000
0000
,  // measure 82
0330
0000
0000
0000
;
