#TITLE:microwave popcorn;
#SUBTITLE:;
#ARTIST:Mr. T;
#TITLETRANSLIT:;
#SUBTITLETRANSLIT:;
#ARTISTTRANSLIT:;
#GENRE:;
#CREDIT:;
#BANNER:microwave popcorn.png;
#BACKGROUND:microwave popcorn-bg.png;
#LYRICSPATH:;
#CDTITLE:;
#MUSIC:microwave popcorn.ogg;
#OFFSET:-0.424000;
#SAMPLESTART:48.174000;
#SAMPLELENGTH:16.181999;
#SELECTABLE:YES;
#BPMS:0.000000=240.000000
;
#STOPS:56.000000=0.125000,
56.500000=0.125000,
57.000000=0.125000,
57.500000=0.125000
;
#BGCHANGES:;
#KEYSOUNDS:;
#ATTACKS:;

//---------------dance-single - ----------------
#NOTES:
     dance-single:
     :
     Beginner:
     5:
     0.187523,0.338072,0.066046,0.000000,0.000000,159.000000,151.000000,8.000000,0.000000,0.000000,0.000000,0.187523,0.338072,0.066046,0.000000,0.000000,159.000000,151.000000,8.000000,0.000000,0.000000,0.000000:
// measure 0
0000
0000
0000
0000
,  // measure 1
0000
0000
0000
0000
,  // measure 2
0000
0000
0000
0000
,  // measure 3
0000
0000
0000
0000
,  // measure 4
0001
0000
0000
0000
,  // measure 5
0000
0000
0000
0000
,  // measure 6
1000
0000
0000
0000
,  // measure 7
0000
0000
0000
0000
,  // measure 8
0010
0000
0000
0000
,  // measure 9
0100
0000
0000
0000
,  // measure 10
0001
0000
1000
0000
,  // measure 11
0010
0000
0100
0000
,  // measure 12
0001
0000
0000
0000
,  // measure 13
0000
0000
0000
0000
,  // measure 14
0110
0000
0000
0000
,  // measure 15
0000
0000
1000
0000
,  // measure 16
0000
0000
0001
0000
,  // measure 17
0000
0000
0100
0000
,  // measure 18
0010
0000
0100
0000
,  // measure 19
0000
0000
0010
0000
,  // measure 20
0000
0000
1000
0000
,  // measure 21
0000
0000
0100
0000
,  // measure 22
1000
0000
0100
0000
,  // measure 23
0000
0000
0010
0000
,  // measure 24
0000
0000
0001
0000
,  // measure 25
0000
0000
0100
0000
,  // measure 26
0010
0000
0100
0000
,  // measure 27
0000
0000
0010
0000
,  // measure 28
0000
0000
1000
0000
,  // measure 29
0000
0000
0001
0000
,  // measure 30
1000
0000
0100
0000
,  // measure 31
0010
0000
0001
0000
,  // measure 32
0001
0000
0001
0000
,  // measure 33
0000
0000
1000
0000
,  // measure 34
1000
0000
1000
0000
,  // measure 35
0000
0000
0010
0000
,  // measure 36
0000
0000
0100
0000
,  // measure 37
0000
0000
1001
0000
,  // measure 38
0000
0000
0000
0000
,  // measure 39
0000
0000
0001
0000
,  // measure 40
0001
0000
0001
0000
,  // measure 41
0000
0000
1000
0000
,  // measure 42
1000
0000
1000
0000
,  // measure 43
0000
0000
0010
0000
,  // measure 44
0010
0000
0010
0000
,  // measure 45
0100
0000
0010
0010
,  // measure 46
0010
0010
0010
0000
,  // measure 47
0000
0000
1000
0000
,  // measure 48
0000
0000
0100
0000
,  // measure 49
0000
0000
0010
0000
,  // measure 50
0000
0000
0001
0000
,  // measure 51
0000
0000
1000
0000
,  // measure 52
0000
0000
0001
0000
,  // measure 53
0000
0000
0100
0000
,  // measure 54
0100
0000
0100
0000
,  // measure 55
0000
0000
0110
0000
,  // measure 56
0000
0000
0110
0000
,  // measure 57
0000
0000
0010
0000
,  // measure 58
0010
0000
0010
0000
,  // measure 59
0000
0000
1000
0000
,  // measure 60
0000
0000
0001
0000
,  // measure 61
0000
0000
1000
0001
,  // measure 62
1000
0001
1000
0000
,  // measure 63
0000
0000
0010
0000
,  // measure 64
0000
0000
0000
0000
,  // measure 65
0000
0000
0100
0000
,  // measure 66
0100
0000
0100
0000
,  // measure 67
0000
0000
0001
0000
,  // measure 68
0000
0000
0000
0000
,  // measure 69
0000
0000
1000
0000
,  // measure 70
1000
0000
1000
0000
,  // measure 71
0000
0000
0100
0000
,  // measure 72
0000
0000
0000
0000
,  // measure 73
0000
0000
0010
0000
,  // measure 74
0010
0000
0010
0000
,  // measure 75
0000
0000
0001
0000
,  // measure 76
0000
0000
0000
0000
,  // measure 77
0000
0000
0010
0000
,  // measure 78
0001
0000
1000
0000
,  // measure 79
0000
0000
0001
0000
,  // measure 80
1000
0000
0001
0000
,  // measure 81
1000
0000
0010
0000
,  // measure 82
0010
0000
0010
0000
,  // measure 83
0000
0000
1000
0000
,  // measure 84
0001
0000
1000
0000
,  // measure 85
0001
0000
0100
0000
,  // measure 86
0100
0000
0100
0000
,  // measure 87
0000
0000
0001
0000
,  // measure 88
1000
0000
0001
0000
,  // measure 89
1000
0000
0010
0000
,  // measure 90
0010
0000
0100
0000
,  // measure 91
0100
0000
0010
0000
,  // measure 92
1000
0000
0010
0000
,  // measure 93
1000
0000
0010
0100
,  // measure 94
0010
0100
0010
0000
,  // measure 95
0000
0000
1000
0000
,  // measure 96
0000
0000
0100
0000
,  // measure 97
0000
0000
0010
0000
,  // measure 98
0000
0000
0001
0000
,  // measure 99
0000
0000
1000
0000
,  // measure 100
0000
0000
0001
0000
,  // measure 101
0000
0000
0100
0000
,  // measure 102
0010
0000
0100
0000
,  // measure 103
0000
0000
1001
0000
,  // measure 104
0000
0000
0110
0000
,  // measure 105
0000
0000
0001
0000
,  // measure 106
1000
0000
0110
0000
,  // measure 107
0000
0000
1000
0000
,  // measure 108
0000
0000
0001
0000
,  // measure 109
1000
0000
0100
0000
,  // measure 110
0000
0000
0010
0000
,  // measure 111
0000
0000
0001
0000
,  // measure 112
1000
0000
0001
0000
,  // measure 113
0000
0000
0100
0000
,  // measure 114
0000
0000
0010
0000
,  // measure 115
0000
0000
1000
0000
,  // measure 116
0001
0000
1000
0000
,  // measure 117
0110
0000
0000
0000
;

//---------------dance-single - ----------------
#NOTES:
     dance-single:
     :
     Easy:
     8:
     0.305462,0.482960,0.198138,0.280695,0.000000,259.000000,235.000000,24.000000,34.000000,0.000000,0.000000,0.305462,0.482960,0.198138,0.280695,0.000000,259.000000,235.000000,24.000000,34.000000,0.000000,0.000000:
// measure 0
0000
0000
0000
0000
,  // measure 1
0000
0000
0000
0000
,  // measure 2
0000
0000
0000
0000
,  // measure 3
0000
0000
0000
0000
,  // measure 4
0001
0000
0000
0000
,  // measure 5
1000
0000
0001
0000
,  // measure 6
0100
0000
0000
0000
,  // measure 7
0010
0000
1000
0000
,  // measure 8
0100
0000
0000
0000
,  // measure 9
1000
0000
0000
0000
,  // measure 10
0001
0000
1000
0000
,  // measure 11
0010
0000
0100
0000
,  // measure 12
0001
0000
0000
0000
,  // measure 13
1000
0000
0000
0000
,  // measure 14
0220
0000
0330
0000
,  // measure 15
1001
0000
1000
0000
,  // measure 16
0001
0000
0010
0000
,  // measure 17
0001
0000
0100
0000
,  // measure 18
0010
1000
0020
0000
,  // measure 19
0030
0000
0100
0000
,  // measure 20
0010
0000
1000
0000
,  // measure 21
0001
0000
0010
0000
,  // measure 22
0100
0010
0200
0000
,  // measure 23
0000
0300
0010
0000
,  // measure 24
0001
0000
0100
0001
,  // measure 25
0010
0000
0100
0000
,  // measure 26
0010
0100
2000
0000
,  // measure 27
3000
0000
0100
0000
,  // measure 28
1000
0000
0010
0000
,  // measure 29
0100
0000
1001
0000
,  // measure 30
0001
0000
0100
0000
,  // measure 31
0010
0000
1000
0100
,  // measure 32
0010
0001
1000
0000
,  // measure 33
1001
0000
0001
0010
,  // measure 34
0100
1000
0002
0000
,  // measure 35
0003
0000
1000
0001
,  // measure 36
0100
0010
1000
0000
,  // measure 37
0010
0000
0100
0000
,  // measure 38
0020
0000
0130
0000
,  // measure 39
0002
0000
0103
0010
,  // measure 40
1000
0001
2000
0000
,  // measure 41
3000
0000
0100
0010
,  // measure 42
0001
1000
0002
0000
,  // measure 43
0000
0003
0100
0100
,  // measure 44
0100
0000
0010
0010
,  // measure 45
0010
0000
1000
0100
,  // measure 46
0010
0001
1001
0000
,  // measure 47
0000
0000
1000
0000
,  // measure 48
0001
0000
0200
0000
,  // measure 49
0302
0000
0013
0000
,  // measure 50
0100
1000
0200
0000
,  // measure 51
0300
0000
1000
0000
,  // measure 52
0010
0000
0100
0000
,  // measure 53
0001
0000
1000
0100
,  // measure 54
0010
0001
1000
0000
,  // measure 55
0000
0000
0100
0000
,  // measure 56
1000
0000
0010
0000
,  // measure 57
0100
0000
0001
0000
,  // measure 58
0010
0001
2000
0000
,  // measure 59
3000
0000
0001
0000
,  // measure 60
1000
0000
1001
0000
,  // measure 61
0110
0000
0001
0100
,  // measure 62
0010
1000
1001
0000
,  // measure 63
0000
0000
1000
0000
,  // measure 64
0000
0000
0100
0000
,  // measure 65
0000
0000
0020
0000
,  // measure 66
0032
0000
0203
0000
,  // measure 67
0000
0000
0310
0000
,  // measure 68
0000
0000
0100
0000
,  // measure 69
0000
0000
0002
0000
,  // measure 70
2003
0000
3020
0000
,  // measure 71
0000
0000
0130
0000
,  // measure 72
0000
0000
0010
0000
,  // measure 73
0000
0000
2000
0000
,  // measure 74
3200
0000
0320
0000
,  // measure 75
0000
0000
0130
0000
,  // measure 76
0000
0000
1000
0000
,  // measure 77
0000
0000
0002
0000
,  // measure 78
0203
0000
0020
0000
,  // measure 79
0000
0330
0100
0000
,  // measure 80
0010
0000
1000
0000
,  // measure 81
0001
0000
1001
0000
,  // measure 82
0110
0000
2002
0000
,  // measure 83
3003
0000
0001
0000
,  // measure 84
1000
0000
0010
0000
,  // measure 85
0100
0000
0101
0000
,  // measure 86
1010
0000
0202
0000
,  // measure 87
0303
0000
0001
0000
,  // measure 88
1000
0000
0100
0000
,  // measure 89
0010
0000
0011
0000
,  // measure 90
1100
0000
0021
0000
,  // measure 91
0032
0000
0103
0000
,  // measure 92
0010
0000
1000
0000
,  // measure 93
0001
0000
1000
0100
,  // measure 94
0010
0001
1001
0000
,  // measure 95
0000
0000
0001
0100
,  // measure 96
0001
0100
0001
0000
,  // measure 97
0100
0000
0010
1000
,  // measure 98
0010
1000
0020
0000
,  // measure 99
0030
0000
1000
0001
,  // measure 100
1000
0001
1000
0000
,  // measure 101
0001
0000
1000
0100
,  // measure 102
0010
0001
1000
0000
,  // measure 103
0000
0000
0001
1000
,  // measure 104
0001
0000
0100
0010
,  // measure 105
0100
0000
0010
1000
,  // measure 106
0010
1000
0002
0000
,  // measure 107
0003
0000
0010
0001
,  // measure 108
0100
0010
1000
0000
,  // measure 109
0001
0000
1001
0000
,  // measure 110
0000
0000
0110
0000
,  // measure 111
0000
0000
0001
0100
,  // measure 112
0010
1000
0001
0000
,  // measure 113
1000
0000
0001
0001
,  // measure 114
1000
0001
0001
1000
,  // measure 115
0001
0100
0110
0000
,  // measure 116
1001
0000
0110
0000
,  // measure 117
1001
0000
0000
0000
;

//---------------dance-single - ----------------
#NOTES:
     dance-single:
     :
     Medium:
     11:
     0.422222,0.579552,0.338485,0.280695,0.037151,358.000000,317.000000,41.000000,34.000000,0.000000,0.000000,0.422222,0.579552,0.338485,0.280695,0.037151,358.000000,317.000000,41.000000,34.000000,0.000000,0.000000:
// measure 0
0000
0000
0000
0000
,  // measure 1
0000
0000
0000
0000
,  // measure 2
0000
0000
0000
0000
,  // measure 3
0000
0000
0000
0000
,  // measure 4
1000
1000
1000
0000
,  // measure 5
0001
0010
0001
0100
,  // measure 6
0010
0100
0100
0100
,  // measure 7
0010
0000
1000
0001
,  // measure 8
0010
0001
0001
0001
,  // measure 9
1000
0010
1000
0100
,  // measure 10
0010
0010
0100
0100
,  // measure 11
1000
0000
0001
0000
,  // measure 12
0110
0000
0000
0000
,  // measure 13
1001
0000
0000
0000
,  // measure 14
0001
1000
0001
1000
0001
0000
0000
0000
,  // measure 15
0110
0000
1000
1000
,  // measure 16
1000
0000
0000
1000
0000
0000
0010
0000
0000
0000
0000
0100
,  // measure 17
0000
0000
0001
0000
0000
0000
0010
0000
0000
0100
0000
0000
,  // measure 18
0010
0000
0000
0000
0000
0002
0000
0000
0000
0000
0000
0000
,  // measure 19
0000
0003
1000
0001
,  // measure 20
0001
0000
0000
0001
0000
0000
0001
0000
0000
0000
0000
1000
,  // measure 21
0000
0000
0100
0000
0000
0010
0000
0000
0000
0100
0000
0000
,  // measure 22
1000
0000
0000
0000
0000
0020
0000
0000
0000
0000
0000
0000
,  // measure 23
0000
0000
0000
0030
0000
0100
0000
0000
0000
0010
0000
0000
,  // measure 24
1000
0001
0010
0001
,  // measure 25
0100
0010
1000
0001
,  // measure 26
0010
0000
0000
0000
0000
0200
0000
0000
0000
0000
0000
0000
,  // measure 27
0000
0300
0010
0001
,  // measure 28
0100
0000
0010
1000
,  // measure 29
0100
0000
1001
0000
,  // measure 30
0110
0000
1010
0000
,  // measure 31
0011
0000
0001
0010
,  // measure 32
0100
1000
0200
0000
,  // measure 33
2300
0000
3100
0010
,  // measure 34
0001
2000
0002
0000
,  // measure 35
0000
3003
1000
0010
,  // measure 36
0100
0010
1000
0001
,  // measure 37
0010
0100
2000
0000
,  // measure 38
3100
0000
0010
0000
,  // measure 39
0001
0000
1000
1000
,  // measure 40
0001
0100
0020
0000
,  // measure 41
0030
0000
1000
1000
,  // measure 42
0001
0010
0200
0000
,  // measure 43
0300
0000
0010
0010
,  // measure 44
0010
0010
0010
0100
,  // measure 45
0010
0001
1001
1000
,  // measure 46
1001
0001
1001
0000
,  // measure 47
0110
0000
0001
0100
,  // measure 48
0010
1000
0200
0000
,  // measure 49
0320
0000
0130
0100
,  // measure 50
1000
0001
2000
0000
,  // measure 51
3000
0010
1000
1000
,  // measure 52
0001
0010
0200
0000
,  // measure 53
0320
0000
0031
0100
,  // measure 54
1000
0100
0001
0000
,  // measure 55
0000
1000
0010
0010
,  // measure 56
0010
1000
0010
0010
,  // measure 57
0010
0000
0010
0010
,  // measure 58
0100
0100
0002
0000
,  // measure 59
0003
1000
0001
0001
,  // measure 60
0010
0100
1100
0000
,  // measure 61
0011
0000
0001
0100
,  // measure 62
1000
0010
0001
0000
,  // measure 63
0000
0000
1000
0000
,  // measure 64
0001
0000
0100
0000
,  // measure 65
0010
0000
1010
0000
,  // measure 66
0101
0000
2020
0000
,  // measure 67
3030
0000
1000
0000
,  // measure 68
0001
0000
0010
0000
,  // measure 69
0100
0000
0110
0000
,  // measure 70
0011
0000
0220
0000
,  // measure 71
0330
0000
0010
0000
,  // measure 72
0001
0000
1000
0000
,  // measure 73
0010
0000
0110
0000
,  // measure 74
0101
0000
0220
0000
,  // measure 75
0330
0000
0010
0000
,  // measure 76
1000
0000
0001
0000
,  // measure 77
0010
0000
1001
0000
,  // measure 78
0110
0000
2002
0000
,  // measure 79
3003
0000
1000
0001
,  // measure 80
0010
0001
1000
0010
,  // measure 81
1000
0001
0011
0000
,  // measure 82
0110
0000
2200
0000
,  // measure 83
3300
0000
1000
0001
,  // measure 84
0100
0001
1000
0100
,  // measure 85
1000
0001
0101
0000
,  // measure 86
0110
0000
2020
0000
,  // measure 87
3030
0000
1000
0010
,  // measure 88
0100
0010
1000
0001
,  // measure 89
0010
0100
1100
0000
,  // measure 90
0011
0000
0101
0000
,  // measure 91
1010
0000
0001
1000
,  // measure 92
0010
1000
0001
0010
,  // measure 93
0100
1000
0001
0100
,  // measure 94
1000
0010
0001
0000
,  // measure 95
0000
0000
0001
0100
,  // measure 96
0100
0010
2000
0000
,  // measure 97
3002
0000
0013
0010
,  // measure 98
0100
0010
0002
0000
,  // measure 99
0003
1000
0100
0100
,  // measure 100
1000
0010
0200
0000
,  // measure 101
0320
0000
0130
0010
,  // measure 102
1000
0001
0010
0000
,  // measure 103
0000
0010
0100
0100
,  // measure 104
0100
1000
0100
0100
,  // measure 105
0100
0000
0100
0100
,  // measure 106
0010
0010
0002
0000
,  // measure 107
0003
0000
1000
1000
,  // measure 108
0001
0001
0100
0000
,  // measure 109
0010
0000
1000
1000
,  // measure 110
0001
0010
0100
0100
,  // measure 111
1000
0000
0100
0100
,  // measure 112
0100
0100
0110
0000
,  // measure 113
1001
0000
0001
1000
,  // measure 114
0001
1000
0010
0100
,  // measure 115
0010
0100
0101
0000
,  // measure 116
1010
0000
1100
0000
,  // measure 117
1001
0000
0000
0000
;

//---------------dance-single - ----------------
#NOTES:
     dance-single:
     :
     Hard:
     15:
     0.589695,0.828050,0.346741,0.462321,0.433426,500.000000,458.000000,42.000000,56.000000,0.000000,0.000000,0.589695,0.828050,0.346741,0.462321,0.433426,500.000000,458.000000,42.000000,56.000000,0.000000,0.000000:
// measure 0
0000
0000
0000
0000
,  // measure 1
0000
0000
0000
0000
,  // measure 2
0000
0000
0000
0000
,  // measure 3
0000
0000
0000
0000
,  // measure 4
1000
0000
1000
0100
0000
0100
1000
0000
0010
0000
0000
0000
,  // measure 5
0100
0010
1000
0001
,  // measure 6
0010
0000
0000
0100
0000
0010
0100
0000
0010
0100
0000
0010
,  // measure 7
0100
0000
0010
0001
,  // measure 8
1001
0000
0000
1000
0000
0001
0100
0000
0100
0001
0000
0001
,  // measure 9
0010
0100
1000
0010
,  // measure 10
0110
1000
0110
0001
,  // measure 11
1001
0000
0110
0000
,  // measure 12
0002
0000
0000
0000
0000
0000
0000
0000
0000
0000
0000
1003
,  // measure 13
0200
0000
0000
0300
,  // measure 14
1001
0110
1001
0110
1001
0000
0000
0000
,  // measure 15
0110
0000
0000
0000
0000
0000
1000
0000
0001
1000
0000
1000
,  // measure 16
0001
0000
0001
1000
0000
1000
0010
0000
0100
0000
0000
0010
,  // measure 17
0000
0000
1000
0000
0000
0200
0000
0000
0000
0310
0000
0000
,  // measure 18
0100
0000
0000
1000
0000
0020
0000
0000
0000
0000
0000
0000
,  // measure 19
0030
0000
0000
0000
0000
0100
0000
0000
0010
1000
0000
1000
,  // measure 20
0010
0000
0010
1000
0000
1000
0010
0000
0100
0000
0000
0001
,  // measure 21
0000
0000
0010
0000
0000
0200
0000
0000
0310
0001
0000
0010
,  // measure 22
0100
0000
0000
0010
0000
0002
0000
0000
0000
0000
0000
0000
,  // measure 23
0000
0000
0000
0000
0000
0103
0000
0000
0001
0010
0000
0010
,  // measure 24
0001
0000
1000
0000
0000
0001
0000
0000
0100
0001
0000
0000
,  // measure 25
0010
0000
0000
0100
0000
0000
1000
0000
0001
1000
0000
1000
,  // measure 26
0001
0000
0000
0010
0000
0200
0000
0000
0000
0000
0000
0000
,  // measure 27
0000
0000
0000
0000
0000
1300
0000
0000
0001
0010
0000
0010
,  // measure 28
0001
0000
0000
0001
0000
1000
0000
0000
0100
0010
0000
0000
,  // measure 29
0100
0010
1001
0000
,  // measure 30
2000
0000
3200
0000
,  // measure 31
0320
0000
0000
0000
0000
0000
0031
0000
0100
0001
0000
0000
,  // measure 32
1000
0001
0021
0000
,  // measure 33
0130
0000
0000
0000
0000
0000
0010
0000
0001
0010
0000
0000
,  // measure 34
0100
1000
0020
0000
,  // measure 35
0000
0000
0000
0000
0000
0000
0130
0000
0001
0100
0000
0000
,  // measure 36
0010
1000
0100
0010
,  // measure 37
0100
1000
0002
0000
,  // measure 38
0010
0000
0100
0000
,  // measure 39
1003
0000
0000
1000
0000
1000
0001
0000
0001
0010
0000
0000
,  // measure 40
1000
0010
0002
0000
,  // measure 41
0003
0000
0000
1000
0000
0010
0100
0000
0010
1000
0000
0000
,  // measure 42
0010
0001
0020
0000
,  // measure 43
0000
0000
0000
0130
0000
0100
0010
0000
1000
0001
0000
0001
,  // measure 44
1000
0000
1000
0001
0000
0001
1000
0000
1000
0010
0000
0000
,  // measure 45
0100
0001
0110
1100
,  // measure 46
0011
0101
1010
0000
,  // measure 47
1001
0000
0000
0010
0000
1000
0100
0000
0100
0010
0000
0000
,  // measure 48
0100
1000
0002
0000
,  // measure 49
2003
0000
0000
0000
0000
0000
3010
0000
0100
0001
0000
0000
,  // measure 50
0010
0001
2000
0000
,  // measure 51
3000
0000
0000
0001
0000
0010
0100
0000
0100
0010
0000
0000
,  // measure 52
0001
0100
0020
0000
,  // measure 53
1030
0000
0100
0010
,  // measure 54
0001
0100
0001
0000
,  // measure 55
0000
0000
0000
1000
0000
1000
0010
0000
0010
0100
0000
0000
,  // measure 56
0100
0000
0000
0100
0000
0100
0010
0000
0010
0100
0000
0000
,  // measure 57
0100
0000
0000
0000
0000
0100
0001
0000
0001
0010
0000
0000
,  // measure 58
0010
0001
2000
0000
,  // measure 59
3000
0000
0000
0001
0000
1000
0100
0000
0100
1000
0000
0000
,  // measure 60
0010
0100
0110
0000
,  // measure 61
1001
0000
0110
0001
,  // measure 62
0110
1000
1001
0000
,  // measure 63
0000
0000
0000
0000
0000
0000
1000
0000
1000
0001
0000
0000
,  // measure 64
0001
0000
0000
0001
0000
0001
1000
0000
0000
0100
0000
0000
,  // measure 65
0010
0001
0020
0000
,  // measure 66
0230
0000
2300
0000
,  // measure 67
0000
0000
0000
3000
0000
0000
0001
0000
0001
0010
0000
0000
,  // measure 68
0010
0000
0000
0010
0000
0100
0010
0000
0000
0100
0000
0000
,  // measure 69
1000
0010
0200
0000
,  // measure 70
0320
0000
2030
0000
,  // measure 71
3000
0000
0000
0000
0000
0000
0001
0000
0001
1000
0000
0000
,  // measure 72
0001
0000
0000
0001
0000
1000
0001
0000
0000
1000
0000
0000
,  // measure 73
0100
1000
0020
0000
,  // measure 74
2030
0000
3002
0000
,  // measure 75
0003
0000
0000
0010
0000
0010
0100
0000
0100
1000
0000
0000
,  // measure 76
0001
0000
0000
0001
0000
0001
1000
0000
0000
0100
0000
0000
,  // measure 77
1000
0010
0110
0000
,  // measure 78
1010
0000
0101
0000
,  // measure 79
0011
0000
0000
0000
0000
0000
1001
0000
1000
0010
0000
0000
,  // measure 80
0100
0000
0000
0010
0000
1000
0100
0000
0000
0010
0000
0000
,  // measure 81
0100
1000
0002
0103
,  // measure 82
0020
1030
0200
0010
,  // measure 83
0310
0000
0000
0000
0000
0000
0100
0000
0100
1000
0000
0000
,  // measure 84
0010
0000
0000
0100
0000
0100
0010
0000
0000
1000
0000
0000
,  // measure 85
0001
0010
0200
1300
,  // measure 86
0020
0130
0002
1000
,  // measure 87
1003
0000
0000
0000
0000
0000
0001
0000
0010
0100
0000
0000
,  // measure 88
0010
0000
0000
0001
0000
0100
0010
0000
0000
1000
0000
0000
,  // measure 89
0001
0010
0200
1300
,  // measure 90
2000
3010
0200
0001
,  // measure 91
0302
0000
0000
1003
0000
0000
0100
0000
0100
0010
0000
0000
,  // measure 92
0001
0000
0000
1000
0000
0001
0100
0000
0000
0001
0000
0000
,  // measure 93
0010
0100
1100
0011
,  // measure 94
0101
1010
1001
0000
,  // measure 95
0110
0000
0000
1000
0000
1000
0001
0000
0001
0010
0000
0000
,  // measure 96
0100
1000
0020
1030
,  // measure 97
0002
0000
0000
0013
0000
0000
0100
0000
0010
0001
0000
0000
,  // measure 98
0100
0001
2000
0100
,  // measure 99
3100
0000
0000
0010
0000
0100
1000
0000
1000
0010
0000
0000
,  // measure 100
0100
0010
2000
3010
,  // measure 101
0200
0301
0020
2030
,  // measure 102
3020
0032
2000
0000
,  // measure 103
3003
0000
0000
1000
0000
1000
0010
0000
0010
0100
0000
0000
,  // measure 104
0010
0000
0000
0010
0000
0010
0100
0000
0100
0010
0000
0000
,  // measure 105
0010
0000
0000
0000
0000
0010
0100
0000
0100
0001
0000
0000
,  // measure 106
1000
0100
0020
0001
,  // measure 107
0031
0000
0000
0100
0000
0010
1000
0000
0001
0010
0000
0000
,  // measure 108
0100
1000
0002
0000
,  // measure 109
0203
0000
0320
1000
,  // measure 110
1030
0001
2000
0100
,  // measure 111
3100
0000
0000
0010
0000
0010
0001
0000
0001
0100
0000
0000
,  // measure 112
0010
0100
1001
0000
,  // measure 113
0110
0000
0000
0000
0000
0000
1001
0000
1000
0001
0000
0000
,  // measure 114
0001
0000
0000
0001
0000
1000
0001
0000
0000
0010
0000
0000
,  // measure 115
0100
1000
0110
0000
,  // measure 116
1001
0000
0110
0000
,  // measure 117
2002
0000
0000
0000
,  // measure 118
3003
0000
0000
0000
;
