#VERSION:0.83;
#TITLE:West Coast (Lenno Remix);
#SUBTITLE:;
#ARTIST:Pretty Sister;
#TITLETRANSLIT:;
#SUBTITLETRANSLIT:;
#ARTISTTRANSLIT:;
#GENRE:;
#ORIGIN:;
#CREDIT:;
#BANNER:West Coast (Lenno Remix).png;
#BACKGROUND:West Coast (Lenno Remix)-bg.png;
#PREVIEWVID:;
#JACKET:West Coast (Lenno Remix)-jacket.png;
#CDIMAGE:;
#DISCIMAGE:;
#LYRICSPATH:;
#CDTITLE:;
#MUSIC:West Coast (Lenno Remix).ogg;
#OFFSET:-0.787000;
#SAMPLESTART:80.785004;
#SAMPLELENGTH:15.979000;
#SELECTABLE:YES;
#BPMS:0.000=120.000;
#STOPS:;
#DELAYS:;
#WARPS:;
#TIMESIGNATURES:0.000=4=4;
#TICKCOUNTS:0.000=4;
#COMBOS:0.000=1;
#SPEEDS:0.000=1.000=0.000=0;
#SCROLLS:0.000=1.000;
#FAKES:;
#LABELS:0.000=Song Start;
#BGCHANGES:;
#KEYSOUNDS:;
#ATTACKS:
;

//---------------dance-single - ----------------
#NOTEDATA:;
#CHARTNAME:;
#STEPSTYPE:dance-single;
#DESCRIPTION:;
#CHARTSTYLE:;
#DIFFICULTY:Beginner;
#METER:3;
#RADARVALUES:0.120430,0.220302,0.043907,0.000000,0.000000,96.000000,91.000000,5.000000,0.000000,0.000000,0.000000,0.000000,0.000000,0.000000,0.120430,0.220302,0.043907,0.000000,0.000000,96.000000,91.000000,5.000000,0.000000,0.000000,0.000000,0.000000,0.000000,0.000000;
#CREDIT:Pandemonium X;
#NOTES:
// measure 0
0000
0000
0000
0000
,  // measure 1
0000
0000
0000
0000
,  // measure 2
0000
0000
0000
0000
,  // measure 3
0000
0000
0000
0000
,  // measure 4
0000
0001
0000
0000
,  // measure 5
0000
1000
0000
0000
,  // measure 6
0000
0001
0000
0000
,  // measure 7
0000
1000
0000
0000
,  // measure 8
0010
0000
0000
0000
,  // measure 9
0100
0000
0000
0000
,  // measure 10
0001
0000
0000
0000
,  // measure 11
0010
0000
0000
0000
,  // measure 12
0001
0000
0000
0000
,  // measure 13
1000
0000
0000
0000
,  // measure 14
0010
0000
0000
0000
,  // measure 15
1000
0000
0000
0000
,  // measure 16
0001
0001
0000
0000
,  // measure 17
0000
0100
0000
0000
,  // measure 18
0010
0010
0000
0000
,  // measure 19
0000
1000
0000
1000
,  // measure 20
0100
0100
0000
0000
,  // measure 21
0000
0010
0000
0000
,  // measure 22
0001
0001
0000
0000
,  // measure 23
1000
0000
0000
0000
,  // measure 24
0010
0010
0000
0000
,  // measure 25
0100
0000
0010
0000
,  // measure 26
1000
1000
1000
0000
,  // measure 27
0001
0000
0010
0000
,  // measure 28
0100
0100
0000
0000
,  // measure 29
0010
0000
0001
0000
,  // measure 30
1000
1000
0000
0000
,  // measure 31
0010
0000
0000
0000
,  // measure 32
1001
0000
0000
0000
,  // measure 33
1000
0000
0000
0001
,  // measure 34
0000
1000
0000
0010
,  // measure 35
0010
0000
0100
0000
,  // measure 36
0010
0000
0000
0000
,  // measure 37
1000
1000
1000
0000
,  // measure 38
0001
0000
1000
0000
,  // measure 39
1001
1001
1001
0000
,  // measure 40
0010
0000
0000
0000
,  // measure 41
0100
0000
0000
0000
,  // measure 42
0001
0000
0001
0000
,  // measure 43
0001
0001
0001
0000
,  // measure 44
1000
0000
0000
0000
,  // measure 45
0100
0000
0000
0000
,  // measure 46
0010
0000
0010
0000
,  // measure 47
0010
0010
0010
0000
,  // measure 48
0000
0100
0100
0000
,  // measure 49
1000
1000
1000
0000
,  // measure 50
0000
0001
0000
0001
,  // measure 51
0000
0001
0001
0000
,  // measure 52
0000
0100
0100
0000
,  // measure 53
0010
0010
0010
0100
,  // measure 54
0000
0010
0000
1000
,  // measure 55
0000
0001
1000
0110
;

//---------------dance-single - ----------------
#NOTEDATA:;
#CHARTNAME:;
#STEPSTYPE:dance-single;
#DESCRIPTION:;
#CHARTSTYLE:;
#DIFFICULTY:Easy;
#METER:5;
#RADARVALUES:0.176881,0.245877,0.008781,0.307346,0.000000,141.000000,140.000000,1.000000,35.000000,0.000000,0.000000,0.000000,0.000000,0.000000,0.176881,0.245877,0.008781,0.307346,0.000000,141.000000,140.000000,1.000000,35.000000,0.000000,0.000000,0.000000,0.000000,0.000000;
#CREDIT:Pandemonium X;
#NOTES:
// measure 0
0000
0000
0000
0000
,  // measure 1
0000
0000
0000
0000
,  // measure 2
0000
0000
0000
0000
,  // measure 3
0000
0000
0000
0000
,  // measure 4
0000
1000
0000
1000
,  // measure 5
0000
0001
0000
0001
,  // measure 6
0000
0100
0000
0100
,  // measure 7
0000
0010
0000
0010
,  // measure 8
1000
0100
0010
0000
,  // measure 9
0000
0100
1000
0001
,  // measure 10
0100
0001
0010
0000
,  // measure 11
0000
0100
0010
0001
,  // measure 12
1000
0010
0100
0000
,  // measure 13
0000
0001
0010
0100
,  // measure 14
0010
0001
1000
0000
,  // measure 15
0000
0001
1000
0010
,  // measure 16
1000
2000
0000
0000
,  // measure 17
3000
0100
0010
0001
,  // measure 18
0100
0200
0000
0000
,  // measure 19
0300
0010
1000
0001
,  // measure 20
0010
0020
0000
0000
,  // measure 21
0030
0100
0010
0001
,  // measure 22
1000
2000
0000
0000
,  // measure 23
0002
3003
0000
0000
,  // measure 24
1000
0002
0000
0000
,  // measure 25
0003
0010
0001
0100
,  // measure 26
0010
0010
0020
0000
,  // measure 27
0030
0100
0010
1000
,  // measure 28
0100
0200
0000
0300
,  // measure 29
0000
0010
0100
1000
,  // measure 30
0001
0002
0000
0000
,  // measure 31
2000
3003
0000
0000
,  // measure 32
0000
0001
0000
0100
,  // measure 33
0000
0010
0000
1000
,  // measure 34
0000
0100
0000
0010
,  // measure 35
0000
0001
0000
0010
,  // measure 36
0000
0001
0000
1000
,  // measure 37
0000
0010
0000
0100
,  // measure 38
0010
1000
0010
1000
,  // measure 39
0001
0010
0100
1000
,  // measure 40
1001
0001
1000
0020
,  // measure 41
0030
1000
0001
0200
,  // measure 42
0300
0002
0013
0002
,  // measure 43
2003
3002
2000
3003
,  // measure 44
0001
1000
0100
0200
,  // measure 45
0300
0010
0001
0002
,  // measure 46
0003
0200
0301
0200
,  // measure 47
0320
2030
0002
3003
,  // measure 48
0000
0000
1000
0000
0100
0000
0000
0010
,  // measure 49
0000
0001
0100
0010
,  // measure 50
0000
0200
0301
0200
,  // measure 51
0320
0230
0002
0303
,  // measure 52
0000
0000
0100
0000
0010
0000
0000
1000
,  // measure 53
0000
0001
1000
0100
,  // measure 54
0000
2000
3010
2000
,  // measure 55
3002
2003
3200
0020
,  // measure 56
0330
0000
0000
0000
;

//---------------dance-single - ----------------
#NOTEDATA:;
#CHARTNAME:;
#STEPSTYPE:dance-single;
#DESCRIPTION:;
#CHARTSTYLE:;
#DIFFICULTY:Medium;
#METER:8;
#RADARVALUES:0.306092,0.392525,0.228315,0.149283,0.021953,244.000000,218.000000,26.000000,17.000000,0.000000,0.000000,0.000000,0.000000,0.000000,0.306092,0.392525,0.228315,0.149283,0.021953,244.000000,218.000000,26.000000,17.000000,0.000000,0.000000,0.000000,0.000000,0.000000;
#CREDIT:Pandemonium X;
#NOTES:
// measure 0
0000
0000
0000
0000
,  // measure 1
0000
0000
0000
0000
,  // measure 2
0000
0000
0000
0000
,  // measure 3
0000
0000
0000
0000
,  // measure 4
0000
0001
0000
0001
,  // measure 5
0000
1000
0000
1000
,  // measure 6
0000
0010
0000
0010
,  // measure 7
0000
0000
0100
0000
0000
0000
0100
0010
,  // measure 8
1001
0000
1000
0001
0001
0000
0010
0000
,  // measure 9
1000
0000
0010
0010
0001
0000
0100
0010
,  // measure 10
1000
0000
0001
0001
0010
0000
1000
0010
,  // measure 11
0001
0000
0100
0100
0010
0000
0100
0000
,  // measure 12
0001
0000
0100
0100
0010
0000
1001
0000
,  // measure 13
1000
0000
0010
0010
0100
0000
0001
0000
,  // measure 14
1000
0000
0001
0001
0010
0000
0100
1000
,  // measure 15
0002
0013
0100
1000
,  // measure 16
0001
1000
0020
0000
0000
0000
0000
0000
,  // measure 17
0030
0000
0000
0000
0100
0000
0000
0001
0000
0000
0010
0000
0100
0000
0000
0000
,  // measure 18
0010
0001
2000
0000
0000
0000
0000
0000
,  // measure 19
3000
0001
0010
0000
1000
0000
0010
0000
,  // measure 20
0001
1000
0020
0000
0000
0000
0030
0000
,  // measure 21
0000
0000
0000
0000
0100
0000
0000
0010
0000
0000
1000
0000
0001
0000
0000
0000
,  // measure 22
1000
0100
0020
0000
0000
0000
0000
0100
,  // measure 23
0200
0330
0000
0000
,  // measure 24
1001
0001
0020
0000
0000
0000
0000
0000
,  // measure 25
0030
0000
0000
0000
0100
0000
0000
0010
0000
0000
0001
0000
1000
0000
0010
0000
,  // measure 26
1000
0000
0000
0001
0000
0000
0200
0000
0000
0000
0000
0000
0000
0000
0000
0000
,  // measure 27
0300
0001
0010
1000
,  // measure 28
0010
0001
2000
0000
0000
0000
0000
0000
,  // measure 29
3000
0000
0000
0000
0001
0000
0000
1000
0000
0000
0010
0000
1000
0000
0000
0000
,  // measure 30
0100
0010
0002
0000
0000
0000
0000
1000
,  // measure 31
2000
0000
3003
0000
,  // measure 32
0101
0001
0010
0001
,  // measure 33
1010
1100
1010
0010
,  // measure 34
1001
0000
0010
0000
1001
0000
0001
0100
,  // measure 35
1000
0000
1000
0100
0002
0000
1000
1003
,  // measure 36
0100
0000
0110
0000
1100
0000
1000
0010
,  // measure 37
0110
0101
0110
0010
,  // measure 38
1001
0000
0010
0000
1001
0000
0001
0010
,  // measure 39
1000
0010
0001
0100
0010
1000
0100
0010
,  // measure 40
0001
0000
1000
0000
0010
0010
0010
0000
,  // measure 41
1000
0000
0001
0000
0100
0100
0100
0000
,  // measure 42
0000
0000
0001
0100
0001
0000
1000
0010
,  // measure 43
2000
3002
2000
3003
,  // measure 44
1000
0000
0100
0000
0010
0010
0010
0000
,  // measure 45
0001
0000
0010
0000
0100
0100
0100
0000
,  // measure 46
0010
0000
0001
1000
0010
0000
0010
1000
,  // measure 47
0002
0000
0023
0000
0130
0010
0001
1000
,  // measure 48
0010
0000
1010
0000
0101
0000
0000
0011
,  // measure 49
0000
0010
0010
0000
1100
0000
0101
0000
,  // measure 50
0000
0000
0001
0100
0010
0000
0100
0010
,  // measure 51
1000
0001
0010
0000
,  // measure 52
0000
0000
0110
0000
1100
0000
0000
0011
,  // measure 53
0000
0001
0001
0000
1010
0000
0011
0000
,  // measure 54
0000
0000
0001
0010
0100
0000
0100
0010
,  // measure 55
0001
0000
1000
0000
0010
0100
0001
0010
;

//---------------dance-single - ----------------
#NOTEDATA:;
#CHARTNAME:;
#STEPSTYPE:dance-single;
#DESCRIPTION:;
#CHARTSTYLE:;
#DIFFICULTY:Hard;
#METER:12;
#RADARVALUES:0.395160,0.490657,0.237096,0.245877,0.131720,315.000000,288.000000,27.000000,28.000000,0.000000,0.000000,0.000000,0.000000,0.000000,0.395160,0.490657,0.237096,0.245877,0.131720,315.000000,288.000000,27.000000,28.000000,0.000000,0.000000,0.000000,0.000000,0.000000;
#CREDIT:Pandemonium X;
#NOTES:
// measure 0
0000
0000
0000
0000
,  // measure 1
0000
0000
0000
0000
,  // measure 2
0000
0000
0000
0000
,  // measure 3
0000
0000
0000
0000
,  // measure 4
0000
1000
0000
0001
,  // measure 5
0000
1000
0000
0001
,  // measure 6
0000
1000
0000
0001
,  // measure 7
0000
0000
0000
0000
1000
0000
0000
0000
0000
0000
0001
0100
0001
0000
1000
0100
,  // measure 8
1000
0000
0010
0000
1000
0000
0001
0000
0010
0000
0100
0010
0000
0000
0000
0000
,  // measure 9
0000
0100
0010
0000
0100
0000
1000
0000
0001
0000
0100
0001
0000
0001
0000
0010
,  // measure 10
0000
0100
1000
0000
0100
0000
1000
0000
0001
0000
0100
0010
0000
0000
0000
0000
,  // measure 11
0000
1000
0010
0000
1000
0000
0001
0000
0010
0000
0100
0010
0000
0100
0000
1000
,  // measure 12
0000
0001
0000
1000
0100
0000
0010
0000
0001
0000
1000
0010
0200
0000
0000
0000
,  // measure 13
0300
0010
1000
0000
0001
0000
0010
0000
0100
0000
0100
0010
0000
0010
0000
0100
,  // measure 14
0000
1000
0000
0001
0100
0000
0010
0000
1000
0000
0001
1000
0100
0010
0000
0021
,  // measure 15
0000
0230
0310
0001
1000
0000
0000
0000
,  // measure 16
0001
0100
0020
0000
1000
0000
0100
0000
,  // measure 17
1000
0000
0000
0000
0130
0000
0010
1000
0000
0000
0001
0000
0010
0000
1000
0000
,  // measure 18
0010
0001
2000
0000
0100
0000
3010
0000
,  // measure 19
1000
0001
1000
0001
0010
1000
0010
0001
,  // measure 20
0100
0001
0200
0000
0010
0000
0301
0000
,  // measure 21
0100
0000
0000
0000
0010
0000
0100
0001
0000
0000
0001
0000
1000
0000
0010
0000
,  // measure 22
0100
0001
0020
0000
0100
0000
0031
0000
,  // measure 23
0001
1000
0100
0010
1001
0000
0000
0000
,  // measure 24
0001
1000
0020
0000
1000
0000
0130
0000
,  // measure 25
0001
0000
1000
0000
0010
0000
1000
0001
0000
0000
0010
0000
0100
0000
0010
0000
,  // measure 26
0001
0000
0000
1000
0000
0000
2020
0000
0000
0000
0000
0000
0000
0000
3030
0000
,  // measure 27
0000
0000
0100
0010
0100
0001
1000
0001
,  // measure 28
0010
0100
2000
0000
0100
0000
3010
0000
,  // measure 29
1000
0000
0001
0000
0010
0000
0100
1000
0000
0000
0010
0000
1000
0000
0010
0000
,  // measure 30
0100
0010
0200
0000
0001
0000
0310
1000
,  // measure 31
2000
0001
3001
0000
,  // measure 32
2010
0100
0010
0100
,  // measure 33
0010
0100
3010
2010
,  // measure 34
3100
0000
2010
0000
3100
0000
0010
0100
,  // measure 35
1000
0100
0010
0001
0200
0000
0001
0301
,  // measure 36
0102
0010
0100
0010
,  // measure 37
1000
1000
1003
0102
,  // measure 38
0013
0000
0102
0000
0013
0000
0100
0010
,  // measure 39
0001
0010
1000
0010
0001
0100
0010
1000
,  // measure 40
1001
0000
1000
0100
0110
0010
0012
0000
,  // measure 41
0003
0000
0001
0100
0110
0010
2010
0000
,  // measure 42
3000
0000
0001
0100
1000
0000
0001
0100
,  // measure 43
1000
0100
0001
1001
,  // measure 44
0000
1000
0100
0010
0011
0001
0201
0000
,  // measure 45
0300
0010
1000
0100
0110
0100
2100
0000
,  // measure 46
3000
0000
0001
0010
1000
0000
0001
0010
,  // measure 47
1000
0000
0010
0000
0001
0100
0001
1000
,  // measure 48
0001
0000
1020
0000
0130
0000
0010
2010
,  // measure 49
0000
0100
0100
0000
3001
0000
1001
0000
,  // measure 50
0000
0000
0001
0100
1000
0000
1000
0100
,  // measure 51
0001
0010
0110
1001
,  // measure 52
1000
0000
0021
0000
0130
0000
0010
0012
,  // measure 53
0000
0100
0100
0000
1003
0000
1001
0000
,  // measure 54
0000
0000
1000
0100
0001
0000
0001
0100
,  // measure 55
1000
0000
0010
0000
0100
0010
1000
1000
;

//---------------dance-single - ----------------
#NOTEDATA:;
#CHARTNAME:;
#STEPSTYPE:dance-single;
#DESCRIPTION:;
#CHARTSTYLE:;
#DIFFICULTY:Challenge;
#METER:13;
#RADARVALUES:0.509317,0.614693,0.430285,0.597130,0.408332,406.000000,355.000000,49.000000,68.000000,29.000000,3.000000,0.000000,0.000000,0.000000,0.509317,0.614693,0.430285,0.597130,0.408332,406.000000,355.000000,49.000000,68.000000,29.000000,3.000000,0.000000,0.000000,0.000000;
#CREDIT:Pandemonium X;
#NOTES:
// measure 0
0000
0000
0000
0000
,  // measure 1
0000
0000
0000
0000
,  // measure 2
0000
0000
0000
0000
,  // measure 3
0000
0000
0000
0000
0000
0000
0000
0000
0000
0000
0000
0000
0000
0000
0000
1000
,  // measure 4
0000
1000
0000
0000
0010
0000
0010
0000
0010
0000
0000
1000
0000
0000
0000
0000
,  // measure 5
0000
0001
0000
0000
0010
0000
0010
0000
0010
0000
0000
0001
0000
0001
0000
0100
,  // measure 6
0000
0100
0000
0000
0010
0000
0010
0000
0010
0000
0000
0100
0000
0000
0000
0000
,  // measure 7
0000
0100
0000
0000
0010
0000
0010
0000
0010
0000
1000
0001
1000
0000
0001
1000
,  // measure 8
0001
0010
0001
1000
0010
0000
1000
0000
0001
0010
0000
0100
0000
0000
0000
0000
,  // measure 9
0000
0010
0001
0100
0001
0000
1000
0000
0010
0100
0000
0100
0000
0010
0000
1000
,  // measure 10
0000
0100
1000
0010
1000
0000
0001
0000
1000
0000
0100
0010
0001
0010
0100
1000
,  // measure 11
0000
0001
0100
0010
0100
0000
0001
0000
1000
0100
0000
0010
0000
0100
0000
1000
,  // measure 12
0000
0010
0100
0001
0010
0000
0001
0000
1000
0010
0000
0200
M0MM
0000
0300
0000
,  // measure 13
0000
0100
0010
1000
0001
0000
1000
0000
0001
0010
0000
0100
0000
0010
0000
0001
,  // measure 14
0000
1000
0001
0100
0001
0000
0010
0000
0100
0010
0000
0001
0100
0010
0000
2010
,  // measure 15
0000
3100
0000
0100
1000
0000
0001
0000
0100
0010
1000
0010
1000
0100
0010
0001
,  // measure 16
1000
0100
0020
0000
0001
0000
0100
0000
,  // measure 17
0031
0000
0000
0000
0010
0000
0001
0100
0000
0000
0010
0000
1000
0000
0001
0000
,  // measure 18
1000
0100
2000
0000
0100
0000
0001
0000
,  // measure 19
3100
0010
0001
0010
0100
1000
0010
0100
,  // measure 20
1001
0010
1002
0000
0010
0000
0100
0000
,  // measure 21
1003
0000
0100
0000
1000
0000
0010
1000
0000
0001
0010
0000
0100
0000
0010
0000
,  // measure 22
0001
0100
0020
0000
1000
0000
0130
0002
,  // measure 23
0023
0000
0000
0000
0100
0000
0000
0000
0031
0000
1000
0100
0010
0001
1000
0100
,  // measure 24
0010
0100
2000
0000
0100
0000
0010
0000
,  // measure 25
3001
0000
0100
0000
1000
0000
0100
0010
0000
0100
0001
0000
1000
0000
0001
0000
,  // measure 26
0011
0000
0000
1100
0000
0000
2001
0000
0010
0000
0000
0000
0001
0000
0000
0000
,  // measure 27
3010
1000
0100
0010
0100
1000
0010
1000
,  // measure 28
0001
0010
0200
0000
1000
0000
0001
0000
,  // measure 29
1300
0000
0010
0000
0100
0000
0001
0010
0000
0100
0010
0000
0001
0000
1000
0000
,  // measure 30
0010
1000
0002
0000
0100
0000
0013
0200
,  // measure 31
2300
0000
0100
0000
3010
0010
0010
0000
,  // measure 32
1001
1000
0100
0001
0100
1000
0010
0001
,  // measure 33
0020
0000
0000
0000
0000
0000
0000
0000
0000
0000
0000
0000
0230
0000
0000
0000
0000
0000
0000
0000
0000
0000
0000
0000
0002
0000
0000
0000
0000
0000
0303
0000
0000
0000
0000
0000
2020
0000
0000
0000
0000
0000
0000
0000
0000
0000
0000
3030
,  // measure 34
M2M2
0000
0000
0000
0000
0000
0000
0000
0000
0000
0000
0303
2M2M
0000
0000
0000
0000
0000
0000
0000
0000
0000
0000
3030
M2M2
0000
0000
0000
0000
0000
0000
0000
0000
0000
0000
0000
1303
0000
0000
0000
0000
0000
0100
0000
0000
0000
0000
0000
,  // measure 35
0001
0100
1000
0001
0020
0000
0130
1MM1
,  // measure 36
0000
0000
1200
0000
0001
0000
1300
0001
,  // measure 37
0022
0000
0000
0000
0000
0000
0000
0000
0000
0000
0000
0033
22MM
0000
0000
0000
0000
0000
0000
0000
0000
0000
0000
3300
MM22
0000
0000
0000
0000
0000
0000
0000
0000
0000
0000
0033
20M2
0000
0000
0000
0000
0000
0000
0000
0000
0000
0000
3003
,  // measure 38
M22M
0000
0000
0000
0000
0000
0000
0000
0000
0000
0000
0330
2MM2
0000
0000
0000
0000
0000
0000
0000
0000
0000
0000
3003
M22M
0000
0000
0000
0000
0000
0000
0000
0000
0000
0000
0330
2MM2
0000
0000
0000
0000
0000
0000
0000
0000
0000
0000
3003
,  // measure 39
101M
1000
1100
0100
0110
0110
1000
1000
,  // measure 40
0001
0100
0001
0100
0001
0000
0010
0000
0110
0000
0100
0000
2100
0000
0000
0000
,  // measure 41
3010
0100
0010
0100
0010
0000
1000
0000
1001
0000
0001
0000
0011
0000
0000
0000
,  // measure 42
1001
0000
0001
0200
2000
3300
1000
0200
,  // measure 43
0002
0000
0000
0000
0000
0000
0300
0000
0000
0000
0000
0000
2000
0000
0000
0000
0000
0000
0000
0000
0000
0000
0000
3003
M11M
0000
0000
0000
0000
0000
0000
0000
0000
0000
0000
0000
0000
0000
0000
0000
0000
0000
0000
0000
0000
0000
0000
0000
,  // measure 44
0000
1000
0100
0010
0011
0100
2001
0000
,  // measure 45
3000
0001
0010
0100
1100
0010
1002
0000
,  // measure 46
0003
0000
0001
0020
2000
3030
1000
0020
,  // measure 47
0032
0000
0000
0000
0203
0000
0000
0000
0320
0000
1030
0100
0010
0001
0010
0100
,  // measure 48
1000
0000
0011
0000
0101
0000
0000
1001
,  // measure 49
0000
1100
0101
0000
0011
0000
1011
0000
,  // measure 50
0000
0000
0001
0200
0020
0330
0100
0020
,  // measure 51
2030
0000
0000
0000
0000
0000
0000
0000
0000
0000
0000
0000
0002
0000
0000
0000
0000
0000
0000
0000
0000
0000
0000
3003
M11M
0000
0000
0000
0000
0000
0000
0000
0000
1000
0000
0000
0000
0000
0000
1000
0000
0000
0000
0000
0000
1000
0000
0000
,  // measure 52
0001
0010
0001
0010
0001
0000
0000
0000
1010
0000
0000
0000
0000
0000
0101
0000
,  // measure 53
0000
0011
1100
0000
0101
0000
1101
0000
,  // measure 54
0000
0000
0001
0020
0200
0330
0100
2000
,  // measure 55
0020
0000
3030
0000
0200
0000
0000
0000
0301
0000
0010
0001
1000
0100
0020
0000
,  // measure 56
0030
0000
0000
0000
;
